#VERSION:0.83;
#TITLE:Hervor;
#SUBTITLE:;
#ARTIST:INNOCENT NOIZE;
#TITLETRANSLIT:;
#SUBTITLETRANSLIT:;
#ARTISTTRANSLIT:;
#GENRE:;
#ORIGIN:;
#CREDIT:SupremeX;
#BANNER:hervor-bn.png;
#BACKGROUND:hervor-bg.png;
#PREVIEWVID:;
#JACKET:hervor-jacket.png;
#CDIMAGE:Folder.jpg;
#DISCIMAGE:;
#LYRICSPATH:;
#CDTITLE:;
#MUSIC:Hervor.ogg;
#OFFSET:-0.463732;
#SAMPLESTART:102.080002;
#SAMPLELENGTH:12.000000;
#SELECTABLE:YES;
#BPMS:0.000=170.000;
#STOPS:;
#DELAYS:;
#WARPS:;
#TIMESIGNATURES:0.000=4=4;
#TICKCOUNTS:0.000=4;
#COMBOS:0.000=1;
#SPEEDS:0.000=1.000=0.000=0;
#SCROLLS:0.000=1.000;
#FAKES:;
#LABELS:0.000=Song Start;
#BGCHANGES:;
#KEYSOUNDS:;
#ATTACKS:
;

//---------------dance-single - ----------------
#NOTEDATA:;
#CHARTNAME:;
#STEPSTYPE:dance-single;
#DESCRIPTION:;
#CHARTSTYLE:;
#DIFFICULTY:Challenge;
#METER:10;
#RADARVALUES:0.763618,1.109728,0.194838,0.364262,0.453209,631.000000,608.000000,23.000000,43.000000,0.000000,0.000000,0.000000,0.000000,0.000000,0.763618,1.109728,0.194838,0.364262,0.453209,631.000000,608.000000,23.000000,43.000000,0.000000,0.000000,0.000000,0.000000,0.000000;
#CREDIT:;
#NOTES:
0000
0000
0000
0000
,
0000
0000
0000
0000
,
0000
0000
0000
0000
,
0000
0000
0000
0000
,
1000
0000
0100
0000
1000
0000
0100
0000
0010
0001
1000
0100
1000
0100
0010
0000
,
0001
0000
1000
0000
0100
0000
0010
0000
0001
0100
0010
1000
0001
1000
0100
0000
,
0010
0000
0100
0000
0001
0000
0100
0010
1000
0010
1000
0001
1000
0000
0100
0000
,
0010
0000
0001
0000
0010
0000
0100
0010
0100
0010
0100
1000
0100
0000
0100
0000
,
1000
0010
0100
0010
0000
0100
0100
0100
,
0001
1000
0010
2000
0000
3100
0100
0100
,
1000
0010
0100
0002
0000
1003
1000
1000
,
0100
0010
0001
0020
0000
0130
0100
0100
,
1000
0001
1000
0100
1000
0001
1000
0000
,
0001
0100
0010
1000
0001
0100
0010
0000
,
1000
0100
1000
0100
0010
0001
0010
0000
,
0100
1000
0100
0010
0001
1000
0001
0000
,
1000
0100
1000
0001
1000
0100
0100
0100
,
1000
0001
0100
0010
1000
0100
0100
0100
,
0010
0001
0100
0010
1000
0001
0001
0001
,
0010
0100
0010
0001
0010
0100
0100
0100
,
1000
0100
0010
0100
1000
0010
0010
0010
,
0100
0001
0010
0100
0010
1000
1000
1000
,
0100
0010
0001
0010
0100
0001
0001
0001
,
1000
0010
0100
0000
0001
0100
0010
0000
1000
0001
0100
0000
0010
1000
0001
0000
,
2000
0000
3100
1000
0100
0010
0100
1000
,
0210
0000
0320
0000
0031
0010
0100
0010
,
0001
0010
0100
1000
0001
1000
0100
1000
,
0001
0100
0001
0100
0020
1000
1030
0010
,
1000
0001
0100
0001
0020
0000
0130
0010
,
1000
0000
2100
0000
3100
1000
0100
0010
,
0001
0000
0010
0000
0010
0000
0010
0000
0100
1000
0100
0000
1000
0100
1000
0000
,
0001
0100
0001
0000
0100
0001
0100
0000
0010
1000
0010
0000
0100
0000
0100
0000
,
0210
0000
0000
0000
0000
0000
0000
0000
0301
0000
0000
0000
0000
0000
1000
0010
,
0100
0001
0100
0010
1000
0100
0010
0001
0200
0000
0000
0000
0000
0000
0000
0000
,
0301
0010
0100
1000
0100
0010
0001
0100
0010
1000
0001
0100
0010
1000
0010
0000
,
0100
0000
0001
0000
1000
0000
0100
0000
2100
0000
0000
0000
0000
0000
3000
0100
,
0020
0000
0032
0000
,
1003
0100
0010
0001
0200
0000
0000
0000
,
1300
0010
0100
0001
1000
0010
0100
0001
0020
0000
0000
0000
0000
0000
0130
1000
,
0100
0010
0001
0010
0100
0010
0001
1000
0100
0010
0100
1000
0100
0010
0100
1000
,
0010
0100
0010
0100
0010
0100
0001
1000
,
0001
1000
0010
0100
0010
0100
0010
0000
,
1000
0100
1000
0001
1000
0100
1000
0100
,
0010
1000
0010
0100
0001
0100
0010
0000
,
1000
0100
0010
0100
0001
1000
0100
0010
,
0001
1000
0010
1000
0001
0010
0100
1000
,
0001
0100
0010
1000
0001
0100
0010
1000
0001
0100
0010
1000
0001
0010
0100
1000
,
0100
0010
0001
0010
0100
1000
0010
0100
0001
1000
0010
0100
0001
1000
0100
0000
,
2000
0000
0100
0100
3200
0000
0320
0000
,
0032
0000
0010
0000
0203
0000
0310
1000
,
2000
0100
3020
2030
,
3200
0000
0010
0000
0310
0010
0010
0010
,
0200
0001
0302
2003
,
3100
0011
0220
0330
,
1010
0000
0101
0010
1000
0100
0010
0001
,
1001
1100
0011
0110
,
1100
0010
0001
0010
0100
1000
0100
0010
,
0202
0000
0303
0000
0010
1000
0001
0100
,
0020
0100
0000
0030
1000
0001
0100
0001
,
2000
0000
0000
0000
3200
0010
0010
0010
,
0320
0000
0000
0032
0000
0000
1003
1000
,
2100
0000
3100
0010
0001
1000
0001
0001
,
0102
0000
0000
0000
0103
0000
0100
0010
0100
0001
0010
0100
1000
0100
1000
0000
,
0010
0100
0010
0100
0001
1000
0001
1000
0100
0010
0100
0001
1000
0001
1000
0000
,
0100
0000
0000
0000
0000
0000
0000
0000
0010
0000
0000
1000
0000
0100
0000
0000
0010
0000
0000
0001
0000
0100
0000
0000
0010
0000
0000
1000
0000
0001
0000
0000
,
0100
0000
0000
0000
0000
0000
0000
0000
0010
0000
0000
0100
0000
0001
0000
0000
1000
0000
0000
0010
0000
1000
0000
0000
0001
0000
0000
0100
0000
0001
0000
0000
,
1000
0000
0000
0000
0000
0000
0000
0000
0010
0000
0000
0100
0000
0001
0000
0000
1000
0000
0000
0010
0000
0100
0000
0000
0001
0000
0000
1000
0000
0010
0000
0000
,
0100
0000
0000
0001
0000
1000
0000
0000
0010
0000
0000
0100
0000
0010
0000
0000
1000
0000
0000
0000
0000
0000
0000
0000
1001
0000
0000
0000
0000
0000
0000
0000
,
1000
0100
0000
0000
0100
0010
0000
0000
0010
0001
0000
0000
1000
0100
0000
0000
,
0100
1000
0000
0000
0001
0100
0000
0000
0100
0001
0000
0000
1000
0100
0000
0000
,
0100
0010
0000
0000
0010
0001
0000
0000
0001
0100
0000
0000
0100
0010
0000
0000
,
1000
0100
0010
0100
1000
0100
0010
0001
,
0011
0001
0001
0010
0100
1100
1000
0010
,
0110
0100
0001
1000
1001
0010
0100
1000
,
0001
0001
0100
0100
0010
0100
0010
1000
,
0001
0100
0001
1000
0100
0010
0100
0010
,
0001
0100
0001
1000
0110
0001
0010
0100
,
2000
0000
3200
0000
0310
0001
0010
0100
,
0010
0100
1000
0100
0010
0100
0010
0001
,
0010
0100
0010
0001
1000
1000
0100
0100
,
2002
0000
0000
0000
,
0000
0000
0000
0000
0000
0000
0000
3003
;

//---------------dance-single - ----------------
#NOTEDATA:;
#CHARTNAME:;
#STEPSTYPE:dance-single;
#DESCRIPTION:;
#CHARTSTYLE:;
#DIFFICULTY:Hard;
#METER:8;
#RADARVALUES:0.605086,0.797617,0.194838,0.313434,0.144010,500.000000,477.000000,23.000000,37.000000,0.000000,0.000000,0.000000,0.000000,0.000000,0.605086,0.797617,0.194838,0.313434,0.144010,500.000000,477.000000,23.000000,37.000000,0.000000,0.000000,0.000000,0.000000,0.000000;
#CREDIT:;
#NOTES:
0000
0000
0000
0000
,
0000
0000
0000
0000
,
0000
0000
0000
0000
,
0000
0000
0000
0000
,
1000
0100
1000
0100
0010
0001
0010
0000
,
0100
1000
0100
0010
0001
0010
0100
0000
,
1000
0100
1000
0001
1000
0100
1000
0000
,
0001
0100
0001
1000
0001
0100
0001
0000
,
1000
0010
0100
0010
1000
0001
0100
0000
,
0010
1000
0010
0100
0001
0100
0010
0000
,
1000
0100
0010
0001
1000
0100
1000
0000
,
0010
0100
0001
1000
0010
0100
0010
0000
,
1000
0100
1000
0001
1000
0100
1000
0000
,
0001
0100
0010
1000
0001
0100
0010
0000
,
1000
0100
1000
0100
0010
0001
0010
0000
,
0100
1000
0100
0010
0001
1000
0001
0000
,
1000
0100
1000
0001
1000
0100
1000
0001
,
1000
0001
0100
0010
1000
0010
0100
0000
,
0001
1000
0001
0010
0001
1000
0001
0010
,
0100
1000
0100
0010
0001
1000
0001
0000
,
1000
0100
1000
0001
0100
0001
1000
0000
,
1000
0100
0010
0001
1000
0010
0100
0000
,
0001
0100
0010
1000
0001
1000
0100
0000
,
0100
1000
0100
0010
0001
0100
0001
0000
,
1100
0000
0010
0001
0010
0100
0010
0001
,
0010
0000
1001
0000
0100
0010
1000
0001
,
0100
0010
1000
0001
0010
0100
1000
0100
,
0010
0001
1000
0100
1000
0000
0110
0000
,
0001
0100
0010
1000
0001
0100
0010
1000
,
0001
0000
1001
0000
0100
0100
0100
0000
,
0010
1000
0010
1000
0001
0100
0001
0000
,
1000
0001
0100
0010
0001
1000
1000
1000
,
0200
0000
0000
0000
1300
0000
0000
0100
,
0010
0001
1000
0010
0200
0000
0000
0000
,
0302
0000
0000
0000
2003
0000
0000
3010
,
0100
0001
0100
0010
0200
0000
0000
0000
,
0320
0000
2030
0000
,
3001
0100
0001
0100
0020
0000
0000
0000
,
2030
0000
0000
0000
3002
0000
0000
1003
,
0100
1000
0001
1000
0200
0000
0000
0000
,
1300
0100
0010
0001
1000
0100
1000
0000
,
0010
0100
0010
1000
0010
0100
0010
0000
,
0001
0010
0100
1000
0100
1000
0100
0000
,
0010
0001
0010
0100
1000
0000
0101
0000
,
0010
1000
0010
0100
0001
1000
0100
0010
,
0001
1000
0010
1000
0001
0010
0100
1000
,
0001
0100
0001
1000
0100
0010
0001
1000
,
0001
1000
0100
0010
0001
0010
0100
0000
,
2000
0000
3200
0320
,
0032
0000
0203
0000
,
0320
0000
2030
3200
,
0320
0000
0000
0000
0032
0000
0000
0003
,
2000
0000
3100
1100
,
0101
0000
0220
0330
,
1100
1100
0011
0011
,
1001
0110
1001
0110
,
1000
0001
0010
0100
1000
0100
1000
0000
,
0202
0000
0303
0000
0010
1000
0001
0100
,
0020
0000
0000
0030
1000
0001
0100
0001
,
2000
0000
3200
0000
,
0320
0000
0000
0032
0000
0000
1003
1000
,
2000
0000
3100
0010
0001
1000
0001
0001
,
0002
0000
0103
0100
0100
0010
1000
0100
,
2000
0000
0000
3000
0002
0000
0000
0003
,
0100
0000
0000
0000
0000
0000
0000
0000
0010
0000
0000
1000
0000
0010
0000
0000
1000
0000
0000
0010
0000
0100
0000
0000
0001
0000
0000
0100
0000
0001
0000
0000
,
0100
0000
0000
0000
0000
0000
0000
0000
0010
0000
0000
1000
0000
0010
0000
0000
1000
0000
0000
0010
0000
0100
0000
0000
0001
0000
0000
0100
0000
0001
0000
0000
,
0100
0000
0000
0000
0000
0000
0000
0000
0010
0000
0000
1000
0000
0010
0000
0000
1000
0000
0000
0010
0000
1000
0000
0000
0001
0000
0000
0100
0000
0001
0000
0000
,
0100
0000
0000
0001
0000
1000
0000
0000
0010
0000
0000
1000
0000
0010
0000
0000
1000
0000
0000
0000
0000
0000
0000
0000
0001
0000
0000
0000
0000
0000
0000
0000
,
1000
0100
0000
0000
0100
1000
0000
0000
0010
0100
0000
0000
0100
0010
0000
0000
,
1000
0001
0000
0000
0001
1000
0000
0000
0010
0100
0000
0000
0100
0010
0000
0000
,
1000
0010
0000
0000
0010
1000
0000
0000
0001
0100
0000
0000
0100
0001
0000
0000
,
1000
0100
0010
0100
1000
0100
0100
0000
,
0011
0001
0001
0010
0100
1000
1000
0010
,
0010
0100
0001
1000
0001
0000
0110
0001
,
0001
0010
0100
1000
0010
0100
0010
1000
,
0001
0100
0010
1000
0010
0000
1001
0000
,
0010
0100
0001
1000
0100
0010
0001
1000
,
0100
0000
1100
0000
0101
0010
0100
1000
,
0100
0010
0100
1000
0100
0010
0100
0010
,
0001
0010
0100
1000
0001
1000
0010
0100
,
2002
0000
0000
0000
,
0000
0000
0000
0000
0000
0000
0000
3003
;

//---------------dance-single - ----------------
#NOTEDATA:;
#CHARTNAME:;
#STEPSTYPE:dance-single;
#DESCRIPTION:;
#CHARTSTYLE:;
#DIFFICULTY:Medium;
#METER:6;
#RADARVALUES:0.433242,0.519391,0.152482,0.144010,0.000000,358.000000,340.000000,18.000000,17.000000,0.000000,0.000000,0.000000,0.000000,0.000000,0.433242,0.519391,0.152482,0.144010,0.000000,358.000000,340.000000,18.000000,17.000000,0.000000,0.000000,0.000000,0.000000,0.000000;
#CREDIT:;
#NOTES:
0000
0000
0000
0000
,
0000
0000
0000
0000
,
0000
0000
0000
0000
,
0000
0000
0000
0000
,
1000
0000
0001
1000
0010
0100
0010
0000
,
1000
0000
0001
0000
1000
0100
1000
0000
,
0001
0000
1000
0000
0010
0100
0010
0000
,
1000
0010
0100
0000
0001
1000
0010
0000
,
0010
0000
1000
0000
0100
0000
1000
0100
,
1000
0100
0010
0000
0001
0000
1001
0000
,
1000
0100
1000
0001
,
0100
0001
0100
0000
1001
0000
0110
0000
,
0001
0010
0100
0000
1000
0100
1000
0000
,
0001
0100
0010
0000
1010
0000
0101
0000
,
1000
0100
0010
0000
0001
1000
0010
0000
,
0010
1000
0100
0000
1100
0000
1001
0000
,
0100
0001
0100
0001
0010
0100
1000
0000
,
0010
0010
0100
0100
,
0001
0010
0001
1000
0001
0010
0001
0000
,
1000
1000
0010
0010
,
0100
0001
0100
0001
1000
0100
1000
0000
,
0001
0001
0100
0100
,
0010
1000
0010
0100
0001
0100
0010
0000
,
1000
0100
1000
0001
,
0001
0000
1000
0100
1000
0000
0001
0100
,
0010
0000
0010
0000
1000
0010
0100
0001
,
1000
0010
0010
1000
,
1000
0001
0110
1001
,
0100
0000
0010
0000
1000
0000
0100
1000
,
0100
0000
0100
0000
1000
0100
0010
0000
,
0010
0000
0100
0001
0000
1000
0010
0000
,
1000
0001
1000
0001
0000
0100
0100
0000
,
0010
1000
0020
0000
,
0100
0100
0230
0000
,
0301
0000
1001
0000
,
0001
1000
0001
0000
1100
0000
0000
0000
,
0001
0100
0020
0000
,
1000
1000
2030
0000
,
3001
0000
0101
0000
,
1000
0100
1000
0000
0001
1000
0001
0000
,
0100
0100
0010
0010
,
1000
0001
1000
0000
0010
0100
0010
0000
,
1000
1000
0001
0001
,
1000
0100
1000
0100
1000
0001
0100
0000
,
0001
0000
0001
0000
1000
0100
1000
0000
,
0001
0010
0100
0000
1000
0010
0100
0000
,
0100
0001
1000
1000
,
0010
0100
0010
1000
,
0002
0000
0000
0000
0000
0003
0000
0000
,
2000
0000
0000
0000
0000
3000
0000
0000
,
0220
0000
0000
0000
0000
0330
0000
0000
,
2002
0000
0000
0000
3000
0003
0000
0000
,
0010
0000
0100
0000
0001
0000
1000
0100
,
1000
0000
0001
0000
0100
0000
0010
1000
,
0010
0100
0001
1000
,
0010
0000
0100
0010
0100
0000
0100
0000
,
0002
0000
0000
0000
0000
0003
0000
0000
,
2000
0000
0000
0000
0000
3000
0000
0000
,
0020
0000
0030
0000
,
0202
0000
0303
0000
,
1000
1000
0010
0010
,
0100
0100
0001
0001
,
1000
1000
0010
0100
,
0001
1000
0010
1000
,
0001
0000
1000
0000
0010
0100
0010
1000
,
1000
0000
0001
0000
1000
0000
0001
0100
,
0100
0000
1000
0000
0001
0000
1000
0010
,
0010
0000
1000
0001
0001
0000
0100
0100
,
0010
1000
0010
1000
,
0001
1001
0100
0010
,
1000
0010
0100
0001
,
1000
0001
1000
0001
1000
0000
0010
0000
,
1000
0100
1000
0100
1000
0000
0010
0000
,
0010
0000
0100
0000
0001
1000
0001
0000
,
1000
0100
1000
0001
,
0100
0010
0100
0000
0001
0000
1000
0000
,
0001
0000
0100
0000
0010
0000
1000
0010
,
0100
0000
0100
0000
0001
0010
0100
0000
,
1000
0010
1000
0000
0100
0100
0100
0000
,
0010
0001
0010
0100
1000
0000
0110
0000
,
2002
0000
0000
0000
,
0000
0000
0000
3003
;

//---------------dance-single - ----------------
#NOTEDATA:;
#CHARTNAME:;
#STEPSTYPE:dance-single;
#DESCRIPTION:;
#CHARTSTYLE:;
#DIFFICULTY:Easy;
#METER:3;
#RADARVALUES:0.340058,0.379139,0.101654,0.177895,0.000000,281.000000,269.000000,12.000000,21.000000,0.000000,0.000000,0.000000,0.000000,0.000000,0.340058,0.379139,0.101654,0.177895,0.000000,281.000000,269.000000,12.000000,21.000000,0.000000,0.000000,0.000000,0.000000,0.000000;
#CREDIT:;
#NOTES:
0000
0000
0000
0000
,
0000
0000
0000
0000
,
0000
0000
0000
0000
,
0000
0000
0000
0000
,
1000
1000
0010
0010
,
0100
0100
0001
0001
,
1000
1000
0010
0010
,
0100
0100
0001
0001
,
1000
1000
1000
1000
,
0010
0010
0010
0010
,
0100
0100
0100
0100
,
0001
0001
0001
0001
,
1000
1000
1000
1000
,
0010
0010
0010
0010
,
0100
0100
0100
0100
,
0001
0001
0001
0001
,
1000
0000
0010
0000
1000
0000
0001
1000
,
0001
1000
1000
1000
,
0001
0100
0010
1000
,
0001
1000
1000
1000
,
0001
0000
0100
0000
0010
0000
1000
0010
,
1000
0001
0100
0010
,
1000
1000
0001
0001
,
1000
0010
1000
0001
,
0100
0010
1000
0001
,
0100
0110
0110
0001
,
0001
1000
1000
1000
,
0010
0010
1000
0010
,
1000
0001
1000
0010
,
0110
0110
0001
0010
,
0100
1000
0010
1000
,
0010
0100
0001
1000
,
0020
0000
0130
0000
,
0000
0000
1000
0000
,
0000
0000
0001
1000
,
0001
1000
0001
0000
,
2000
0000
3010
0000
,
0100
0100
0110
0000
,
0001
1000
0001
0000
,
1000
1000
0010
0010
,
0100
0001
1000
0010
,
0100
0100
0001
0001
,
1000
0010
1000
0001
,
0100
0100
0010
0010
,
1000
1000
1000
1000
,
0001
0001
0001
0001
,
0100
0100
0100
0100
,
0010
0010
0010
0010
,
2000
0000
3000
0000
,
2002
0000
0000
3003
0220
0000
0330
0000
,
0001
0010
0100
1000
,
2020
3030
2020
3030
,
0001
0010
0100
1000
,
0001
0100
0010
1000
,
0001
1000
1000
0010
,
0100
0001
1000
0010
,
2000
0000
0000
3000
0000
0000
0001
0000
,
0001
0000
0100
0010
,
1000
0010
0100
0001
,
0202
0303
0202
0303
,
1000
0010
1000
0010
,
0100
0001
1000
0010
,
0100
0001
1000
0010
,
0100
0100
0001
0001
,
2000
0000
0000
0000
0000
0000
0000
3000
,
0000
0020
0000
0000
,
0030
0200
0000
0000
,
0000
0000
0300
0000
,
0001
1000
0001
1000
,
0010
0100
0010
0100
,
0001
1000
0001
1000
,
0001
0000
0000
0000
,
1000
0000
0010
0000
1000
0000
0001
0100
,
0001
1000
1000
0010
,
0100
0001
1000
0010
,
0100
0100
0001
0001
,
1000
0000
0010
0000
0100
0000
0001
1000
,
0001
1000
1000
0010
,
0100
0001
1000
0010
,
0100
0001
1000
0001
,
2002
0000
0000
0000
,
0000
0000
0000
3003
0000
0000
0000
0000
;

//---------------dance-single - Copied from----------------
#NOTEDATA:;
#CHARTNAME:Copied from;
#STEPSTYPE:dance-single;
#DESCRIPTION:Copied from;
#CHARTSTYLE:;
#DIFFICULTY:Beginner;
#METER:2;
#RADARVALUES:0.125858,0.169424,0.008471,0.000000,0.000000,104.000000,103.000000,1.000000,0.000000,0.000000,0.000000,0.000000,0.000000,0.000000,0.125858,0.169424,0.008471,0.000000,0.000000,104.000000,103.000000,1.000000,0.000000,0.000000,0.000000,0.000000,0.000000,0.000000;
#CREDIT:Copied from;
#NOTES:
0000
0000
0000
0000
,
0000
0000
0000
0000
,
0000
0000
0000
0000
,
0000
0000
0000
0000
,
1000
0000
0000
0000
,
0010
0000
0000
0000
,
1000
0000
0000
0000
,
0010
0000
0000
0000
,
0100
0000
0000
0000
,
0001
0000
0000
0000
,
0100
0000
0000
0000
,
0001
0000
0000
0000
,
1000
0000
0000
0000
,
0010
0000
0000
0000
,
1000
0000
0000
0000
,
0010
0000
0000
0000
,
0100
0000
0000
0000
,
0100
0000
0000
0000
,
0100
0000
0000
0000
,
0100
0000
0000
0000
,
0001
0000
0000
0000
,
0001
0000
0000
0000
,
0001
0000
0000
0000
,
0001
0000
0000
0000
,
1000
0000
0000
0000
,
1000
0000
0000
0000
,
0010
0000
0000
0000
,
0010
0000
0000
0000
,
1000
0000
0000
0000
,
1000
0000
0000
0000
,
0010
0000
0000
0000
,
0010
0000
0000
0000
,
0100
0000
0001
0000
,
0000
0000
1000
0000
,
0000
0000
0001
0000
,
0100
0000
0010
0000
,
0000
0000
1000
0000
,
0000
0000
0001
0000
,
0000
0000
0100
0000
,
0010
0000
1000
0000
,
0001
0000
0001
0000
,
0001
0000
0001
0000
,
0001
0000
0001
0000
,
0001
0000
0001
0000
,
1000
0000
1000
0000
,
1000
0000
1000
0000
,
1000
0000
1000
0000
,
1000
0000
0000
0000
,
0010
0000
0000
0000
,
0100
0000
0000
0000
,
0010
0000
0100
0000
,
0001
0000
1000
0000
,
0001
0000
1000
0000
,
1000
0000
0010
0000
,
0100
0000
0001
0000
,
1000
0000
1000
0000
,
0010
0000
0000
0000
,
0100
0000
0000
0000
,
0001
0000
1000
0000
,
0010
0000
0100
0000
,
0001
0000
1000
0000
,
0010
0000
1000
0000
,
0010
0000
0100
0000
,
0001
0000
1000
0000
,
0010
0000
0000
0000
,
1000
0000
0000
0000
,
0010
0000
0000
0000
,
0100
0000
0000
0000
,
0010
0000
0000
0000
,
0100
0000
0000
0000
,
0010
0000
0000
0000
,
0100
0000
0000
0000
,
0001
0000
0000
0000
,
1000
0000
1000
0000
,
0001
0000
0000
0000
,
1000
0000
0000
0000
,
0010
0000
0100
0000
,
0010
0000
0100
0000
,
0100
0000
0000
0000
,
0001
0000
1000
0000
,
1001
0000
0000
0000
;
