#TITLE:HONEY PUNCH -L.E.D.- G STYLE MIX-;
#SUBTITLE:;
#ARTIST:小坂りゆ;
#TITLETRANSLIT:;
#SUBTITLETRANSLIT:;
#ARTISTTRANSLIT:RIYU KOSAKA;
#CREDIT:SupremeX;
#BANNER:HONEY PUNCH-bn.png;
#BACKGROUND:HONEY PUNCH-bg.png;
#LYRICSPATH:;
#CDTITLE:;
#MUSIC:HONEY PUNCH -L.E.D.- G STYLE MIX-.ogg;
#OFFSET:-0.643;
#SAMPLESTART:34.170;
#SAMPLELENGTH:15.000;
#SELECTABLE:YES;
#DISPLAYBPM:175.000;
#BPMS:0.000=175.000;
#STOPS:;
#BGCHANGES:;

//---------------dance-single - ----------------
#NOTES:
     dance-single:
     :
     Beginner:
     2:
     0.119,0.237,0.020,0.000,0.000: // measure 1
0000
0000
0000
0000
,  // measure 2
0000
0000
0000
0000
,  // measure 3
0000
0000
0000
0000
,  // measure 4
0000
0000
0000
0000
,  // measure 5
0000
0000
0000
0000
,  // measure 6
1000
0000
0000
0000
,  // measure 7
1000
0000
0000
0000
,  // measure 8
1000
0000
0000
0000
,  // measure 9
1000
0000
0000
0000
,  // measure 10
0010
0000
0000
0000
,  // measure 11
0100
0000
0000
0000
,  // measure 12
0010
0000
0000
0000
,  // measure 13
0100
0000
0000
0000
,  // measure 14
0001
0000
0000
0000
,  // measure 15
1000
0000
0000
0000
,  // measure 16
0001
0000
0000
0000
,  // measure 17
1000
0000
0000
0000
,  // measure 18
0000
0001
0001
0000
,  // measure 19
0000
0000
0000
0000
,  // measure 20
0000
0001
0001
0000
,  // measure 21
0000
0000
0000
0000
,  // measure 22
0000
0100
0100
0000
,  // measure 23
0000
0000
0000
0000
,  // measure 24
0100
0100
0000
0000
,  // measure 25
0000
0000
0000
0000
,  // measure 26
0010
0000
0000
0000
,  // measure 27
0010
0000
1000
1000
,  // measure 28
1000
0000
0010
0010
,  // measure 29
0010
0000
0000
0000
,  // measure 30
0100
0000
0000
0000
,  // measure 31
0100
0000
0000
0000
,  // measure 32
0001
0000
0001
0000
,  // measure 33
0001
0000
0001
0000
,  // measure 34
1000
0000
0000
0000
,  // measure 35
1000
0000
0000
0000
,  // measure 36
1000
0000
0000
0000
,  // measure 37
0010
0000
0000
0000
,  // measure 38
0100
0000
0001
0001
,  // measure 39
0001
0000
0000
0000
,  // measure 40
1000
0000
1000
0000
,  // measure 41
1000
0000
1000
0000
,  // measure 42
0010
0000
0000
0000
,  // measure 43
0100
0000
0000
0000
,  // measure 44
0010
0000
0000
0000
,  // measure 45
0100
0000
0000
0000
,  // measure 46
0001
0000
0000
0000
,  // measure 47
0000
1000
0000
0000
,  // measure 48
0000
0001
0000
0000
,  // measure 49
0000
1000
0000
0000
,  // measure 50
0010
0000
0010
0000
,  // measure 51
0010
0000
0000
0000
,  // measure 52
0100
0000
0100
0000
,  // measure 53
0100
0000
0000
0000
,  // measure 54
0001
0000
0001
0000
,  // measure 55
0001
0000
0000
0000
,  // measure 56
1000
0000
1000
0000
,  // measure 57
1000
0000
0000
0000
,  // measure 58
1001
0000
0000
0000
,  // measure 59
0010
0000
0000
0000
,  // measure 60
0010
0000
0000
0000
,  // measure 61
0010
0000
0000
0000
,  // measure 62
0100
0000
0000
0000
,  // measure 63
0100
0000
0000
0000
,  // measure 64
0001
0000
0001
0000
,  // measure 65
1000
0000
1000
0000
,  // measure 66
0010
0000
0010
0000
,  // measure 67
0010
0000
0000
0000
,  // measure 68
0100
0000
0100
0000
,  // measure 69
0100
0000
0000
0000
,  // measure 70
1001
0000
0000
0000
;

//---------------dance-single - ----------------
#NOTES:
     dance-single:
     :
     Easy:
     3:
     0.311,0.313,0.069,0.069,0.000:
0000
0000
0000
0000
,
0000
0000
0000
0000
,
0000
0000
0000
0000
,
0000
0000
0000
0000
,
0000
0000
0000
0000
,
1000
1000
0010
0010
,
0100
0100
0001
0001
,
1000
1000
0010
0010
,
0100
0100
0001
0001
,
1000
0000
0010
0000
,
1000
0001
1000
0000
,
0010
0000
0100
0000
,
0001
1000
0001
0000
,
1000
0010
1000
0010
,
1000
0010
0010
0000
,
0100
0001
0100
0001
,
0100
0001
0001
0000
,
0000
1001
1001
0000
,
1000
0010
1000
1000
,
0000
0001
0100
0001
,
1000
0010
0100
0001
,
0000
1001
1001
0000
,
1000
0010
0100
0100
,
0000
0001
1000
0010
,
0100
0001
1000
0001
,
0001
0000
1000
0010
,
0010
0000
0100
0100
,
0100
0000
0001
1000
,
0001
0000
1000
1000
,
1000
0000
0010
0100
,
0010
0000
1000
0001
,
0100
0010
1000
0010
,
0100
0001
1000
0010
,
1010
0000
0001
0001
,
0001
0000
0100
0100
,
0100
0000
0010
1000
,
0010
1000
0010
0010
,
0010
0000
0100
0001
,
0100
0000
0010
1000
,
0001
1000
0010
0100
,
0001
1000
0010
0100
,
0002
0000
0000
0003
,
2000
0000
0000
3000
,
0020
0000
0000
0030
,
0200
0000
0000
0300
0000
0000
0000
0000
,
0001
1000
0001
1000
,
0010
0100
0000
0000
,
0001
1000
0001
1000
,
0010
0100
0000
0000
,
0001
0001
1000
1000
,
0010
0010
0100
0100
,
0001
1000
0001
1000
,
0010
0100
0010
0100
,
0010
0010
1000
1000
,
0001
0001
0100
0100
,
0010
1000
0010
0100
,
0001
1000
0001
1000
,
1001
0000
0010
0010
,
0010
0000
0100
0100
,
0100
0000
0001
1000
,
0001
0000
0000
0000
2000
0000
0000
3000
,
0000
0000
0010
0010
,
0010
0000
0100
0001
,
1000
0010
0100
0001
,
1000
0001
0001
1000
,
0010
0010
0100
0100
,
0001
1000
0010
1000
,
0001
0001
0100
0100
,
0010
0010
0010
0010
,
2002
0000
0000
0000
,
0000
0000
0000
0000
,
3003
0000
0000
0000
;

//---------------dance-single - ----------------
#NOTES:
     dance-single:
     :
     Hard:
     8:
     0.591,0.557,0.343,0.088,0.127:
0000
0000
0000
0000
,
0000
0000
0000
0000
,
0000
0000
0000
0000
,
0000
0000
0000
0000
,
0000
0000
0000
0000
,
1000
0000
0000
1000
0000
0000
0100
0000
0010
0000
0000
0010
0000
0000
0001
0000
,
1000
0000
0000
1000
0000
0000
1000
0000
0100
0000
0100
0000
0010
0000
0010
0000
,
0001
0000
0000
0001
0000
0000
0010
0000
0100
0000
0000
0100
0000
0000
1000
0000
,
0100
0000
0000
1000
0000
0000
0100
0000
0000
0000
0010
0000
0001
0000
0010
0000
,
0100
1000
0001
0100
0000
0100
0001
1000
,
0000
0110
0000
1001
0000
0000
0010
0100
,
0010
1000
0010
0100
0000
0100
0001
0100
,
0000
1010
0000
0101
0000
0010
1000
0010
,
0100
0010
1000
0010
0000
1000
0001
1000
,
0000
0101
0000
1010
0000
0000
0001
1000
,
0010
0100
0001
1000
0000
0010
0100
0001
,
0000
1100
0000
0011
0000
1000
0100
1000
,
0100
0000
0011
0000
1100
0000
0001
0100
,
0000
0100
0001
1000
1100
0000
0110
0000
,
0001
1000
0100
0000
0100
1000
0001
0100
,
0000
0100
0010
1000
0001
0000
1001
0000
,
0100
0000
1010
0000
0101
0000
0000
1000
,
0000
0100
1000
0100
1000
0000
0110
0000
,
0011
0000
1001
0000
0100
0001
0100
0010
,
0100
0001
1000
0001
0000
1000
0010
0000
,
1001
0000
0010
0100
0000
0100
0010
0000
,
1001
0000
0010
0100
0000
0100
0001
1000
,
0001
0000
1000
0100
0000
0100
1000
0100
,
1000
0000
0001
0020
0000
0000
0031
0010
,
0001
0000
1000
0000
0001
1000
0001
0010
,
0001
0000
1000
0001
0000
0100
0010
1000
,
0010
0000
0100
0001
1000
0010
0100
0001
,
1000
0110
1001
0110
,
1001
0000
0100
0010
0000
0010
1000
0000
,
0101
0000
1000
0010
0000
0010
1000
0001
,
1000
0000
0001
0100
0000
0100
0001
1000
,
0010
0000
0010
2000
0000
0000
3010
0100
,
0001
0000
0001
0100
0010
1000
0010
0100
,
0010
0000
1000
0001
0000
0100
0001
0100
,
0001
0000
1000
0100
1000
0100
0010
0001
,
0010
1100
1001
0011
,
1000
0100
1000
0100
1000
0100
0010
0100
,
0010
0100
0010
0001
0010
0001
0010
0100
,
1000
0000
0100
2000
0000
0000
3200
0000
,
1300
0000
1000
0000
0001
0100
0010
0000
,
0010
0100
0001
0020
0000
0031
0100
0010
,
0000
0010
1000
1000
0001
0010
0100
1000
,
0001
0100
0001
2000
0000
3001
0001
1000
,
0001
1000
0010
0010
0100
0001
1000
1000
,
0100
0000
0000
0100
0000
0000
0010
0000
0001
0000
0000
0001
0000
0000
1000
0000
,
0010
0000
0000
0010
0000
0000
0100
0000
0000
0000
0001
0000
0010
0000
0100
0000
,
1000
0000
0000
1000
0000
0000
0100
0000
0010
0000
0000
0010
0000
0000
0001
0000
,
0100
0000
0000
0100
0000
0000
0010
0000
1000
0000
0000
1000
0000
0000
0100
0000
,
0010
0000
0000
0010
0000
0000
0001
0000
0010
0000
0000
0010
0000
0000
0100
0000
,
1000
0000
0000
1000
0000
0000
0100
0000
0000
0000
0010
0000
0001
0000
0010
0000
,
0001
0000
0000
0001
0000
0000
0010
0000
0100
0000
0000
0100
0000
0000
1000
0000
,
0010
0000
0000
0010
0000
0000
1000
0000
0000
1000
0000
0000
0110
0000
0000
0000
,
1001
0000
0001
0100
0000
0100
0001
0000
,
1100
0000
0010
0001
0000
0001
0010
0100
,
1000
0000
0001
1000
0000
1000
0100
0010
,
0001
0000
1000
0002
0000
0000
0013
0001
,
1000
0000
0010
0100
0010
1000
0001
1000
,
0001
0000
1000
0010
0100
0001
1000
0100
,
1000
0000
0001
1000
0001
0100
0010
0100
,
0010
1001
0110
1001
,
0100
0000
0000
0100
0000
0000
0010
0000
1000
0000
0000
1000
0000
0000
0100
0000
,
0010
0000
0000
0010
0000
0000
0001
0000
0000
0000
1000
0000
0001
0000
0100
0000
,
0010
0000
0000
0010
0000
0000
0100
0000
0001
0000
0000
0001
0000
0000
0010
0000
,
0100
0000
0000
0100
0000
0000
1000
0000
0000
0000
1000
0000
0001
0000
1000
0000
,
0220
0000
0000
0000
,
0000
0000
0000
0000
,
0330
0000
0000
0000
;

//---------------dance-single - ----------------
#NOTES:
     dance-single:
     :
     Medium:
     6:
     0.431,0.487,0.284,0.029,0.000:
0000
0000
0000
0000
,
0000
0000
0000
0000
,
0000
0000
0000
0000
,
0000
0000
0000
0000
,
0000
0000
0000
0000
,
1000
0010
0100
0001
,
1000
0001
1000
0000
0010
0100
0010
0000
,
0001
1000
0010
1000
,
0001
0100
0010
0000
0010
0100
0001
0000
,
1000
0100
0010
0001
,
0001
1000
0100
1000
0000
0000
0001
0000
,
0100
0010
1000
0001
,
0100
0000
0001
0000
1000
0010
0100
0001
,
0100
0000
0010
1000
0000
1000
0010
0100
,
0000
0100
0000
0001
0000
0000
1000
0000
,
0010
1000
0001
0100
,
0010
1001
0110
0000
,
0000
1001
1001
0000
,
0010
0100
1010
0101
,
0000
0000
1000
0000
0001
0000
0100
0010
,
0000
0010
0100
0000
1001
0000
1001
0000
,
0000
0110
0110
0000
,
0001
1000
0010
1000
,
0001
0000
0100
0000
0010
0000
1000
0001
,
0000
0001
1000
0000
0000
0100
0010
0000
,
1001
0000
0000
0100
0000
0010
0100
0000
,
0110
0000
0000
0001
0000
1000
0100
0010
,
0001
0000
0000
1000
0000
0001
0010
0100
,
1000
0000
0000
0200
0000
0000
1300
0000
,
0000
0000
0000
0001
0000
1000
0001
0100
,
0001
0000
0000
1000
0000
0001
0010
0100
,
1000
0100
1000
0001
,
0100
0001
1001
0110
,
1001
0000
0001
1000
,
1001
0000
0000
0010
0000
0100
0010
1000
,
0001
0000
0000
1000
0000
0001
0100
0001
,
0100
0000
0010
1000
0000
0001
1000
0000
,
0110
0000
0001
1000
,
0001
0000
1000
0001
,
0100
0001
1000
0100
,
1100
0110
0011
0100
,
1000
0100
0010
0001
,
1000
0000
0001
0000
1000
0100
1000
0001
,
0100
0000
0000
0010
0000
0000
1001
0000
,
1001
0000
0000
0000
,
0100
0010
0100
0010
0000
0000
1000
0000
,
0100
1000
0001
0000
,
1000
0000
0001
0100
0000
0100
0001
1000
,
0000
1000
0001
0000
0110
0000
0110
0000
,
1000
0100
0010
0001
,
0010
0000
0100
0000
1000
0000
0001
1000
,
0001
0100
0010
0100
,
0010
0000
1000
0000
0100
1000
0100
0000
,
0010
0001
0010
0100
,
1000
0000
0001
0000
0100
0000
0010
1000
,
0010
0100
0001
0100
,
0010
0000
1000
0000
0100
1000
0100
0000
,
0011
0000
1000
0100
0000
0100
1000
0000
,
0110
0000
0001
0100
0000
0100
0010
0100
,
0010
0000
1000
0001
0000
0001
1000
0100
,
1000
0000
0001
2000
0000
0000
3100
0000
,
0000
0000
0000
0010
0000
0001
0010
0001
,
0010
0000
0000
0100
0000
1000
0100
1000
,
0001
1000
0001
0100
,
0010
0101
1010
1001
,
0100
0010
0100
0001
,
1000
0000
0001
0000
1000
0000
0100
1000
,
0100
0010
0001
0010
,
0100
0000
1000
0000
0100
1000
0100
1000
,
2000
0000
0000
0000
,
0000
0000
0000
0000
,
3000
0000
0000
0000
;
