#TITLE:Guilt & Love;
#SUBTITLE:;
#ARTIST:The Plastic Ambition (jun & DJ YOSHITAKA);
#TITLETRANSLIT:;
#SUBTITLETRANSLIT:;
#ARTISTTRANSLIT:;
#CREDIT:;
#BANNER:Guilt & Love-bn.png;
#BACKGROUND:Guilt & Love-bg.png;
#LYRICSPATH:;
#CDTITLE:;
#MUSIC:Guilt Love.ogg;
#OFFSET:-0.508;
#SAMPLESTART:58.054;
#SAMPLELENGTH:12.000;
#SELECTABLE:YES;
#BPMS:0.000=170.000;
#STOPS:;
#BGCHANGES:;

//---------------dance-single - ----------------
#NOTES:
     dance-single:
     :
     Medium:
     8:
     0.564,0.568,0.309,0.073,0.000:
0000
0000
0000
0000
,
0000
0000
0000
0000
,
0000
0000
0000
0000
,
0000
0000
0000
0000
,
1000
0000
0000
0000
0000
0010
0100
0010
,
0100
0001
0010
0100
,
1000
0000
0000
0100
0100
0000
1000
0000
,
0010
0100
0001
1000
,
0010
0100
0010
0000
1000
0010
0100
0000
,
0001
0010
0100
0000
1000
0010
0100
0000
,
0001
0010
0100
0000
1000
0010
1000
0000
,
0001
0010
0100
1000
0010
0100
0010
0100
,
0001
1000
0001
0000
1000
0010
1000
0000
,
0001
0010
0100
0000
1000
0010
0100
0000
,
0100
0001
1000
0000
0010
1000
0100
0000
,
0100
0010
0001
1000
0010
1000
0010
0000
,
0100
0000
0100
0000
0001
0010
0100
1000
,
0100
1100
0011
1001
,
0100
0010
1000
0001
1000
0100
1000
0100
,
0010
0001
1000
0010
0100
0001
1000
0000
,
1001
0000
0010
0000
0100
0000
0001
1000
,
0010
1001
1100
0011
,
1000
0000
0001
0010
0100
1000
0010
1000
,
1010
0101
1010
1001
,
0010
0100
0010
1000
0001
0100
0001
0100
,
0010
1001
0110
0001
,
1000
0100
1000
0010
0100
0001
0100
0010
,
1000
0100
0010
0001
1000
0100
1000
0000
,
1001
0000
0010
0100
0010
0000
1000
0001
,
0100
0100
1001
0100
,
0110
0000
0000
0001
0001
0000
1000
0010
,
0100
0001
0100
0010
1000
0010
0100
0000
,
0001
0010
0100
1000
0010
0100
0010
0100
,
0001
1000
0001
1000
0010
0000
0100
0000
,
0001
0010
0100
1000
0010
0100
0010
1000
,
0001
0000
1000
0000
0010
0100
0100
0000
,
0001
0010
0100
1000
0100
0000
0000
0000
,
0010
0001
0010
0100
1000
0000
0000
0000
,
0010
0100
0010
1000
0001
0000
0100
0000
,
0010
1000
1001
0000
,
0010
0100
0001
1000
,
0010
0100
0010
1000
0001
0100
0001
0000
,
1100
1001
0110
0000
,
0001
0010
0100
1000
0010
0100
0001
0100
,
0010
0000
0000
0000
1000
0000
1000
0010
,
0000
0010
0100
0000
0001
0010
0100
1000
,
0010
0100
0010
0100
0001
1000
0001
0100
,
0002
0000
1000
1003
0000
0001
1000
0000
,
2000
0000
0000
0100
3100
0000
1000
0000
,
0100
0010
0001
1000
0010
0100
0001
0100
,
0010
1000
0110
0000
,
0001
1000
0100
0010
0001
1000
0100
1000
,
0101
0000
0010
0000
1010
0000
0100
0001
,
0000
0001
0100
0000
0100
0010
1000
0100
,
0010
0001
1000
0010
1000
0001
0100
0000
,
0101
0000
0010
1000
0100
0010
0001
0100
,
0110
0001
0101
1010
,
1001
0000
0010
0100
0010
0100
0001
1000
,
0001
0100
0010
1000
0000
0001
0100
0010
,
0200
0000
0000
0310
0000
0000
1000
0000
,
1001
0000
0000
0001
0000
1000
0100
0010
,
0001
0000
1000
0100
0000
0100
1000
0100
,
0010
0000
0001
0010
0000
0100
1000
0100
,
0020
0000
0000
0031
0000
0000
1001
0000
,
0110
0000
1000
0010
0000
0010
1000
0001
,
0100
0000
0100
0010
0000
0010
1000
0100
,
0010
0000
0001
0100
0000
0100
0001
1000
,
1001
0000
0010
0010
0000
0000
1000
0000
,
0101
0000
0000
0010
0000
1000
0100
0010
,
0001
1000
0100
1000
0010
0100
0001
0100
,
0010
0000
1000
0010
0100
0010
0100
0001
,
0002
0000
1000
0000
1000
0003
1000
0000
,
0020
0100
0100
0130
,
2002
0000
3003
0000
;

//---------------dance-single - ----------------
#NOTES:
     dance-single:
     :
     Hard:
     10:
     0.747,0.735,0.582,0.373,0.218: // measure 1
0000
0000
0000
0000
,  // measure 2
0000
0000
0000
0000
,  // measure 3
0000
0000
0000
0000
,  // measure 4
0000
0000
0000
0000
,  // measure 5
2000
0000
0000
0000
0000
3010
0100
0010
,  // measure 6
0100
0101
1010
0101
,  // measure 7
1020
0000
0000
0100
0130
0001
1000
0100
,  // measure 8
0010
0100
0000
0010
0100
0000
0010
0001
0000
0010
0001
0000
1000
0000
1000
0000
,  // measure 9
0010
0000
0100
0000
0110
0000
0000
0000
1000
0000
0001
0100
0000
0001
0100
0000
,  // measure 10
0010
1000
1001
0010
0100
0010
0100
0100
,  // measure 11
0001
0000
1000
0000
1001
0000
0000
0010
1000
0000
0001
1000
0001
0000
1000
0000
,  // measure 12
0100
0010
0001
1000
0100
1000
0001
0010
,  // measure 13
0100
0000
1000
0000
1100
0000
0000
0001
0010
0000
0001
0010
0001
0000
0010
0000
,  // measure 14
0001
0010
1100
0000
1000
0010
0101
0000
,  // measure 15
0100
0000
0001
0000
1001
0000
0000
0100
0010
0000
0100
0010
0100
0000
0001
0000
,  // measure 16
0010
0100
1000
0100
0010
0001
2000
0000
,  // measure 17
3001
0010
0100
1000
0010
0100
0010
1000
,  // measure 18
0002
0203
0320
1030
,  // measure 19
0100
0000
0010
0000
1000
0001
0000
0001
1000
0100
0000
0100
1000
0000
1000
0010
,  // measure 20
0000
0010
0100
0001
0000
0001
0100
0010
0000
0010
1000
0000
2000
0000
0000
0000
,  // measure 21
3001
0010
0100
1000
0010
0100
0010
1000
,  // measure 22
0002
2003
3200
0320
,  // measure 23
0031
0000
0001
0010
0100
1000
0010
1000
,  // measure 24
1010
0101
1010
1001
,  // measure 25
0010
0000
0100
0000
0010
0000
0000
1000
0001
0000
1000
0000
0001
0000
0100
0000
,  // measure 26
0010
1000
1001
0000
0101
0000
1010
0000
,  // measure 27
1000
0000
0100
0000
1000
0000
0001
0100
0000
0001
0100
0000
0100
0000
0010
0000
,  // measure 28
1000
0100
0010
0001
1000
0100
2000
0000
,  // measure 29
3001
0000
1000
0000
0010
0000
0100
0000
0010
1000
0000
1000
0010
0000
1000
0000
,  // measure 30
0101
1001
0110
1010
,  // measure 31
2001
0000
0000
0001
3001
1000
0100
0010
,  // measure 32
0001
0010
0001
1000
0100
1000
1100
0000
,  // measure 33
0001
0010
0100
1000
0010
0100
0010
0100
,  // measure 34
0001
1000
0001
1000
1010
0000
0101
0000
,  // measure 35
0001
0010
0100
1000
0010
0100
0010
1000
,  // measure 36
0002
0000
2003
0000
3010
0100
0100
0010
,  // measure 37
0001
0000
0020
0000
0000
0230
0000
0000
1300
0000
0000
0000
1001
0000
0000
0000
,  // measure 38
0200
0000
0000
0320
0000
0000
0031
0000
1000
0000
0000
0000
1001
0000
0000
0000
,  // measure 39
0010
0100
0010
1000
0100
0010
0001
0010
,  // measure 40
0100
0000
0000
1001
0000
0000
0110
0000
0110
0000
0001
0000
0001
0000
0010
0000
,  // measure 41
0100
1000
0100
0010
0002
0000
2003
0000
,  // measure 42
3010
0100
0010
1000
0001
0100
0001
0000
,  // measure 43
1100
0000
0000
1100
0000
0000
0011
0000
0011
0000
0000
0000
1001
0000
0000
0000
,  // measure 44
1000
0010
0100
1000
0010
0100
0001
0100
,  // measure 45
0110
0000
0000
0000
1000
0000
1100
0010
,  // measure 46
0000
0010
0101
1000
0100
0010
0001
1000
,  // measure 47
0010
0100
0010
0100
0001
1000
0001
0100
,  // measure 48
0002
0000
1000
1003
0000
0001
1001
0000
,  // measure 49
2100
0000
0100
0100
3100
0000
1001
0000
,  // measure 50
0110
0000
0000
0110
0000
0000
1000
0000
0010
0000
0100
0000
0001
0000
0100
0000
,  // measure 51
0010
0000
0000
0110
0000
0000
1001
0000
1001
0000
0000
0000
0110
0000
0000
0000
,  // measure 52
0001
1000
0100
0010
0001
1000
0100
1000
,  // measure 53
0101
0000
0020
0000
2030
0000
3100
0100
,  // measure 54
0000
0001
0101
0010
0100
0010
1000
0100
,  // measure 55
0010
0001
1000
0010
1000
0001
0100
0010
,  // measure 56
1001
0000
0110
0001
0010
0100
1000
0100
,  // measure 57
0110
0002
2003
3020
,  // measure 58
1030
0100
0010
0001
0010
0100
1000
0001
,  // measure 59
1000
0010
0100
0001
1000
0001
0100
0010
,  // measure 60
2000
0000
0000
3020
0000
0000
1030
0000
,  // measure 61
1001
0000
0000
0001
0000
1000
0100
0010
,  // measure 62
0012
0000
1003
0100
0000
0100
1000
0100
,  // measure 63
0020
0000
0031
0001
0010
0100
1000
0001
,  // measure 64
2000
0000
0000
3020
0000
0000
1030
0000
,  // measure 65
0101
0000
0010
1000
0001
1000
0001
1000
0010
0000
0100
0000
0001
0000
1000
0000
,  // measure 66
1020
0000
1030
0100
0000
0100
0010
0001
,  // measure 67
0012
0000
0103
0020
0000
1030
0001
1000
,  // measure 68
2001
0000
0010
3010
0000
0000
1001
0000
,  // measure 69
0110
0000
0000
0002
0000
1003
0100
0010
,  // measure 70
0011
1000
0100
1000
0100
0010
0001
1000
,  // measure 71
1100
0000
0010
0001
1000
0010
1000
0001
,  // measure 72
1000
0100
0000
1000
0100
0000
0010
0001
0000
0010
0001
0000
1000
0001
0000
0000
,  // measure 73
0100
0010
0100
0010
0100
0010
0100
0001
1000
0001
1000
0001
1000
0001
1000
0000
,  // measure 74
0220
0000
0330
0000
;

//---------------dance-single - ----------------
#NOTES:
     dance-single:
     :
     Easy:
     5:
     0.421,0.567,0.491,0.136,0.000:
0000
0000
0000
0000
,
0000
0000
0000
0000
,
0000
0000
0000
0000
,
0000
0000
0000
0000
,
2002
0000
0000
0000
0000
3003
0000
0000
,
0220
0000
0000
0330
,
1001
0000
0110
0000
,
1001
1000
0010
0100
,
0001
1000
0110
0110
,
0001
0001
1000
1010
,
0001
0001
0100
0101
,
0010
1000
0010
0100
,
1001
1001
0110
0110
,
1001
1001
0110
0110
,
0001
0010
0100
1000
,
0010
0100
0001
1000
,
0010
0010
0010
0010
,
1010
0101
1010
0101
,
0010
0010
1000
1000
,
0001
0001
0100
0100
,
1010
0001
0100
0010
,
0110
1001
0110
1001
,
0010
0010
0100
0100
,
0002
0000
0000
0003
,
1000
1000
1000
1000
,
1100
0011
1100
0011
,
1000
1000
0010
0010
,
0100
0100
0001
0001
,
0011
1000
0100
0010
,
0001
1000
0010
0100
,
1001
0010
1010
0001
,
0101
0010
1010
0000
,
1000
0010
0100
0100
,
0001
0001
0010
0010
,
0100
0100
1000
1000
,
0010
0100
0001
1000
,
1001
0010
0100
0010
,
1010
0100
0001
1000
,
0110
0001
0011
1000
,
1100
0000
0010
0000
0220
0000
0000
0330
,
0002
0000
1003
0000
,
1000
0010
0100
0001
,
1001
0110
1001
0000
,
1010
0100
0001
0100
,
0101
0000
0010
0000
1000
0000
0010
0100
,
0000
0001
0001
0000
0000
0000
0000
0000
,
1000
0010
0100
0001
,
1000
0000
0010
0100
0000
0000
0001
0000
,
0001
1000
1000
0000
,
0010
0100
0001
1000
,
1010
0001
0101
0000
,
0010
1000
0010
0100
,
0100
0000
0001
0000
1000
0000
0010
0100
,
0000
0001
1000
0000
0010
0000
0100
0000
,
0010
1000
0010
0100
,
0001
1000
0010
0100
,
0110
0001
0011
1000
,
0010
0100
0100
0001
,
0001
0000
1000
0000
0010
0000
0100
0001
,
0100
0000
0000
0010
0000
0000
1000
0000
,
1000
0000
0000
0001
0000
0000
0100
0010
,
0100
0000
0000
0001
0000
0000
1000
0010
,
1000
0001
0100
0010
,
2000
0000
0000
3000
0002
0000
0000
0000
,
0203
0000
0000
0300
0010
0000
0010
0000
,
1010
0001
0001
0001
,
0101
0010
1000
1000
,
0010
0000
1000
0010
0000
0000
0100
0000
,
0101
0000
0010
1000
,
0001
1000
0010
1000
,
0001
0100
0010
1000
,
0002
1000
1000
1003
,
2000
0010
0010
3010
,
0220
0000
0000
0330
0000
0000
0000
0000
;

//---------------dance-single - Copied from----------------
#NOTES:
     dance-single:
     Copied from:
     Beginner:
     3:
     0.217,0.299,0.018,0.009,0.000:
0000
0000
0000
0000
,
0000
0000
0000
0000
,
0000
0000
0000
0000
,
0000
0000
0000
0000
,
0100
0000
0000
0000
,
0100
0000
0000
0000
,
0010
0000
0000
0000
,
0010
0000
0000
0000
,
1000
1000
1000
1000
,
1000
1000
1000
1000
,
0001
0001
0001
0001
,
0001
0001
0001
0001
,
0100
0100
0100
0100
,
0100
0100
0100
0100
,
0010
0010
0010
0010
,
0010
0010
0010
0010
,
1000
0000
0001
0000
,
1000
0000
0001
0000
,
1000
0000
0001
0000
,
1000
0000
0001
0000
,
0100
0000
0010
0000
,
0100
0000
0010
0000
,
0100
0000
0010
0000
,
0100
0000
0000
0000
,
0001
0000
1000
0000
,
0001
0000
1000
0000
,
0001
0000
1000
0000
,
0001
0000
1000
0000
,
0010
0000
0100
0000
,
0010
0000
0100
0000
,
0020
0000
0130
0000
,
0000
0000
0000
0000
,
1000
0000
0001
0000
,
1000
0000
0010
0000
,
0100
0000
0001
0000
,
0100
0000
0010
0000
,
1000
0000
0010
0000
,
0100
0000
0001
0000
,
1000
0000
1000
0000
,
0010
0000
0010
0000
,
0100
0000
0001
0000
,
1000
1000
1000
0000
,
0010
0010
0010
0000
,
0100
0100
0100
0100
,
0100
0000
0000
0000
0001
0000
0000
0001
,
0000
0001
0000
0000
,
0000
0000
1000
0000
,
1000
0000
1000
0000
,
0010
0000
0010
0000
,
0100
0100
0100
0000
,
0001
0001
0001
0000
,
1000
0000
0010
0000
,
0100
0001
1000
0001
,
1000
0001
0000
0000
,
1000
0000
0010
0000
,
0100
0001
1000
0010
,
0100
0001
1000
0000
,
0010
0000
0100
0000
,
0010
0000
1000
0000
,
0001
0000
1000
0000
,
0001
0000
1000
1000
,
1000
0000
0010
0010
,
0010
0000
0100
0100
,
0100
0000
0001
0000
,
0001
0000
1000
1000
,
1000
0000
0001
0001
,
0001
0000
0100
0010
,
0100
0000
0010
0000
,
0100
0000
0001
1000
,
0001
0000
1000
0000
,
0001
0000
0100
0010
,
0100
0000
0000
0000
,
0110
0000
0000
0000
,
0110
0000
0000
0000
;
