#TITLE:Got The Groove (SM Radio Edit);
#SUBTITLE:;
#ARTIST:SM Trax;
#TITLETRANSLIT:;
#SUBTITLETRANSLIT:;
#ARTISTTRANSLIT:;
#CREDIT:SupremeX;
#BANNER:Got The Groove-bn.png;
#BACKGROUND:Got The Groove-bg.png;
#LYRICSPATH:;
#CDTITLE:;
#MUSIC:Got The Groove.ogg;
#OFFSET:-0.070;
#SAMPLESTART:29.560;
#SAMPLELENGTH:12.000;
#SELECTABLE:YES;
#BPMS:0.000=130.000;
#STOPS:;
#BGCHANGES:;

//---------------dance-single - ----------------
#NOTES:
     dance-single:
     :
     Hard:
     7:
     0.381,0.451,0.112,0.061,0.102:
0000
0000
0000
0000
,
0000
0000
0000
0000
,
0000
0000
0000
0000
0000
0000
0000
0010
,
1000
0000
0000
0000
0000
0000
0000
0001
,
1000
0000
0000
0000
0000
0000
0000
0010
,
0100
0000
0000
0000
0000
0000
0000
0001
,
1000
0100
0010
0100
1000
0100
0010
0001
,
0010
0100
0010
0001
0010
0100
1000
0000
,
1001
0000
0000
0000
1000
0000
0000
0001
,
0001
0000
0000
0000
0000
0100
0010
0100
,
0010
0000
1000
0000
1000
0000
0010
1000
,
1000
0000
0010
0000
1000
0000
0001
0100
,
0100
0000
0001
0000
1000
0000
0010
1000
,
1000
0000
0001
0000
1000
0000
1000
0001
,
0001
0010
0100
1000
0100
0010
0001
1000
,
0100
1000
0010
0100
0001
1000
0010
0100
,
0001
0000
0000
0000
0001
0000
0000
0000
0001
0000
0000
0000
1000
0000
0100
1000
,
0000
0000
0000
0000
0100
0000
1000
0100
0000
0000
0000
0000
0000
0000
0000
0000
,
1000
0000
0000
0000
1000
0000
0000
0000
1000
0000
0000
0000
0001
0000
0010
0002
,
0000
0000
0000
0000
0003
0000
0010
0010
0000
0000
0000
0000
0000
0000
0000
0000
,
0100
0000
0000
0000
0100
0000
0000
0000
0100
0000
0000
0000
0001
0000
1000
0010
,
0000
0000
0000
0000
0001
0000
1000
0010
0000
0000
0000
0000
0000
0000
0000
0000
,
0010
0000
0000
0000
0010
0000
0000
0000
0010
0000
0000
0000
1000
0000
0001
0200
,
0000
0000
0000
0000
0300
0000
0001
0001
0000
0000
0000
0000
0000
0000
0000
0000
,
1000
0000
0000
0000
1000
0000
0000
0000
1000
0000
0000
0000
0100
0000
0010
0001
,
0000
0000
0000
0000
1000
0000
0100
0010
0000
0000
0000
0000
0000
0000
0000
0000
,
0001
0000
0000
0000
0001
0000
0000
0000
0001
0000
0000
0000
1000
0000
0010
2000
,
0000
0000
0000
0000
3000
0000
1000
1000
0000
0000
0100
0000
0010
0000
0001
0000
,
0100
0000
0000
0000
0100
0000
0000
0000
0100
0000
0000
0000
0001
0000
1000
0010
,
0000
0000
0000
0000
0010
0000
1000
0001
0000
0000
0000
0000
0000
0000
0000
0000
,
0010
0000
0000
0000
0010
0000
0000
0000
0010
0000
0000
0000
1000
0000
0001
2000
,
0000
0000
0000
0000
3000
0000
0100
0100
0000
0000
0000
0000
1000
0000
0000
0000
,
0010
0100
0001
1000
0010
0000
1001
0000
,
0010
0100
0001
0100
0010
0000
1001
0000
,
0010
0100
0001
1000
0010
0000
0110
0000
,
0100
0010
1000
0001
1000
0010
0100
0000
,
1001
0000
0010
0000
1000
0100
0010
0000
,
0001
0010
0100
1000
0010
0100
0010
0000
,
1001
0000
0100
0010
0100
0010
1000
0000
,
0001
0000
0010
0000
0100
0000
1000
0000
0010
0000
0000
0000
0100
0000
0000
0110
,
0000
0000
0000
0000
0001
0000
0000
0101
0000
0000
0000
0000
1000
0000
0000
1010
,
0000
0000
0000
0000
0100
0000
0000
0101
0000
0000
0000
0000
0010
0000
1000
0000
,
0100
0010
0100
1000
0001
0100
0001
1000
,
0100
0010
0001
1000
0100
1000
0100
0010
,
0001
0010
0100
1000
0001
0010
0001
1000
,
0100
0010
0001
1000
0100
1000
0010
0100
,
0001
1000
0010
0100
0001
0100
0010
1000
,
0100
0010
0001
1000
0010
0100
0001
1000
,
2002
0000
0000
0000
,
3003
0000
0000
0000
;

//---------------dance-single - ----------------
#NOTES:
     dance-single:
     :
     Medium:
     5:
     0.257,0.300,0.133,0.061,0.000:
0000
0000
0000
0000
,
0000
0000
0000
0000
,
0000
0000
0000
0000
,
0000
0000
0000
0000
,
0010
0000
0000
0000
0000
0000
0000
0100
,
0100
0000
0000
0000
,
0001
1000
0010
0100
,
0001
1000
0001
0000
1000
0100
1000
0000
,
0001
0000
0010
0000
,
0100
0000
0000
0000
1000
0100
0010
0001
,
1000
0000
0001
0000
,
0100
0000
0000
0000
0010
0000
0000
0100
,
0100
0000
0001
0000
,
1000
0000
0001
0000
,
1000
0100
1000
0001
,
0100
0001
0100
0000
0010
1000
0010
0000
,
0100
0100
0100
0010
,
0110
1000
1001
0000
,
0010
0010
0010
1000
,
0200
0300
1000
0000
,
0001
0001
0001
0100
,
1010
0010
0101
0000
,
1000
1000
1000
0001
,
0100
0000
0100
0000
,
0010
0010
0010
1000
,
0001
0010
0100
1000
,
0100
0100
0100
0010
,
0022
0000
0000
0033
0000
0000
0000
0000
,
1000
0001
1000
0100
,
1100
0010
0011
0000
,
1000
1000
1000
0010
,
0200
0000
0000
0300
0000
0000
0000
0000
,
0001
0100
0001
0100
,
0010
1000
0010
1000
,
0001
0010
0100
1000
,
0100
0100
0010
0001
,
0010
0100
1000
0001
,
1000
1000
1000
0010
,
0100
0001
1000
0010
,
0100
0001
1000
1001
,
0000
0110
0000
0101
,
0000
1001
0000
0110
,
0001
0000
1000
0000
0001
0100
0010
0000
,
0010
0000
1000
0000
0100
1000
0100
0000
,
0010
0000
0001
0000
1000
0100
1000
0000
,
0100
0000
0010
0000
0001
1000
0001
0000
,
0100
0000
0100
0000
0010
1000
0010
0000
,
1000
0000
0001
0000
0100
0010
1000
0000
,
2002
0000
0000
0000
,
3003
0000
0000
0000
;

//---------------dance-single - ----------------
#NOTES:
     dance-single:
     :
     Easy:
     3:
     0.196,0.245,0.010,0.000,0.000:
0000
0000
0000
0000
,
0000
0000
0000
0000
,
0000
0000
0000
0000
,
0000
0000
0000
0000
,
1000
0000
0000
0000
,
0001
0000
0000
0000
,
0100
0100
0100
0100
,
0100
0100
0100
0100
,
0010
0000
1000
0000
,
0001
0000
1000
0000
,
0010
0000
0100
0000
,
0001
0000
1000
0000
,
0010
0000
1000
0000
,
0001
0000
0100
0000
,
0010
0010
0010
0010
,
0010
0010
0010
0010
,
1000
1000
1000
0000
,
0001
0000
0100
0000
,
0010
0010
0010
0000
,
1000
0000
0001
0000
,
0100
0010
0100
0001
,
1000
0001
1000
0000
,
0010
0010
0010
0000
,
0100
0000
0001
0000
,
1000
1000
1000
0000
,
0010
0000
0100
0000
,
0001
1000
0001
0100
,
0010
0000
1000
0000
,
0001
0100
0010
1000
,
0001
0000
1000
0000
,
0010
0100
0001
1000
,
0010
0000
0100
0000
,
0001
0001
0001
0000
,
1000
1000
1000
0000
,
0010
0010
0010
0000
,
0100
0100
0100
0000
,
0010
0010
0010
0000
,
1000
1000
1000
0000
,
0001
0001
0001
0000
,
0100
0100
0100
0001
,
1000
0001
1000
0010
,
0100
0010
0100
0001
,
1000
0100
0010
0001
,
1000
0100
0010
0001
,
1000
0010
0100
0001
,
1000
0010
0100
0001
,
1000
0010
0100
0001
,
1000
0010
0100
0001
,
1001
0000
0000
0000
;

//---------------dance-single - Copied from ----------------
#NOTES:
     dance-single:
     Copied from:
     Beginner:
     1:
     0.066,0.074,0.000,0.000,0.000: // measure 1
0000
0000
0000
0000
,  // measure 2
0000
0000
0000
0000
,  // measure 3
0000
0000
0000
0000
,  // measure 4
0000
0000
0000
0000
,  // measure 5
1000
0000
0000
0000
,  // measure 6
1000
0000
0000
0000
,  // measure 7
0001
0000
0000
0000
,  // measure 8
0001
0000
0000
0000
,  // measure 9
0100
0000
0000
0000
,  // measure 10
0100
0000
0000
0000
,  // measure 11
0100
0000
0000
0000
,  // measure 12
0010
0000
0000
0000
,  // measure 13
0010
0000
0000
0000
,  // measure 14
0010
0000
0000
0000
,  // measure 15
1000
0000
0000
0000
,  // measure 16
1000
0000
0000
0000
,  // measure 17
0001
0000
0000
0000
,  // measure 18
0001
0000
0000
0000
,  // measure 19
0100
0000
0000
0000
,  // measure 20
0100
0000
0000
0000
,  // measure 21
0010
0000
0000
0000
,  // measure 22
0010
0000
0000
0000
,  // measure 23
1000
0000
0000
0000
,  // measure 24
1000
0000
0000
0000
,  // measure 25
0001
0000
0000
0000
,  // measure 26
0001
0000
0000
0000
,  // measure 27
0100
0000
0000
0000
,  // measure 28
0100
0000
0000
0000
,  // measure 29
0010
0000
0000
0000
,  // measure 30
0010
0000
0000
0000
,  // measure 31
1000
0000
0000
0000
,  // measure 32
1000
0000
0000
0000
,  // measure 33
0001
0000
0000
0000
,  // measure 34
0100
0000
0000
0000
,  // measure 35
0010
0000
0000
0000
,  // measure 36
1000
0000
0000
0000
,  // measure 37
0001
0000
0000
0000
,  // measure 38
0100
0000
0000
0000
,  // measure 39
0010
0000
0000
0000
,  // measure 40
1000
0000
0000
0000
,  // measure 41
0001
0000
0000
0000
,  // measure 42
0001
0000
0000
0000
,  // measure 43
0100
0000
0000
0000
,  // measure 44
0100
0000
0000
0000
,  // measure 45
0010
0000
0000
0000
,  // measure 46
0010
0000
0000
0000
,  // measure 47
1000
0000
0000
0000
,  // measure 48
1000
0000
0000
0000
,  // measure 49
0001
0000
0000
0000
;
