#TITLE:Go! H.O.T. -super euro version-;
#SUBTITLE:;
#ARTIST:H.O.T.;
#TITLETRANSLIT:;
#SUBTITLETRANSLIT:;
#ARTISTTRANSLIT:;
#CREDIT:SupremeX;
#BANNER:Go! H.O.T.-bn.png;
#BACKGROUND:Go! H.O.T.-bg.png;
#LYRICSPATH:;
#CDTITLE:;
#MUSIC:Go! H.O.T. -super euro version-.ogg;
#OFFSET:-1.782;
#SAMPLESTART:77.282;
#SAMPLELENGTH:12.000;
#SELECTABLE:YES;
#BPMS:0.000=150.000;
#STOPS:;
#BGCHANGES:-5.000=Go! H.O.T..avi=1.000=0=0=1,
99999=-nosongbg-=1.000=0=0=0 // don't automatically add -songbackground-
;

//---------------dance-single - ----------------
#NOTES:
     dance-single:
     :
     Hard:
     8:
     0.516,0.518,0.115,0.229,0.010:
0000
0000
0000
0000
,
0000
0000
0000
0000
,
0000
0000
0000
0000
,
0000
0000
0000
0000
,
0220
0000
0000
0330
,
2000
0000
0000
3000
,
0002
0000
0000
0003
,
2002
0000
0000
3003
,
1000
0001
0000
1000
0001
1000
0000
0010
,
0100
0010
0000
1000
0001
0100
0000
0100
,
0010
1000
0000
1000
0001
0010
0000
0010
,
0100
1000
0100
0010
0001
1000
0001
0000
,
1000
0010
0000
0010
1000
0100
0000
0100
,
1000
0001
0000
1000
0001
1000
0000
0010
,
0100
0001
0000
0001
1000
0010
0000
0000
,
1000
0001
0100
0001
1000
0001
0100
0000
,
1010
0000
1001
0000
0100
0010
0100
0001
,
1000
0100
1000
0001
1000
0010
0100
0000
,
1001
0000
0010
0100
0010
1000
0010
0100
,
0001
1000
0001
0100
0010
1000
0001
0000
,
0110
0000
0001
0100
0010
1000
0010
0000
,
0110
0000
0001
1000
0100
0010
0001
0000
,
1100
0000
1001
0000
0010
0100
0010
1000
,
0001
0000
0000
0100
0000
0000
0100
0000
0000
0100
0000
0000
0010
0000
0010
0000
,
1000
0001
0010
0100
1000
0001
1000
0020
,
0000
0130
0010
0100
0010
0010
0100
0000
,
0001
0100
0010
1000
0001
0100
0010
2000
,
0000
3100
1000
0100
0100
1000
0001
0000
,
0100
0000
0010
1000
0001
0100
0010
0000
,
1000
0001
0100
0001
1000
0001
0100
0000
,
0010
1000
0010
1000
0001
0100
0001
0000
,
1000
0100
1000
0001
0100
0010
0100
0000
,
0002
0000
1000
0000
1003
0000
0010
0100
,
0020
0000
0100
0000
0130
0000
0010
1000
,
0200
0000
1000
0000
1000
0300
0010
0001
,
0020
0000
0001
0030
0001
1000
0100
0000
,
0100
1000
0100
0010
0001
1000
0001
0000
,
0100
0001
0100
0010
1000
0010
0100
0000
,
0001
0010
0100
1000
0001
0100
0001
0000
,
1000
0100
0010
0001
1000
0100
1000
0000
,
0001
0100
0010
1000
0001
0200
0000
0300
,
0010
0000
0010
0000
1000
0001
1000
0000
,
0010
0100
0010
0100
0001
0002
0000
0003
,
1000
0010
1000
0010
0100
0010
0100
0000
,
0001
0100
0010
1000
0010
0200
0000
0300
,
0001
1000
0100
0010
0001
2000
0000
3000
,
0010
0100
0010
0100
0001
0020
0000
0030
,
0100
1000
0100
0010
0002
0000
0203
0000
,
0310
1000
0001
1000
0001
1000
0010
0100
,
0001
1000
0010
0100
0001
0100
0001
1000
,
0010
1000
0001
0100
0010
1000
0001
0010
,
0100
1000
0010
0100
0200
0000
0000
0300
,
0110
0000
0001
1000
0100
1000
0001
0100
,
0001
1000
0010
0100
0001
0100
0010
0000
,
1000
0100
1000
0100
0010
0100
0010
0000
,
0001
0010
0001
0010
0100
1000
0100
1000
,
2002
0000
0000
0000
,
0000
0000
0000
0000
,
0000
0000
3003
0000
;

//---------------dance-single - ----------------
#NOTES:
     dance-single:
     :
     Medium:
     5:
     0.375,0.392,0.115,0.073,0.000:
0000
0000
0000
0000
,
0000
0000
0000
0000
,
0000
0000
0000
0000
,
0000
0000
0000
0000
,
2000
0000
0000
3000
,
0002
0000
0000
0003
,
2000
0000
0000
3000
,
0002
0000
0000
0003
,
1000
0010
0100
0001
,
1000
0010
0100
0001
,
1000
0010
0100
0001
,
1000
0010
1000
0010
0000
0100
0100
0000
,
0001
1000
0010
0100
,
0001
1000
0010
0100
,
0001
1000
0010
0100
,
0001
0000
1000
0000
0001
1000
0001
0000
,
1100
1100
0010
0010
,
0001
0100
0001
0000
1000
0000
0010
0000
,
0100
0001
1000
0001
,
0010
0100
1000
0000
1000
0001
0100
0000
,
1010
0001
0010
0100
,
1100
0010
0001
1000
,
1001
0000
0110
0000
0001
1000
0001
0000
,
0100
0100
0001
1000
,
0010
0100
0010
0000
1000
0001
1000
0010
,
0000
0000
0100
0000
0010
1000
0010
0000
,
1000
0000
0001
0000
1000
0100
1000
0100
,
0000
0000
0010
0000
0010
0001
0010
0000
,
1100
0000
0100
1000
0100
0000
0010
0000
,
0001
0010
0100
0000
1000
0100
0010
0000
,
0001
0010
0100
0000
1000
0100
1000
0000
,
0001
0000
0001
0000
1000
0100
1000
0000
,
0001
0100
0010
1000
,
0100
0100
0100
0010
,
0001
0010
0100
1000
,
0001
1000
0001
0000
1000
0100
1000
0000
,
0100
0010
0001
0010
,
0100
1000
0001
0100
,
0010
1000
0010
0000
0010
0100
0010
0000
,
1000
0001
1000
0000
0001
0010
0100
0000
,
1000
0010
1000
0001
0100
0001
0000
0000
,
0001
0000
0010
0010
0000
0100
0100
0000
,
1000
0000
0010
0100
0010
0000
0000
0000
,
1001
1001
0110
0110
,
1000
0001
0000
1000
0010
0100
0000
0000
,
0100
0000
0001
1000
0000
1000
0000
0000
,
0100
0010
0000
0010
0001
0010
0000
0000
,
0100
0000
1000
0100
0200
0000
0000
0000
,
0310
0000
0001
0000
0001
0000
1000
0100
,
1000
0000
0001
0000
0010
0000
0100
1000
,
0100
0000
0010
0000
0001
0000
0100
0001
,
0100
0000
0010
1000
0020
0000
0000
0000
,
1030
0000
1000
0000
0010
0000
0010
0100
,
0010
0000
1000
0000
0001
0000
1000
0001
,
1000
0000
0010
0000
0010
0000
0100
0001
,
0100
0000
1000
0010
0100
0000
0001
1000
,
2000
0000
0000
0000
,
0000
0000
0000
0000
0000
0000
0000
3000
;

//---------------dance-single - ----------------
#NOTES:
     dance-single:
     :
     Easy:
     3:
     0.250,0.335,0.073,0.208,0.000:
0000
0000
0000
0000
,
0000
0000
0000
0000
,
0000
0000
0000
0000
,
0000
0000
0000
0000
,
0020
0000
0000
0000
,
0030
0000
0000
0000
,
0200
0000
0000
0300
,
2002
0000
0000
3003
,
0010
0100
0010
1000
,
0001
1000
0010
0100
,
0001
1000
0010
0000
,
1000
1000
0001
0001
,
1000
0010
0100
0001
,
1000
0010
0100
0001
,
1000
0010
0100
0000
,
0001
0001
0001
0001
,
1000
1000
0010
0100
,
0010
0100
0010
0100
,
0001
0000
1000
0010
,
1000
0010
1000
0001
,
0100
0000
0000
0000
,
0110
0000
0000
0000
,
1001
1001
0100
0010
,
1000
1000
0001
0001
,
0200
0000
0000
0000
0000
0000
0000
0300
,
0000
0010
0010
0010
,
2000
0000
0000
0000
0000
0000
0000
3000
,
0000
0001
0001
0001
,
0100
0010
1000
0001
,
0100
0100
0001
0001
,
1000
0010
1000
1000
,
0001
0100
0001
0001
,
2000
0000
0000
3000
,
0002
0000
0000
0003
,
0200
0000
0000
0300
,
0020
0000
0000
0030
,
2000
0000
0000
3000
,
0002
0000
0000
0003
,
0200
0000
0000
0300
,
0020
0000
0000
0030
,
1000
1000
0001
0001
,
0200
0000
0000
0000
0000
0300
0000
0000
,
0010
0010
1000
1000
,
0001
0001
0001
0001
,
0100
0010
1000
0000
,
0002
0000
0000
0003
,
0100
0010
1000
0000
,
0001
0000
1000
0000
0002
0000
0000
0003
,
1001
0000
1000
1000
,
0000
0010
0010
0010
,
0000
0100
0100
0100
,
0000
0000
0001
0000
2000
0000
0000
3000
,
0110
0001
0010
0100
,
1000
0001
0010
0100
,
1000
0001
0010
0100
,
1000
0001
1000
0001
,
2002
0000
0000
0000
,
0000
0000
0000
0000
,
0000
0000
3003
0000
;

//---------------dance-single - Copied from ----------------
#NOTES:
     dance-single:
     Copied from:
     Beginner:
     1:
     0.074,0.117,0.010,0.021,0.000: // measure 1
0000
0000
0000
0000
,  // measure 2
0000
0000
0000
0000
,  // measure 3
0000
0000
0000
0000
,  // measure 4
0000
0000
0000
0000
,  // measure 5
0002
0000
0000
0000
,  // measure 6
0000
0000
0000
0000
,  // measure 7
0000
0000
0000
0003
,  // measure 8
2000
0000
0000
3000
,  // measure 9
0010
0000
0000
0000
,  // measure 10
0010
0000
0000
0000
,  // measure 11
0010
0000
0000
0000
,  // measure 12
0000
0000
0000
0000
,  // measure 13
0100
0000
0000
0000
,  // measure 14
0100
0000
0000
0000
,  // measure 15
0100
0000
0000
0000
,  // measure 16
0000
0000
0000
0000
,  // measure 17
0001
0000
0000
0000
,  // measure 18
0001
0000
0000
0000
,  // measure 19
1000
0000
0000
0000
,  // measure 20
1000
0000
0000
0000
,  // measure 21
0001
0000
0000
0000
,  // measure 22
1000
0000
0000
0000
,  // measure 23
0001
0000
0000
0000
,  // measure 24
1000
0000
0000
0000
,  // measure 25
0010
0000
0000
0000
,  // measure 26
0000
0000
0000
0000
,  // measure 27
0100
0000
0000
0000
,  // measure 28
0000
0000
0000
0000
,  // measure 29
0010
0000
0000
0000
,  // measure 30
0010
0000
0000
0000
,  // measure 31
0010
0000
0000
0000
,  // measure 32
0010
0000
0000
0000
,  // measure 33
1000
0000
0000
0000
,  // measure 34
1000
0000
0000
0000
,  // measure 35
1000
0000
0000
0000
,  // measure 36
1000
0000
0000
0000
,  // measure 37
0001
0000
0000
0000
,  // measure 38
0001
0000
0000
0000
,  // measure 39
0001
0000
0000
0000
,  // measure 40
0001
0000
0000
0000
,  // measure 41
0100
0000
0000
0000
,  // measure 42
0100
0000
0000
0000
,  // measure 43
0010
0000
0000
0000
,  // measure 44
0010
0000
0000
0000
,  // measure 45
0100
0000
0000
0000
,  // measure 46
0100
0000
0000
0000
,  // measure 47
0010
0000
0000
0000
,  // measure 48
0010
0000
0000
0000
,  // measure 49
1000
0000
0000
0000
,  // measure 50
0001
0000
0000
0000
,  // measure 51
1000
0000
0000
0000
,  // measure 52
0001
0000
0000
0000
,  // measure 53
1000
0000
0000
0000
,  // measure 54
0001
0000
0000
0000
,  // measure 55
1000
0000
0000
0000
,  // measure 56
0001
0000
0000
0000
,  // measure 57
1001
0000
0000
0000
;
