#TITLE:Glitter Cube;
#SUBTITLE:;
#ARTIST:BEMANI Sound Team "dj TAKA";
#TITLETRANSLIT:;
#SUBTITLETRANSLIT:;
#ARTISTTRANSLIT:;
#CREDIT:SupremeX;
#BANNER:Glitter Cube-bn.png;
#BACKGROUND:Glitter Cube-bg.png;
#LYRICSPATH:;
#CDTITLE:;
#MUSIC:Glitter Cube.ogg;
#OFFSET:-2.544;
#SAMPLESTART:15.300;
#SAMPLELENGTH:12.000;
#SELECTABLE:YES;
#BPMS:0.000=150.010;
#STOPS:;
#BGCHANGES:;

//---------------dance-single - ----------------
#NOTES:
     dance-single:
     :
     Hard:
     8:
     0.541,0.557,0.128,0.048,0.008: // measure 1
0000
0000
0000
0000
,  // measure 2
0000
0000
0000
0000
,  // measure 3
0000
0000
0000
0000
,  // measure 4
0000
0000
0000
0000
,  // measure 5
0001
0000
1000
0000
0100
1000
0100
0000
,  // measure 6
0010
0001
0010
0000
1000
0001
0100
0010
,  // measure 7
1000
0100
0110
0011
,  // measure 8
0100
1000
0100
1000
0010
0100
0010
1000
,  // measure 9
0001
0100
0010
1000
0010
0100
0010
1000
,  // measure 10
0010
0100
0001
0100
0010
0100
0001
0001
,  // measure 11
0011
0100
1000
0100
1000
0010
0100
0010
,  // measure 12
0110
0100
0010
0001
0010
0100
0010
0001
,  // measure 13
1000
0001
0100
0001
1000
0010
0100
0001
,  // measure 14
0100
0010
0100
0001
0100
0010
1000
0001
,  // measure 15
0100
0001
1000
0010
0100
0001
1000
0010
,  // measure 16
0100
0001
0010
0100
1000
0100
1000
0100
,  // measure 17
0110
0000
0010
0001
0010
0100
1000
0100
,  // measure 18
1100
0010
0001
0010
0001
0010
0100
0010
,  // measure 19
0110
0100
1000
0100
1000
0100
0010
0001
,  // measure 20
0100
0100
0100
0010
0010
0010
1000
1000
,  // measure 21
1100
0010
0001
0010
0100
1000
0100
0010
,  // measure 22
0011
0001
0010
0100
1000
0001
0010
0100
,  // measure 23
1100
1000
0100
0010
0001
1000
0001
1000
,  // measure 24
0110
0001
0010
0100
1000
0010
0100
0001
,  // measure 25
0102
0000
0100
0000
,  // measure 26
0100
0000
0103
0010
,  // measure 27
0200
0000
1000
0000
,  // measure 28
0010
0000
1000
0310
,  // measure 29
0002
1000
0100
0000
,  // measure 30
1000
1000
0000
1003
,  // measure 31
2000
0000
0100
0000
,  // measure 32
0100
0001
0100
3100
,  // measure 33
1100
0000
0010
0001
1000
0010
0110
0000
,  // measure 34
0001
1000
0100
1000
0001
0100
0100
0000
,  // measure 35
0010
1000
0001
0100
0010
1000
1000
0000
,  // measure 36
0001
0010
0100
1000
0100
0010
0010
0000
,  // measure 37
0001
0100
0010
1000
0001
0100
0010
1000
,  // measure 38
0010
0100
0010
1000
0001
0100
0010
1000
,  // measure 39
0001
0001
0100
0100
0001
0001
1000
1000
,  // measure 40
0100
1000
0100
1000
0100
0010
0001
0010
,  // measure 41
0001
0010
0100
1000
0001
0100
0010
1000
,  // measure 42
0001
0100
0100
0100
0100
0010
1000
0001
,  // measure 43
0101
0100
0010
0100
0010
1000
0010
0100
,  // measure 44
0010
0100
0010
1000
0010
1000
0001
0100
,  // measure 45
0001
0100
0010
0100
0010
0100
0001
0100
,  // measure 46
0001
1000
0010
0100
0001
1000
0010
0100
,  // measure 47
0001
0010
0100
1000
0010
0100
0010
0100
,  // measure 48
0001
0010
0100
1000
0100
1000
0100
0010
,  // measure 49
0001
0100
0010
0100
0010
1000
0100
0010
,  // measure 50
0001
1000
0100
1000
0001
0100
0010
1000
,  // measure 51
0010
1000
0010
0100
0010
0100
0001
1000
,  // measure 52
0001
1000
0010
0100
0010
0100
0001
0010
,  // measure 53
0100
1000
0001
0100
0001
0100
0001
1000
,  // measure 54
0010
0100
0001
1000
0001
0100
0001
1000
,  // measure 55
0010
0000
0000
0100
0000
0000
0010
0000
0000
0000
1000
0000
0001
0000
1000
0000
,  // measure 56
0100
0000
0000
0100
0000
0000
0100
0000
0000
0000
0010
0000
0001
0000
0010
0000
,  // measure 57
0001
1000
0010
0100
0001
1000
0001
0100
,  // measure 58
0010
0010
0010
0010
0010
1000
0100
1000
,  // measure 59
0100
0010
0001
0010
0001
0100
0010
0100
,  // measure 60
0010
1000
0100
1000
0001
0100
0001
0100
,  // measure 61
0010
1000
0001
0100
0010
1000
0010
0100
,  // measure 62
0001
0100
0010
1000
0010
1000
1000
0000
,  // measure 63
0100
0010
0001
1000
0100
0010
0001
0000
,  // measure 64
0100
0100
0010
1000
0010
0100
0100
0000
,  // measure 65
0001
1000
0010
0100
0001
0001
1000
1000
,  // measure 66
0010
0010
0100
0100
0001
0100
0100
0001
,  // measure 67
1000
0100
1000
0001
0100
0010
1000
0010
,  // measure 68
0100
0001
1000
0010
0100
0001
1000
0001
,  // measure 69
2002
0000
0000
0000
,  // measure 70
0000
0000
0000
3003
0000
0000
0000
0000
;

//---------------dance-single - ----------------
#NOTES:
     dance-single:
     :
     Medium:
     5:
     0.415,0.417,0.136,0.064,0.000:
0000
0000
0000
0000
,
0000
0000
0000
0000
,
0000
0000
0000
0000
,
1000
0010
0100
0001
,
1000
0010
0100
0000
0001
1000
0001
0000
,
0100
0010
1000
0000
0001
0100
0001
0000
,
1000
0010
0100
0000
0001
0010
0100
0000
,
1000
0010
0100
0000
0001
1000
0001
0000
,
1000
0000
0110
0000
0001
1000
0001
1000
,
0010
0000
0100
0000
0001
0000
1000
0010
,
0100
0000
0001
1000
0001
1000
0010
0000
,
0100
0100
0001
0001
,
1000
0010
0100
0001
1000
0010
0100
0000
,
0001
1001
0010
1010
,
1000
0010
0100
0010
0100
0001
0100
0000
,
0010
1000
0010
0100
0010
0100
0001
0000
,
1000
0000
0010
0000
0100
0000
0001
1000
,
0001
0000
1000
0000
1000
0000
0010
0010
,
0010
0000
0100
0001
0100
0000
0010
0010
,
1000
0000
0001
0100
0010
1000
0010
0100
,
0001
1000
0010
0100
,
0001
1000
1000
1000
,
0010
0100
0010
0100
0010
0100
0010
0000
,
1000
1000
0001
0001
,
1000
0010
0100
0010
,
0200
0000
0302
0000
,
1003
0010
0100
0001
,
1000
1000
0010
0100
,
0002
0000
2003
0000
,
3020
0000
0230
0000
,
0301
0010
0100
1000
,
0010
1000
0010
0100
,
0001
0000
1000
0000
0010
0010
0100
0000
,
0001
0000
1000
0000
0010
0100
0010
0000
,
1000
0000
0001
0000
1000
1000
0010
0000
,
0100
0000
0001
0000
1000
0010
0100
0000
,
0001
1000
0010
0110
,
0001
1000
0001
0000
1000
0010
1000
0000
,
0001
0010
0100
0000
1000
0010
0100
0000
,
0001
1000
0001
0100
0010
0100
0010
0000
,
1000
1010
0001
0101
,
1000
1000
0010
0010
,
0100
0001
0100
0010
0100
0010
0100
0000
,
0001
1000
0001
1000
0001
1000
0010
0000
,
0100
0000
0010
0000
1000
0010
1000
0000
,
0001
0100
0010
1000
,
0010
0100
0001
0000
1000
0010
1000
0000
,
0001
0000
0101
0000
0010
1000
0010
0000
,
1000
0100
0010
0000
0001
0010
0100
0000
,
1000
0010
0100
0010
0100
0001
1000
0000
,
0010
0110
0001
1001
,
1000
0000
1100
0000
0010
0100
0010
0000
,
1000
0001
0100
0010
,
1000
0010
0100
0000
0001
1000
0001
0000
,
1000
1010
0001
0101
,
0010
1000
0010
0100
,
0001
1000
0001
0000
0100
0010
0100
0000
,
1000
0001
0100
0000
0010
1000
0010
0000
,
0100
0001
0010
0000
0100
1000
0010
0000
,
0100
0001
0100
0000
0010
1000
0010
0000
,
1000
0001
0100
0000
0010
1000
0010
0000
,
0100
0001
0100
0000
0010
1000
0100
0000
,
0001
0010
0100
0000
1000
0010
0100
0000
,
0001
1000
0010
0000
0100
0010
1000
0000
,
0001
0010
0100
0000
0010
1000
0010
0000
,
0100
0001
0010
0100
1000
0010
0100
0000
,
0001
1000
0010
0100
,
1001
0110
1001
0110
,
2002
0000
0000
0000
,
0000
0000
0000
3003
0000
0000
0000
0000
;

//---------------dance-single - ----------------
#NOTES:
     dance-single:
     :
     Easy:
     3:
     0.293,0.306,0.048,0.080,0.000:
0000
0000
0000
0000
,
0000
0000
0000
0000
,
0000
0000
0000
0000
,
0000
0000
0000
0000
,
1000
1000
0010
0010
,
0100
0100
0001
0001
,
1000
1000
0010
0010
,
0100
0001
1000
0001
,
1000
0010
0100
0001
,
0100
0010
1000
0010
,
0100
0001
1000
0010
,
1000
0001
0100
0010
,
2000
0000
0001
0000
0001
0000
0001
3000
,
0002
0100
0100
0103
,
0010
1000
0010
0100
,
0001
1000
1000
0010
,
0110
0001
0001
1000
,
1001
0010
0100
0010
,
1000
0001
0100
0010
,
1000
0001
0100
0010
,
2000
0000
0001
0000
0001
0000
0001
3000
,
0002
0100
0100
0103
,
0010
1000
0010
0100
,
0001
1000
0010
0100
,
0002
0000
0000
0003
,
2000
0000
0000
0000
0000
0000
0000
3000
,
0200
0000
0000
0000
,
0320
0000
0000
0000
0000
0000
0000
0030
,
0001
0000
0100
0000
,
0010
0000
1000
0000
,
0001
1000
0001
1000
,
0001
0100
0010
0100
,
0001
0000
0001
0000
1000
0010
1000
0000
,
0001
0001
0100
0100
,
0010
1000
0001
0100
,
0010
1000
0001
0100
,
0010
0000
1000
0000
0001
0100
0001
0000
,
1000
0010
0100
0001
,
1000
1000
0010
0010
,
0100
0001
0100
0000
0010
0000
0010
0000
,
1000
1000
1000
1000
,
0010
0010
0100
0100
,
0001
1000
0010
0100
,
0001
0001
1000
0010
,
0100
0001
1000
0010
,
0100
0001
1000
1000
,
0010
0100
0001
1000
,
0010
0010
0100
0100
,
0001
0010
0100
1000
,
0010
1000
0010
0100
,
0001
1000
0010
0100
,
0001
0100
0010
1000
,
0010
0100
0001
0100
,
0010
1000
0001
0100
,
1001
0000
0010
0000
,
1001
0000
0100
0000
,
1001
0010
0100
0010
,
1000
0010
0100
0001
,
1000
0001
1000
0010
,
1000
0010
0100
0010
,
0100
0001
0100
0010
,
1000
0001
1000
0001
,
1000
0100
0010
0001
,
1000
0010
0100
0010
,
1000
1000
0001
0001
,
0100
0100
0010
0010
,
1000
0001
0100
0010
,
1000
0001
1000
0001
,
2002
0000
0000
0000
,
0000
0000
0000
3003
0000
0000
0000
0000
;

//---------------dance-single - Copied from----------------
#NOTES:
     dance-single:
     Copied from:
     Beginner:
     2:
     0.077,0.111,0.008,0.016,0.000:
0000
0000
0000
0000
,
0000
0000
0000
0000
,
0000
0000
0000
0000
,
0000
0000
0000
0000
,
0010
0000
0000
0000
,
0100
0000
0000
0000
,
0001
0000
0000
0000
,
1000
0000
0000
0000
,
0100
0000
0000
0000
,
0010
0000
0000
0000
,
0001
0000
0000
0000
,
1000
0000
0000
0000
,
0100
0000
0000
0000
,
0010
0000
0000
0000
,
0001
0000
0000
0000
,
1000
0000
0000
0000
,
0100
0000
0000
0000
,
1000
0000
0000
0000
,
0010
0000
0000
0000
,
1000
0000
0000
0000
,
0001
0000
0000
0000
,
0010
0000
0000
0000
,
0100
0000
0000
0000
,
1000
0000
0000
0000
,
0001
0000
0000
0000
,
0010
0000
0000
0000
,
0001
0000
0000
0000
,
0000
0000
0000
0000
,
1000
0000
0000
0000
,
0100
0000
0000
0000
,
1000
0000
0000
0000
,
0010
0000
0000
0000
,
0100
0000
0000
0000
,
0100
0000
0000
0000
,
0001
0000
0000
0000
,
0001
0000
0000
0000
,
1000
0000
0000
0000
,
1000
0000
0000
0000
,
0010
0000
0000
0000
,
0010
0000
0000
0000
,
0100
0000
0000
0000
,
0100
0000
0000
0000
,
0001
0000
0000
0000
,
0100
0000
0000
0000
,
0001
0000
0000
0000
,
1000
0000
0000
0000
,
0010
0000
0000
0000
,
1000
0000
0000
0000
,
0001
0000
0000
0000
,
0100
0000
0000
0000
,
0010
0000
0000
0000
,
1000
0000
0000
0000
,
0010
0000
0000
0000
,
0100
0000
0000
0000
,
0001
0000
0000
0000
,
0100
0000
0000
0000
,
0010
0000
0000
0000
,
1000
0000
0000
0000
,
0001
0000
0000
0000
,
1000
0000
0000
0000
,
0010
0000
0000
0000
,
0100
0000
0000
0000
,
0001
0000
0000
0000
,
0100
0000
0000
0000
,
0010
0000
0000
0000
,
1000
0000
0000
0000
,
0010
0000
0000
0000
,
0100
0000
0000
0000
,
2002
0000
0000
0000
,
0000
0000
0000
3003
0000
0000
0000
0000
;
