#TITLE:狂乱セレブレーション;
#SUBTITLE:;
#ARTIST:Yamajet;
#TITLETRANSLIT:Frenzy Celebration;
#SUBTITLETRANSLIT:;
#ARTISTTRANSLIT:;
#CREDIT:SupremeX;
#BANNER:Frenzy Celebration-bn.png;
#BACKGROUND:Frenzy Celebration-bg.png;
#LYRICSPATH:;
#CDTITLE:;
#MUSIC:Frenzy Celebration.ogg;
#OFFSET:-0.613;
#SAMPLESTART:22.020;
#SAMPLELENGTH:12.000;
#SELECTABLE:YES;
#BPMS:0.000=190.000;
#STOPS:;
#BGCHANGES:4.000=Frenzy Celebration.avi=1.000=0=0=1,
99999=-nosongbg-=1.000=0=0=0 // don't automatically add -songbackground-
;

//---------------dance-single - ----------------
#NOTES:
     dance-single:
     :
     Hard:
     9:
     0.676,0.654,0.300,0.131,0.027:
0000
0000
0000
0000
,
0000
0000
0000
0000
,
0000
0000
0000
0000
,
0000
0000
0000
0000
,
0000
0000
0000
0000
,
1000
0100
0010
0001
0100
0010
1000
0000
,
0001
0010
0100
1000
0001
0100
0010
0000
,
1000
0001
0010
0100
1000
1000
0100
0000
,
1000
0010
0100
0001
1000
0100
0100
0000
,
0010
0001
0010
0100
0010
0001
0010
0000
,
0100
1000
0100
0010
0100
1000
0100
0000
,
0010
0001
0010
0100
0010
0001
0010
0000
,
1000
0010
0100
0001
1000
0010
0100
0000
,
0001
0100
0010
1000
0001
0100
0001
1000
,
0001
0100
0001
1000
0010
0100
0010
0100
,
0001
0010
0100
1000
0000
0000
0010
0100
,
0000
0100
0010
0000
1001
0000
1001
0000
,
0100
0010
0100
0010
0000
0001
0010
0100
,
0000
1000
0100
0010
0000
0100
0101
0000
,
0001
0010
0100
0100
0000
1000
0100
0100
,
0000
0010
0001
0001
0000
1000
0100
0000
,
0100
1000
0100
0100
0000
0010
0001
0010
,
0000
0100
1000
0100
0000
1000
0001
0000
,
0001
1000
0010
0100
0000
0100
0010
1000
,
0000
0001
1000
0000
0110
0000
1001
0000
,
0100
0010
0100
0010
0000
1000
0001
1000
,
0000
0001
0100
0010
0000
0010
0100
0000
,
0001
0000
1000
0010
0000
0010
1000
0001
,
0000
0100
0010
0100
0000
0010
1000
0000
,
1000
0010
0100
0010
0000
1000
0001
1000
,
0000
0001
0010
0100
0000
1000
0100
0000
,
0100
1000
0001
1000
0000
0001
0100
0100
,
0000
0010
1000
0000
0101
0000
1010
0000
,
0001
0100
0010
1000
0001
0100
0010
1000
,
0001
0100
0010
1000
0001
0100
0001
1000
,
1000
0000
0000
1100
0000
0000
0020
0000
0000
0000
0000
0000
0100
0000
0000
0000
,
0100
0100
0100
0130
,
0001
1000
0010
0100
0001
1000
0001
0200
,
0000
0000
0010
0300
0001
0010
0100
1000
,
0100
1000
0100
0200
1000
0000
1300
1000
,
0000
0100
0010
0000
0011
0000
1001
0000
,
0100
0000
0100
0000
0010
1000
0010
1000
,
0010
0000
0100
0001
0001
0000
1100
0100
,
0020
0000
0001
0001
0000
0001
0000
0032
,
0000
0000
0000
0203
0000
0000
1000
0000
,
1300
0000
0000
1000
0020
0000
0000
0000
0100
0000
0000
0000
0100
0000
0000
0000
,
0130
0000
0001
0000
1000
0100
0010
0001
,
2000
0000
0000
3200
0000
1000
0000
1300
,
0000
0010
0010
0000
0101
0000
1010
0000
,
0100
0010
0100
0010
0000
1000
0010
0100
,
0000
0100
0010
1000
0000
1000
0001
0100
,
0010
1000
0001
1000
0000
0010
0100
0010
,
0000
1000
0001
1000
0000
0010
0100
0000
,
0100
0010
1000
0001
0000
1000
0100
1000
,
0000
1000
0001
1000
0000
0001
0010
0100
,
1000
0100
0010
0001
0000
1000
0100
1000
,
0000
0010
0100
0000
0110
0000
1001
0000
,
0010
0100
0010
0100
0000
0001
1000
0010
,
0000
0010
1000
0001
0000
1000
0010
1000
,
0010
0100
0001
0100
0000
1000
0100
0010
,
0000
0001
0010
0100
0000
1000
1000
0000
,
0010
0100
0010
0010
0000
1000
0100
0100
,
0000
0010
0001
0001
0000
1000
0001
0100
,
0010
1000
0100
0100
0000
0010
0001
0001
,
0000
0100
0100
0000
1010
0000
0101
0000
,
1001
0000
0000
1001
0000
0000
1001
0000
0000
0000
0100
0000
0010
0000
0100
0000
,
0000
0001
1000
0010
0000
0010
1000
0001
,
1100
0000
0000
1100
0000
0000
1100
0000
0000
0000
0010
0000
0100
0000
0001
0000
,
0000
0001
1000
0010
0000
0010
1000
0000
,
0110
0000
0000
0110
0000
0000
0110
0000
0000
0000
0001
0000
1000
0000
0010
0000
,
0000
0010
1000
0001
0000
0100
0010
0100
,
1001
0000
0000
1001
0000
0000
1001
0000
0000
0000
0001
0000
0100
0000
0010
0000
,
0000
0010
0100
0001
0000
1000
0100
0000
,
1010
0000
0000
1010
0000
0000
1010
0000
0000
0000
0100
0000
0001
0000
0100
0000
,
0010
0100
0001
0100
0010
1000
0010
0100
,
0010
1000
0010
0100
0001
0010
0100
1000
,
0010
0100
1000
0001
1000
0010
0100
0000
,
0001
0010
0100
1000
0001
0100
0001
1000
,
0010
0100
0010
0100
0010
1000
0001
0100
,
0001
0100
0010
1000
0010
1000
0010
0100
,
0001
0100
0010
1000
0001
0100
0010
2000
,
0000
0000
0000
3000
0000
0100
0010
0100
,
0010
0001
0010
0001
1000
0100
1000
0100
,
0020
0000
0001
0000
0001
0000
0001
0030
,
0200
0010
0010
0310
,
0020
0000
0001
0000
0001
0000
0001
0030
,
2000
0100
0100
3100
,
0020
0000
0001
0000
0001
0000
0031
1000
,
0000
1000
0010
0000
0110
0000
0101
0000
,
0010
1000
0010
1000
0001
1000
0010
0100
,
0001
0100
0010
1000
0000
1000
0010
0100
,
0001
1000
0001
0100
0001
0100
0010
1000
,
0100
0010
0001
0010
0100
1000
0010
0000
,
0010
1000
0001
0100
0000
0100
0001
1000
,
0000
0010
0100
0001
0000
0001
0010
0100
,
1000
0010
1000
0100
0000
0100
1000
0001
,
0000
0001
1000
0000
1010
0000
0101
0000
,
1001
0110
2002
0000
,
0000
0000
0000
0000
,
0000
0000
0000
0000
,
3003
0000
0000
0000
;

//---------------dance-single - ----------------
#NOTES:
     dance-single:
     :
     Challenge:
     10:
     0.910,1.000,0.523,0.554,0.323:
0000
0000
0000
0000
,
0000
0000
0000
0000
,
0000
0000
0000
0000
,
0000
0000
0000
0000
,
0000
0000
0000
0000
,
1000
0000
0100
0000
0010
0000
0001
0000
1000
0010
1000
0010
1000
0000
0000
0000
,
0001
0000
1000
0000
0100
0000
1000
0000
0001
0100
0001
0100
0001
0000
0000
0000
,
1000
0000
0010
0000
0100
0000
0001
0000
1000
0010
0100
0001
1000
0000
0000
0000
,
0010
1000
0001
0100
0010
1000
1000
0000
,
0100
0100
1000
1000
0001
0001
0110
0000
,
0001
0001
0100
0100
0010
0010
1001
0000
,
1000
0100
0010
0100
1000
0100
1100
0000
,
0010
0001
0010
0100
1000
0100
0011
0000
,
0001
0010
0100
0000
0010
0100
1000
0000
0001
0100
0010
0000
0010
0100
0010
0000
,
0110
0000
1000
0100
0010
0000
0001
0100
0010
0000
1000
0000
0100
1000
0100
0000
,
0010
0001
1000
0010
0100
0001
1000
0100
0010
0000
0000
0000
0001
0000
1000
0000
,
0000
0100
0110
0000
1001
0000
0110
0000
,
0100
0010
2000
3100
0000
0200
0310
0100
,
0000
0020
0031
0010
0000
0100
1100
0100
,
0010
0001
0020
0130
0000
0100
0200
1300
,
0000
0000
0100
0000
0020
0000
0031
0010
0001
1000
0010
0000
0101
0000
0000
0000
,
0010
0100
0020
0130
0000
0001
0200
0301
,
0000
0010
0020
1030
0000
0100
0101
0001
,
0010
0100
2000
3100
0000
0010
0002
0103
,
0000
0010
1010
0000
1001
0000
0101
0000
,
1000
0010
0200
0301
0000
1000
0200
1300
,
0000
0010
0002
0013
0000
0100
1100
0000
,
0010
0001
0002
0013
0000
0010
0200
1300
,
0000
1000
0200
0310
0000
0010
0011
0000
,
0100
1000
0002
0103
0010
0100
0200
0310
,
0000
0010
2000
3010
0000
0100
0110
0010
,
0100
0001
2000
3001
0100
0010
1000
1001
,
0000
0010
1000
0000
0101
0000
1010
0000
,
0001
0100
0010
1000
0002
0100
0103
0001
,
0002
1000
1000
1003
0010
0100
0001
1000
,
1100
0000
0000
0110
0000
0000
0011
0000
0001
0000
0010
0000
0100
0000
1000
0000
,
0100
0010
0001
0010
0100
1000
0110
0000
,
0001
0000
1000
0000
0100
0000
0010
0000
0001
0000
0000
0110
0000
0000
2000
0000
,
0100
0100
3100
0000
0010
0001
0010
0100
,
0200
1000
0300
2000
0100
0000
0100
3100
,
0000
0010
0001
0000
0012
0000
1003
0000
,
0010
0100
0010
0100
0010
0000
0000
1000
0100
1000
0100
0000
0010
0000
0001
0000
,
0011
0000
0100
0100
1000
0000
1100
0100
,
0010
0100
0010
0101
0000
1010
0000
0001
,
0100
0001
0100
0010
1000
0010
1000
0000
,
0100
0000
0000
0001
0100
0000
0001
0000
1000
0000
0100
0000
1000
0000
0100
0000
,
1000
0000
0101
0010
1000
0010
1000
0010
,
0200
0000
0000
0320
0000
0001
0000
0031
,
0000
0100
0100
0000
1100
0000
0110
0000
,
0001
0010
0200
1300
0000
1000
0200
0310
,
0000
0010
0002
0013
0000
0100
1100
0010
,
0001
0010
0200
1300
0000
0100
2000
3100
,
0000
1000
0020
1000
0000
0130
0010
0000
,
0010
0100
0002
0103
0000
1000
0200
1300
,
0000
0010
0002
0013
0000
0001
0100
0010
,
1000
0001
0200
0301
0000
1000
0200
1300
,
0000
0100
1000
0000
0110
0000
1001
0000
,
0100
0010
0200
0310
1000
0001
2000
3010
,
1000
0010
2000
3001
0000
1000
0100
1000
,
0100
0010
0002
0013
0100
1000
0200
0310
,
1000
0001
2000
0100
3100
0010
0001
0000
,
0001
1000
0200
1300
0001
1000
0200
1300
,
0100
0010
0002
0013
0000
0100
1000
0001
,
0100
0010
2000
3100
0010
0001
0002
0013
,
0000
0100
0100
0000
1100
0000
1001
0000
,
0101
0000
0000
1010
0000
0000
0101
0000
0000
0000
1000
0000
0100
0000
1100
0000
,
0000
0010
0001
0011
0000
0100
1000
0100
,
0110
0000
0000
0011
0000
0000
1001
0000
0000
0000
1000
0000
0010
0000
1010
0000
,
0000
0100
0001
0101
0000
1010
1000
0000
,
0110
0000
0000
1001
0000
0000
0110
0000
0000
0000
0001
0000
0100
0000
0101
0000
,
0000
0010
1000
1010
0001
0100
0001
0100
,
1010
0000
0000
0101
0000
0000
1010
0000
0000
0000
0001
0000
1000
0000
0110
0000
,
0000
0001
0000
0110
0000
1000
0001
0000
,
1100
0000
0000
0110
0000
0000
0011
0000
0000
0000
1000
0100
1000
0100
1000
0010
,
1000
0010
1000
0010
0100
0001
0100
0001
0100
0010
1000
0010
1000
0010
0100
0001
,
0100
0001
0100
0001
1000
0000
0001
0000
0100
0000
0100
0000
0001
0000
1000
0000
,
0010
0100
0010
1000
1000
0010
0100
0010
,
1000
0001
0100
0010
1000
0001
1000
0001
,
0100
0010
0100
0010
0100
0010
0100
0010
0100
0000
0001
0000
1000
0000
0001
0000
,
0010
0000
0100
0000
1000
0100
1000
0100
1000
0100
1000
0001
0100
0001
0100
0001
,
0100
0001
0100
0001
1000
0000
0001
0000
0010
0000
0001
0000
1000
0000
2002
0000
,
0000
0000
0000
0000
0000
0000
3003
0000
0000
0000
0100
0010
1000
0001
0100
0010
,
1000
0001
0100
0010
1000
0000
0001
0010
0100
1000
0001
0010
0100
1000
0001
0000
,
0200
0000
0000
0000
0301
0100
0001
0000
0001
0100
0001
0000
0001
0100
0001
0000
,
2000
0000
0000
0000
3100
1000
0100
0000
0100
1000
0100
0000
0100
1000
0100
0000
,
0020
0000
0000
0000
0031
0010
0001
0000
0001
0010
0001
0000
0001
0010
0001
0000
,
1000
0100
0010
0001
0010
0000
0000
0000
0100
1000
0100
1000
0100
1000
0100
0000
,
0020
0000
0000
0000
0031
0000
0000
0000
0001
0010
0100
1000
0001
1000
0100
0000
,
0000
0100
1000
0000
1100
0000
1001
0000
,
0010
0100
0020
0130
0001
0001
2000
3100
,
0010
0001
0020
0130
1000
0100
2000
3100
,
0010
0001
0002
0013
0100
1000
0200
1300
,
0100
0010
0002
0023
0000
0031
0001
0000
,
0100
0001
2000
3100
1000
0100
2000
3100
,
1000
0100
0020
0031
1000
0001
0010
0100
,
1000
0100
2000
3100
0010
0100
1000
0002
,
0000
1003
1000
0000
0110
0000
0101
0000
,
0010
0000
1000
0100
0010
0001
1000
0000
0220
0000
0000
0000
0000
0000
0000
0000
,
0000
0000
0000
0000
,
0000
0000
0000
0000
,
0330
0000
0000
0000
;

//---------------dance-single - ----------------
#NOTES:
     dance-single:
     :
     Medium:
     7:
     0.554,0.578,0.238,0.015,0.004:
0000
0000
0000
0000
,
0000
0000
0000
0000
,
0000
0000
0000
0000
,
0000
0000
0000
0000
,
0000
0000
0000
0000
,
1000
0100
1000
0001
,
0100
0010
0100
0000
0001
0000
1000
0000
,
0100
1000
0100
0000
1000
0000
0100
0000
,
0010
0001
0010
0000
0000
0100
1000
0100
,
0000
0100
0010
0100
0010
0001
0010
0001
,
0000
1000
0100
1000
0100
1000
0100
1000
,
0000
0010
0100
0010
0100
0010
0100
0010
,
0000
1000
0100
0010
0000
0001
0010
0100
,
0000
1000
0000
1100
0000
0010
0000
0011
,
0000
0100
0000
1001
0000
0010
0000
0110
,
0000
0001
1000
0010
0000
0100
0001
1000
,
0001
0100
0010
0000
0100
0000
0010
0000
,
1000
0100
1000
0100
0000
0010
0001
0010
,
0000
0100
1000
0100
0000
0010
0001
0000
,
1000
0000
0100
1000
0000
0100
0010
0001
,
0000
1000
0010
0100
0000
0001
1000
0000
,
0010
0000
0100
0001
0000
1000
0100
0010
,
0000
0001
1000
0010
0000
0100
0010
0000
,
1000
0000
0001
0100
0000
0010
1000
0001
,
0000
0100
0010
0000
0110
0000
0110
0000
,
0001
1000
0001
1000
0000
0010
0100
0010
,
0000
1000
0100
0010
0000
0001
0100
0001
,
0100
0010
1000
0010
0000
0100
0010
0100
,
0000
0001
1000
0001
0000
0100
0010
0000
,
1000
0010
0100
0001
0000
1000
0100
1000
,
0000
0001
0100
0010
0000
1000
0001
0100
,
0010
1000
0010
0100
0000
0001
1000
0001
,
0000
1000
0010
0000
0101
0000
1010
0000
,
0001
0010
0100
1000
,
0010
0100
0001
1000
,
0010
0100
0001
1000
,
0010
0100
0010
0100
0010
0100
0010
0100
,
0000
0001
1000
0010
,
0100
0001
1000
0010
,
0100
0001
1000
0010
,
0100
0001
1001
1001
,
0010
0000
0100
0000
1000
0010
1000
0010
,
1000
0100
0010
0001
,
0110
1000
1100
0010
,
0011
0100
1000
0010
,
1010
0001
0100
0010
,
1000
0010
0100
0001
,
1000
0010
0000
1000
,
0000
0100
0010
0000
0100
0000
0110
0000
,
0001
0000
1000
0010
0000
1000
0010
1000
,
0000
0010
0100
0010
0000
0000
0100
0000
,
0001
0000
1000
0010
0000
1000
0001
1000
,
0000
0010
0100
0010
0000
0100
0001
0000
,
1000
0100
0010
0001
0000
1000
0001
0100
,
0000
0010
0100
0010
0000
1000
0100
0010
,
0001
0010
0100
0010
0000
1000
0100
1000
,
0000
0001
0010
0000
1100
0000
0110
0000
,
0010
0001
0010
0001
0000
1000
0100
0010
,
0000
0001
0100
0010
0000
0010
0100
0000
,
0001
0000
1000
0010
0000
0100
0001
0100
,
0000
0010
1000
0010
0000
0100
0001
0000
,
1000
0010
1000
0010
0000
0100
0010
0100
,
0000
0001
1000
0001
0000
0100
0010
0000
,
0100
0000
0010
0100
0000
0010
1000
0010
,
0000
0100
0001
0000
0101
0000
0101
0000
,
0010
1000
0010
0100
,
0001
0100
0010
1000
,
0001
1000
0100
0010
,
0001
0010
0100
1000
,
1100
0010
0011
0100
,
0110
0001
1001
0100
,
0010
0100
0001
0100
,
0010
1000
0010
1000
,
0100
0000
0000
0100
0000
0000
0100
0000
0000
0000
0000
0000
0010
0000
0000
0000
,
0001
0010
0100
0010
,
0001
0100
0001
0000
0010
0100
1000
0000
,
0100
1000
0100
0000
0010
0001
0010
0000
,
0100
1000
0001
1000
,
0100
0010
0001
0010
,
0100
1000
0001
0000
1000
0010
0100
0000
,
0001
0010
0100
0010
0100
1000
0000
0000
,
0200
0000
0000
0310
,
0100
0010
1000
0001
,
0100
0000
0001
0000
1000
0100
1000
0100
,
1000
0000
0001
0000
0100
0000
0010
1000
,
0010
0100
1000
0100
,
0010
0001
0010
0100
,
1100
0010
0011
0100
,
1100
1100
0110
0110
,
0001
1000
0001
1000
0000
0010
0100
0010
,
0000
1000
0001
0100
0000
0010
0100
0000
,
0001
0000
1000
0010
0000
0100
0001
0100
,
0000
0010
1000
0010
0000
0100
0001
0000
,
1000
0000
0010
0100
0000
0001
1000
0001
,
0000
0100
0010
0100
0000
0010
1000
0000
,
0001
0000
1000
0010
0000
0100
0010
0100
,
0000
0001
1000
0000
0110
0000
1001
0000
,
0010
0100
0001
1000
0200
0000
0000
0000
,
0000
0000
0000
0000
,
0000
0000
0000
0000
,
0000
0300
0000
0000
;

//---------------dance-single - ----------------
#NOTES:
     dance-single:
     :
     Easy:
     4:
     0.434,0.500,0.462,0.069,0.000:
0000
0000
0000
0000
,
0000
0000
0000
0000
,
0000
0000
0000
0000
,
0000
0000
0000
0000
,
0000
0000
0000
0000
,
1000
0010
1000
0001
,
0100
0001
1000
0010
,
0100
0001
1000
0010
,
0100
0010
1000
0010
,
0100
0100
0100
0100
,
0001
0001
0001
0001
,
1000
1000
1000
1000
,
0010
0010
0010
0010
,
0100
0001
1000
0010
,
0100
0001
1000
0010
,
0200
0000
0000
0000
,
0300
0000
0000
0000
,
0001
1001
1000
1010
,
0001
0101
0010
1000
,
0010
0110
0001
1001
,
0010
0110
0001
0010
,
0100
1010
0010
0110
,
0001
1001
0010
0100
,
0010
1010
0001
0101
,
0010
1000
0010
0100
,
0001
1001
0010
0110
,
0010
1010
0001
0010
,
0100
0101
0010
1010
,
0001
0101
0010
1000
,
0010
1010
0001
0101
,
0010
1001
0010
0100
,
0010
1010
0001
0100
,
0010
1000
1000
1000
,
0001
0100
0010
1000
,
1000
0001
0100
0010
,
1000
0010
0100
0001
,
1000
0100
0010
0001
,
1000
0010
0100
0001
,
1000
1000
0010
0100
,
0001
1000
0010
0100
,
0001
0001
0110
0110
,
1000
1000
0010
0010
,
0100
0100
0100
0001
,
0001
0010
0100
1000
,
0010
0100
0010
1000
,
0001
1000
0010
1000
,
0010
0100
0001
1000
,
0010
0100
0001
1000
,
0000
0000
0110
0110
,
0001
1001
0010
0110
,
0001
1001
0010
0100
,
0010
1010
0100
0101
,
0010
1010
0001
0100
,
0010
0110
0001
1001
,
0010
0110
1000
0100
,
0010
0110
0001
1001
,
0010
0100
0010
0010
,
1000
1100
0010
0011
,
1000
1100
0010
0100
,
0001
0011
0110
0100
,
1100
0100
0010
1000
,
0010
0110
0001
1001
,
0010
1010
0001
0100
,
0010
1010
0100
0101
,
0010
1000
0010
0010
,
0100
0001
1000
0010
,
0100
0001
0001
0000
,
1000
0010
0100
0010
,
1000
0010
0100
0100
,
0001
1000
0010
0100
,
0001
1000
1000
1000
,
0010
0100
0010
1000
,
0001
1000
0010
0100
,
0002
0000
0003
2000
,
0000
0000
0000
0000
,
3020
0000
0000
0000
,
0000
0000
0000
0000
,
0230
0000
0000
0000
,
0000
0000
0000
0000
0000
0000
0000
0300
,
0002
0000
0000
0000
,
0000
0000
0000
0000
,
2003
0000
3000
0010
,
0100
0010
0100
0010
,
0100
0000
0001
1000
,
0001
0000
1000
0010
,
0100
0000
0001
1000
,
0010
0000
1000
0000
,
0001
0100
0010
1000
,
0001
1000
0110
0110
,
0001
1001
0010
0110
,
1000
1010
0001
0100
,
0010
1010
0001
0101
,
0010
1001
0010
0100
,
0010
1010
0001
0101
,
0010
1010
0001
0100
,
0010
1010
0100
0101
,
0010
1000
0010
1000
,
0002
0000
2003
0000
,
0000
0000
0000
0000
,
0000
0000
0000
0000
,
3000
0000
0000
0000
;

//---------------dance-single - Copied from----------------
#NOTES:
     dance-single:
     Copied from:
     Beginner:
     2:
     0.153,0.188,0.008,0.008,0.000: // measure 1
0000
0000
0000
0000
,  // measure 2
0000
0000
0000
0000
,  // measure 3
0000
0000
0000
0000
,  // measure 4
0000
0000
0000
0000
,  // measure 5
0000
0000
0000
0000
,  // measure 6
1000
0000
0000
0000
,  // measure 7
0010
0000
0000
0000
,  // measure 8
0100
0000
0000
0000
,  // measure 9
0001
0000
0000
0000
,  // measure 10
1000
0000
0100
0000
,  // measure 11
1000
0000
0001
0000
,  // measure 12
0100
0000
0001
0000
,  // measure 13
1000
0000
0001
0000
,  // measure 14
0100
0000
0010
0000
,  // measure 15
1000
0000
0001
0000
,  // measure 16
0100
0000
0000
0000
,  // measure 17
0000
0000
0000
0000
,  // measure 18
0001
0000
0100
0000
,  // measure 19
0010
0000
0000
0000
,  // measure 20
1000
0000
0010
0000
,  // measure 21
0100
0000
0000
0000
,  // measure 22
0001
0000
0100
0000
,  // measure 23
0010
0000
0000
0000
,  // measure 24
1000
0000
0010
0000
,  // measure 25
0100
0000
0000
0000
,  // measure 26
0001
0000
1000
0000
,  // measure 27
0001
0000
0000
0000
,  // measure 28
0100
0000
0010
0000
,  // measure 29
0100
0000
0000
0000
,  // measure 30
0001
0000
1000
0000
,  // measure 31
0001
0000
0000
0000
,  // measure 32
0100
0000
0010
0000
,  // measure 33
0100
0000
0000
0000
,  // measure 34
0001
0000
0001
0000
,  // measure 35
0001
0000
0000
0000
,  // measure 36
1000
0000
0000
0000
,  // measure 37
0000
0000
0000
0000
,  // measure 38
0100
0000
0100
0000
,  // measure 39
0100
0000
0010
0000
,  // measure 40
0010
0000
0000
0000
,  // measure 41
0000
0000
0000
0000
,  // measure 42
0001
0000
0001
0000
,  // measure 43
0001
0000
1000
0000
,  // measure 44
1000
0000
1000
0000
,  // measure 45
0010
0000
0100
0000
,  // measure 46
0010
0000
0000
0000
,  // measure 47
0000
0000
1000
0000
,  // measure 48
1000
0000
0000
0000
,  // measure 49
0000
0000
0000
0000
,  // measure 50
0100
0000
0010
0000
,  // measure 51
0100
0000
0010
0000
,  // measure 52
0001
0000
0100
0000
,  // measure 53
0001
0000
0100
0000
,  // measure 54
0010
0000
1000
0000
,  // measure 55
0010
0000
1000
0000
,  // measure 56
0100
0000
0010
0000
,  // measure 57
0100
0000
0010
0000
,  // measure 58
0001
0000
0010
0000
,  // measure 59
0001
0000
0010
0000
,  // measure 60
0000
0100
0000
1000
,  // measure 61
0000
0100
0000
0000
,  // measure 62
0010
0000
0001
0000
,  // measure 63
0010
0000
0000
0000
,  // measure 64
0100
0000
1000
0000
,  // measure 65
0100
0000
0000
0000
,  // measure 66
0010
0000
0000
0000
0000
0000
0000
0001
,  // measure 67
0000
0000
0000
0000
,  // measure 68
0010
0000
0000
0000
0000
0000
0000
0100
,  // measure 69
0000
0000
0000
0000
,  // measure 70
1000
0000
0000
0000
0000
0000
0000
0100
,  // measure 71
0000
0000
0000
0000
,  // measure 72
0010
0000
0000
0000
0000
0000
0000
0001
,  // measure 73
0000
0000
0000
0000
,  // measure 74
0010
0000
0100
0000
,  // measure 75
1000
0000
0010
0000
,  // measure 76
0100
0000
0001
0000
,  // measure 77
1000
0000
0010
0000
,  // measure 78
0100
0000
0001
0000
,  // measure 79
0001
0000
1000
0000
,  // measure 80
0010
0000
0000
0000
,  // measure 81
0000
0000
0000
0000
,  // measure 82
2000
0000
0000
3000
0000
0000
0010
0000
,  // measure 83
0000
0100
0000
0010
,  // measure 84
0000
0000
0100
0000
,  // measure 85
0010
0000
0100
0000
,  // measure 86
0001
0000
0100
0000
,  // measure 87
0010
0000
1000
0000
,  // measure 88
0010
0000
0000
0000
,  // measure 89
0100
0000
0000
0000
,  // measure 90
0000
0001
0000
0001
,  // measure 91
0000
0001
0000
0000
,  // measure 92
0000
1000
0000
1000
,  // measure 93
0000
1000
0000
0000
,  // measure 94
0000
0010
0000
0010
,  // measure 95
0000
0010
0000
0000
,  // measure 96
0000
0100
0000
0100
,  // measure 97
0000
0100
0000
0000
,  // measure 98
0000
0000
1001
0000
;
