#TITLE:FLY HIGH;
#SUBTITLE:;
#ARTIST:ME & MY;
#TITLETRANSLIT:;
#SUBTITLETRANSLIT:;
#ARTISTTRANSLIT:;
#GENRE:;
#CREDIT:SupremeX;
#BANNER:Fly High-bn.png;
#BACKGROUND:Fly High-bg.png;
#LYRICSPATH:;
#CDTITLE:;
#MUSIC:FLY HIGH.ogg;
#OFFSET:-0.088661;
#SAMPLESTART:68.620003;
#SAMPLELENGTH:12.000000;
#SELECTABLE:YES;
#BPMS:0.000000=140.720001
;
#STOPS:
;
#BGCHANGES:0.000=FLY HIGH.avi=1.000=1=0=0=StretchNoLoop==CrossFade==,
99999=-nosongbg-=1.000=0=0=0 // don't automatically add -songbackground-
;
#KEYSOUNDS:;
#ATTACKS:;

//---------------dance-single - ----------------
#NOTES:
     dance-single:
     :
     Hard:
     7:
     0.482833,0.551559,0.471128,0.215080,0.527459,330.000000,284.000000,46.000000,21.000000,0.000000,0.000000,0.482833,0.551559,0.471128,0.215080,0.527459,330.000000,284.000000,46.000000,21.000000,0.000000,0.000000:
0000
0000
0000
0000
,
0000
0000
0000
0000
,
0000
0000
0000
0000
,
0000
0000
0000
0000
,
0000
0000
0000
0000
,
0000
0000
0000
0000
,
0000
0000
0000
0000
,
0000
0000
0000
0000
,
1000
0000
0000
0000
0001
0000
0000
1000
0000
0000
1010
0000
0000
0000
0001
0000
,
0001
0000
0000
0000
0100
0000
0000
1010
0000
0000
0101
0000
1000
0000
0001
0000
,
1000
0000
0000
0000
0100
0000
0000
0110
0000
0000
0011
0000
0000
0000
1000
0000
,
1000
0000
0000
0000
0001
0000
0000
0110
0000
0000
1001
0000
0000
0100
0010
0100
,
0010
0000
1000
0000
0001
0000
0000
0101
0000
0000
1010
0000
0000
0000
0100
0000
,
0100
0000
0000
0000
0001
0000
0000
0001
0000
0000
0001
0000
1000
0000
0100
0000
,
1000
0000
0000
0000
0100
0000
0000
1100
0000
0000
1100
0000
0000
0000
0100
0000
,
0100
0000
0000
0000
0010
0000
0000
0011
0000
0000
0011
0000
0000
0000
1000
0100
,
1000
0100
0010
0001
1000
0010
0100
0001
,
1000
0000
0000
0000
0010
0000
0000
0100
0000
0000
0110
0000
1000
0000
0001
0000
,
1000
0000
0000
0000
0010
0000
0000
0010
0000
0000
0010
0000
0100
0000
0001
0000
,
0010
0000
0100
0000
1000
0000
0001
0000
0100
0000
0001
0000
1000
0000
0100
1000
,
0100
0010
0100
0001
0100
0010
0000
1000
,
0001
0000
0000
0000
0010
0000
0000
0101
0000
0000
1010
0000
0001
0000
1000
0000
,
0010
0000
0000
0000
1000
0000
0000
1000
0000
0000
1000
0000
0010
0000
0100
0000
,
0010
0000
0100
0000
0001
0000
1000
0000
0100
0000
1000
0000
0100
0000
0010
0001
,
0010
0000
0100
0100
1000
0100
0010
0100
,
0010
0000
1000
0001
1000
0001
0010
0100
,
0001
1000
0010
1000
0001
0100
0000
0010
,
0100
0000
0010
0000
0100
0000
0010
0000
1000
0000
0100
0000
0000
0001
0010
0001
,
0010
0100
1000
0100
1000
0100
0000
0010
,
0001
0010
0001
1000
0100
1000
0100
0010
,
0100
0000
0000
0000
0001
0000
0000
0100
0000
0000
0001
0000
1000
0000
0010
0000
,
1000
0000
0100
0000
0010
0100
0001
0000
0001
0000
0010
0000
0100
0000
1000
0100
,
1000
0000
0100
0000
1000
0000
0000
0200
0000
0000
1300
0000
0000
0000
0110
0000
,
2000
0000
0000
0000
3100
0000
0000
0100
0000
0000
0001
0000
0010
0000
0001
0000
,
0020
0000
0000
0000
0001
0000
0000
0001
0000
0000
0031
0000
0000
0000
1000
0000
,
0200
0000
0000
0000
0310
0000
0000
0010
0000
0000
0001
0000
1000
0000
0010
1000
,
0010
0000
1000
0000
0100
0000
0000
0020
0000
0000
0130
0000
0000
0000
0010
0000
,
1000
0000
0100
0000
1000
0000
0000
0200
0000
0000
1300
0000
0100
0000
1000
0000
,
0100
0000
0010
0000
0001
0000
0000
0020
0000
0000
0000
0130
0000
0000
0100
0000
,
0010
0000
0100
0000
0010
0100
0000
1000
0000
0000
1000
0000
0000
1000
0100
1000
,
0000
0000
0000
0010
0000
0100
0000
0001
0000
0000
0000
1000
0000
0010
0000
0200
,
0000
0000
0000
0310
0000
0010
0000
0000
0000
1000
0000
0000
0000
0101
0000
0000
,
0000
1010
0000
0000
0000
0101
0000
0000
0000
1001
0000
0000
0000
0110
0000
0000
,
0000
1001
0000
0000
0000
0220
0000
0000
0000
0000
0000
0330
0000
0000
0000
0000
,
0000
0000
0000
0001
0000
1000
0000
0100
0000
0100
0000
0000
0000
1000
0000
0020
,
0000
0000
0000
0130
0000
0100
0000
0000
0000
0001
0000
0000
0000
1001
0000
0000
,
0000
1100
0000
0000
0000
0110
0000
0000
0000
0011
0000
0000
0000
0110
0000
0000
,
0000
1001
0000
0000
0000
0220
0000
0000
0000
0000
0000
0330
0000
0001
0000
0001
,
0000
0000
0000
1000
0000
0100
0000
1000
0000
0000
0000
0100
0000
0100
0000
2000
,
0000
0000
0000
3100
0000
0100
0000
0000
0000
0010
0000
0000
0000
1001
0000
0000
,
0000
0110
0000
0000
0000
0101
0000
0000
0000
1010
0000
0000
0000
0110
0000
0000
,
0000
1001
0000
0000
0000
0220
0000
0000
0000
0000
0000
0330
0000
0000
0000
0000
,
0000
0000
0000
1000
0000
0010
0000
1000
0000
1000
0000
0000
0000
0100
0000
0020
,
0000
0000
0000
0031
0000
0001
0000
0000
0000
0010
0000
0000
0000
0011
0000
0000
,
0000
1001
0000
0000
0000
0110
0000
0000
0000
1001
0000
0000
0000
0110
0000
0000
,
0000
1001
0000
0000
0000
0010
0000
0220
0000
0000
0000
0000
0000
0330
0000
2002
,
0000
0000
0000
0000
0000
0000
0000
0000
0000
0000
0000
3003
0000
0000
0000
0000
;

//---------------dance-single - ----------------
#NOTES:
     dance-single:
     :
     Medium:
     5:
     0.330667,0.379463,0.225322,0.163871,0.000000,226.000000,204.000000,22.000000,16.000000,0.000000,0.000000,0.330667,0.379463,0.225322,0.163871,0.000000,226.000000,204.000000,22.000000,16.000000,0.000000,0.000000:
0000
0000
0000
0000
,
0000
0000
0000
0000
,
0000
0000
0000
0000
,
0000
0000
0000
0000
,
1000
0000
0010
0000
,
1000
0010
0100
0001
,
1000
0010
1000
0001
,
0100
0100
0110
0000
,
2000
0000
0000
3010
0000
0000
0000
0000
,
0002
0000
0000
0103
0000
0000
0000
0000
,
2000
0000
0000
3010
0000
0000
0000
0000
,
0020
0000
0000
0130
0000
0000
0000
0000
,
0001
0000
1000
0000
0002
0000
0000
0103
,
0100
0000
0000
0100
0000
0000
0000
0000
,
0001
1000
0020
0000
,
0130
0000
1001
0000
,
1000
0001
1000
0010
,
0100
0010
0100
0000
0001
1000
0001
0000
,
1000
0010
1000
0000
0001
0100
0001
0000
,
1000
0010
1000
0000
0001
0100
0001
0000
,
1000
1000
0010
0010
,
0100
0100
0001
0001
,
1000
0010
0100
0000
0001
0100
0010
0000
,
1000
1000
1000
0001
,
0110
1000
0110
0001
,
0001
0001
0001
1000
,
1010
0100
0101
0010
,
0010
0010
0010
0010
,
1000
1000
1000
1000
,
0001
0100
0001
0000
1000
0010
1000
0000
,
0100
0010
0100
0000
0010
0001
0010
0000
,
1000
0010
1000
0000
0001
0000
1001
0000
,
1000
1000
0010
0100
,
0010
0000
0010
0000
1000
0000
0001
0100
,
0010
1000
0010
1000
,
0001
0100
0001
0000
,
1010
0001
0001
0001
,
1100
0010
0010
0010
,
0001
0001
1000
0010
,
1000
1000
1000
1000
,
1010
0001
0100
0010
,
1000
0000
0010
0100
0000
0100
0000
0100
,
0000
0001
0000
1000
0000
0010
0000
1010
,
0000
1010
0000
2002
0000
0000
3003
0000
,
0000
0000
0100
0000
0010
0100
0000
0001
,
1000
0000
0010
0100
0000
0001
0000
1000
,
0000
0010
0000
0100
0000
0001
0000
1010
,
0000
0101
0000
2002
0000
0000
3003
0000
,
0100
0000
0001
0000
1000
0010
0100
0000
,
0010
0000
1000
0010
0000
0100
0000
0001
,
0000
1000
0000
0010
0000
0110
0000
0001
,
0000
1001
0000
2020
0000
3030
0000
0000
,
0100
0000
0001
0000
1000
0010
0000
0100
,
0001
0000
1000
0010
0000
0100
0000
0001
,
0000
1000
0000
0010
0000
1000
0000
0010
,
0000
0101
0000
0202
0000
0303
0000
0000
,
2002
0000
0000
0000
,
3003
0000
0000
0000
;

//---------------dance-single - ----------------
#NOTES:
     dance-single:
     :
     Easy:
     3:
     0.238490,0.286774,0.061451,0.010242,0.000000,163.000000,157.000000,6.000000,1.000000,0.000000,0.000000,0.238490,0.286774,0.061451,0.010242,0.000000,163.000000,157.000000,6.000000,1.000000,0.000000,0.000000:
0000
0000
0000
0000
,
0000
0000
0000
0000
,
0000
0000
0000
0000
,
0000
0000
0000
0000
,
0200
0000
0000
0000
,
0000
0000
0000
0000
0300
0000
0000
0001
,
0000
0000
0000
1000
0000
0000
0000
0010
,
0000
0010
0000
0010
0000
0000
0000
0000
,
1000
0000
0000
0001
0000
0000
0000
0000
,
1000
0000
0000
0001
0000
0000
0000
0000
,
0100
0000
0010
0000
,
0100
0000
0010
0000
,
1000
0000
0000
0001
0000
0000
0000
0000
,
1000
0000
0000
0001
0000
0000
0000
0000
,
0100
0000
0010
0000
,
0100
0000
0010
0000
,
1000
0000
0000
1000
0000
0000
0000
0000
,
0001
0100
0001
0001
,
1000
0010
0010
0000
,
1000
0010
0100
0000
,
0001
0000
0000
1000
0000
0000
0000
0000
,
0010
0100
0010
0010
,
1000
0001
1000
1000
,
0010
0100
0001
0001
,
1000
1000
1000
1000
,
1000
1000
1000
1000
,
0010
0010
0010
0010
,
0010
0010
0010
0010
,
0100
0100
0100
0100
,
0100
0100
0100
0001
,
0001
0001
0001
0001
,
0001
1000
0001
1000
,
0010
0100
0001
0000
,
1000
0010
0100
0001
,
1001
1000
1000
0000
,
0010
0010
0010
0010
,
0100
0001
1000
0000
,
0001
0100
0010
1000
,
1001
0100
0100
0010
,
0010
0100
0100
0001
,
1000
0000
0010
0100
,
0010
0000
0000
1000
0000
0001
0000
1000
,
0000
0010
0000
0100
0000
0001
0000
1000
,
0000
1000
0000
1001
0000
0000
0000
0000
,
0000
0010
0000
0000
,
0100
0000
0000
0010
0000
1000
0000
0001
,
0000
0100
0000
0010
0000
1000
0000
0001
,
0000
1000
0000
1001
0000
0000
0000
0000
,
0010
0000
0100
0000
,
0001
0000
0000
1000
0000
0001
0000
0100
,
0000
0010
0000
1000
0000
0001
0000
0100
,
0000
0010
0000
0110
0000
0000
0000
0000
,
0001
0000
1000
0000
,
0010
0000
0000
0000
1000
0000
0000
0001
,
0000
0100
0000
0010
0000
1000
0000
0001
,
0000
1000
0000
0010
0000
0000
0000
0000
,
0110
0000
0000
0000
;

//---------------dance-single - Copied from----------------
#NOTES:
     dance-single:
     Copied from:
     Beginner:
     1:
     0.073157,0.086032,0.010242,0.000000,0.000000,50.000000,49.000000,1.000000,0.000000,0.000000,0.000000,0.073157,0.086032,0.010242,0.000000,0.000000,50.000000,49.000000,1.000000,0.000000,0.000000,0.000000:
0000
0000
0000
0000
,
0000
0000
0000
0000
,
0000
0000
0000
0000
,
0000
0000
0000
0000
,
0000
0000
0000
0000
,
0000
0000
0000
0000
,
0000
0000
0000
0000
,
0000
0000
0000
0000
,
0010
0000
0000
0000
,
0010
0000
0000
0000
,
0010
0000
0000
0000
,
0010
0000
0000
0000
,
1000
0000
0000
0000
,
1000
0000
0000
0000
,
1000
0000
0000
0000
,
1000
0000
0000
0000
,
0001
0000
0000
0000
,
0001
0000
0000
0000
,
0001
0000
0000
0000
,
0001
0000
0000
0000
,
0100
0000
0000
0000
,
0100
0000
0000
0000
,
0100
0000
0000
0000
,
0100
0000
0000
0000
,
0010
0000
0000
0000
,
1000
0000
0000
0000
,
0001
0000
0000
0000
,
0100
0000
0000
0000
,
0010
0000
0000
0000
,
1000
0000
0000
0000
,
0001
0000
0000
0000
,
1000
0000
0000
0000
,
0001
0000
0000
0000
,
0010
0000
0000
0000
,
0100
0000
0000
0000
,
1000
0000
0000
0000
,
0001
0000
0000
0000
,
0010
0000
0000
0000
,
0100
0000
0000
0000
,
1000
0000
0000
0000
,
0010
0000
0000
0000
,
0100
0000
0000
0000
,
0000
0000
0000
0010
0000
0000
0000
0000
,
0000
0000
0000
0100
0000
0000
0000
0000
,
0000
0000
0001
0000
,
0000
1000
0000
0000
,
0000
0000
0000
0010
0000
0000
0000
0000
,
0000
0000
0000
0100
0000
0000
0000
0000
,
0001
0000
0000
0000
,
1000
0000
0000
0000
,
0000
0000
0000
0010
0000
0000
0000
0000
,
0000
0000
0000
0100
0000
0000
0000
0000
,
0001
0000
0000
0000
,
1000
0000
0000
0000
0000
0000
0000
0010
,
0000
0000
0000
0000
0000
0000
0000
0100
,
0000
0000
0000
0000
,
1001
0000
0000
0000
;
