#TITLE:Drop Z-Line-;
#SUBTITLE:;
#ARTIST:GettY vs.DJDiA;
#TITLETRANSLIT:;
#SUBTITLETRANSLIT:;
#ARTISTTRANSLIT:;
#CREDIT:SupremeX;
#BANNER:Drop ZLine-bn.png;
#BACKGROUND:Drop ZLine-bg.png;
#LYRICSPATH:;
#CDTITLE:;
#MUSIC:DropZ-Line.ogg;
#OFFSET:-0.599;
#SAMPLESTART:99.980;
#SAMPLELENGTH:12.000;
#SELECTABLE:YES;
#BPMS:0.000=200.041,104.000=100.021,120.000=200.041,272.000=400.082,336.000=200.041;
#STOPS:239.500=2.400
;
#BGCHANGES:-2.599=DropZ-Line.avi=1.000=1=1=0,
99999=-nosongbg-=1.000=0=0=0 // don't automatically add -songbackground-
;

//---------------dance-single - ----------------
#NOTES:
     dance-single:
     :
     Hard:
     10:
     0.791,1.000,0.191,0.133,0.108:
0000
0000
0000
0000
,
0000
0000
0000
0000
,
0000
0000
0000
0000
,
0000
0000
0000
0000
,
0000
0000
0000
0000
,
0000
0000
0000
0000
,
0010
0100
1000
0100
0010
0100
0010
0100
,
1000
0010
1000
0001
1000
0100
1000
0000
,
0001
0100
0001
1000
0001
0100
0001
1000
,
0001
0000
0000
1100
0000
0000
1001
0000
0000
0101
0000
0000
1010
0000
0000
0000
,
0001
0010
0100
0010
0001
0010
0100
0010
,
0001
0010
0100
1000
0001
1000
0100
1000
,
0001
1000
0100
1000
0100
0010
0001
1000
,
0010
1000
0010
0100
0001
0100
0001
1000
,
0000
0001
0010
0100
1000
0001
1000
0100
,
1000
0001
1000
0100
1000
0001
1000
0100
,
1000
0001
1000
0001
0010
0100
1000
0010
,
0100
0010
0100
0001
1000
0100
1000
0100
,
0010
0000
1001
0001
0010
0100
1000
0100
,
0010
0100
1000
0001
0010
0100
0010
0001
,
0010
0100
1000
0100
1000
0010
0100
0010
,
0100
0010
1000
0001
1000
0001
1000
0010
,
0110
0100
0001
1000
0001
0100
0001
1000
,
0001
0100
0010
0100
0010
1000
0001
0100
,
0001
1000
0100
1000
0001
0100
0010
1000
,
0001
0010
0100
1000
0100
0010
0100
0000
,
1000
0000
0010
0100
0010
0000
1000
0001
0100
0010
1000
0001
0100
0010
1000
0000
,
1001
0000
0010
0100
1000
0000
0100
1000
0100
1000
0100
1000
0100
1000
0100
1000
,
0001
0000
0100
0010
1000
0000
0010
0100
0010
0100
0010
1000
0001
0100
0001
0100
,
0001
0000
1000
0100
0010
0001
0010
0100
1000
0100
0010
0100
1000
0100
0010
0001
,
1000
0100
0010
0001
0100
0001
0001
0010
,
0100
1000
0100
0010
1000
0010
0010
0100
,
0001
0100
0010
1000
0010
0100
0100
0001
,
0010
0100
1000
0001
0101
0000
0110
0000
,
1000
0001
0100
0001
1000
1000
1000
0001
,
1000
0100
1000
0100
0010
0010
0010
0001
,
0010
0100
1000
0100
1000
1000
1000
0100
,
0010
0100
0010
0001
0002
0000
0000
0000
,
1003
0100
1000
0100
0010
0001
1000
0100
,
1000
0001
0100
0001
1000
0100
1000
0100
,
0010
0100
0001
1000
0001
0100
0001
1000
,
0010
0100
0010
0100
0001
1000
0001
1000
,
0010
0100
0001
1000
0010
0100
0001
0100
,
0010
1000
0010
0100
0010
1000
0010
0100
,
0001
1000
0010
0100
0001
0100
0010
1000
,
0010
1001
0101
1010
,
0002
0000
0100
0100
,
0103
0010
0200
0001
,
0320
0000
1030
0100
,
0020
0001
0032
0000
,
1003
0000
0010
0100
,
0002
0000
2003
0000
,
3020
0000
0130
0001
,
2000
0000
3100
1100
,
0010
0001
0010
0100
1000
0100
0010
0100
,
1000
0001
1000
0010
0110
0000
1001
0000
,
0100
0001
0100
0010
1000
0010
0100
0001
,
1000
0010
0100
0010
0110
0000
0001
1000
,
2002
0000
0000
0000
,
0000
0000
0000
0000
0000
3003
0000
0110
,
0001
0010
0100
0010
0001
0010
0100
1000
,
0001
1000
0100
0010
0100
1000
0100
0010
,
0100
0001
1000
0010
0100
0001
1000
0001
,
1000
0100
1000
0100
0010
0001
0010
0001
,
0010
0100
1000
0100
1000
0100
0010
0100
,
0010
0001
0010
0100
0010
0100
1000
0100
,
0010
0100
1000
0100
0010
0001
1000
0100
,
1000
0001
1000
0001
0100
0010
0100
0010
,
1000
0100
0010
0001
,
1000
0010
1000
0001
,
0100
0001
1000
0010
,
0100
0001
1000
0010
,
0100
0001
1000
0100
,
1000
0100
0010
0001
,
0010
0001
1000
0100
,
1000
0100
0010
0001
,
0010
0100
1000
0010
,
0100
0001
1000
0001
,
0100
0010
1000
0001
,
0100
0001
0100
0010
,
1000
0010
1000
0001
,
0010
0100
1000
0001
,
0100
0010
1000
0001
,
0010
0100
1000
0000
,
0110
0001
0100
0010
1000
0010
0100
0010
,
1000
0010
0100
0010
1000
0010
0100
0010
,
1000
0100
0010
0001
0010
0100
0010
0001
,
0010
0100
1000
0100
0001
1000
0001
1000
,
0010
0100
0001
0100
0010
1000
0010
1000
,
0100
0010
0001
0100
0001
1000
0100
0010
,
0001
1000
0100
1000
0100
0010
0100
0010
,
0001
0010
0100
1000
0001
0100
0001
0000
,
1000
0000
0110
0110
0000
0001
0010
0100
,
2000
0000
0100
3100
0000
0010
0001
0010
,
0200
0000
1000
1300
0000
0001
1000
0100
,
0020
0000
0001
0031
0000
0110
0110
0000
,
1000
0100
1000
0100
0010
0001
0010
0001
,
1000
0100
0010
0100
1000
0001
0010
0100
,
0010
0001
0010
0100
0010
1000
0001
0100
,
0001
1000
0100
1000
0100
0010
0001
0010
,
0002
0000
0000
0000
,
0000
0000
0003
0000
;

//---------------dance-single - ----------------
#NOTES:
     dance-single:
     :
     Challenge:
     13:
     1.000,1.000,0.456,0.124,0.563:
0000
0000
0000
0000
,
0000
0000
0000
0000
,
0000
0000
0000
0000
,
0000
0000
0000
0000
,
0000
0000
0000
0000
,
0000
0000
0000
0000
,
0011
0000
0100
0000
1000
0000
0100
0000
0010
0000
0001
0010
0100
0000
1000
0000
,
0001
0000
0100
0000
0010
0000
1000
0000
0001
1000
0100
0000
1000
0000
0001
0000
,
0010
0100
1000
0100
0010
0100
1000
0001
,
1001
0000
0000
1100
0000
0000
0101
0000
0000
1010
0000
0000
0110
0000
0000
0000
,
0001
0000
0010
0000
0100
0000
0010
0001
0010
0000
0100
0000
0001
0000
0010
0000
,
0100
0000
1000
0000
0100
0000
1000
0010
0100
0000
0001
0000
0100
0000
0010
0100
,
0001
0000
1000
0000
0100
0000
1000
0100
1000
0000
0100
0000
0010
0000
0001
0000
,
0010
0000
0100
0000
0010
0001
0100
0000
0001
0000
0100
0010
0001
1000
0200
0000
,
0000
0000
0310
0000
0001
0000
1000
0000
0100
0000
1000
0100
1000
0000
0100
0000
,
0010
0000
0001
0000
1000
0010
0100
0000
0001
0000
1000
0000
0010
0000
0100
0000
,
0001
1000
0001
0000
1000
0000
0001
0000
0010
0000
0100
0000
0010
0001
0010
0000
,
0100
0000
1000
0000
0100
0010
0001
0010
1000
0001
0100
0010
1000
0001
0100
0000
,
0010
0000
0000
0000
1001
0000
1000
0000
0100
0000
0010
0000
0100
1000
0100
0000
,
0010
0000
0100
0000
1000
0000
0001
0000
1000
0000
0100
0000
0010
0100
0001
0000
,
0010
0000
0100
0000
1000
0000
0100
0000
1000
0001
0010
0000
0100
0000
0001
0000
,
0100
0000
0010
0000
1000
0000
0001
0000
1000
0000
0001
0100
0010
1000
0001
0000
,
0110
0000
1000
0000
0100
0000
0010
0000
0001
0000
1000
0010
0100
0000
0001
0000
,
1000
0000
0010
0000
0100
0000
0001
0000
1000
0000
0100
1000
0010
0000
0100
0000
,
0001
0000
1000
0000
0100
0000
0010
0000
0001
0000
0100
0001
0100
0000
0001
0000
,
1000
0100
1000
1100
0100
0110
0010
0011
,
1000
0100
0010
0001
0110
0001
1000
0010
0100
0001
1000
0001
0100
0010
1000
0001
,
1001
0000
0010
0100
1100
0010
0100
0001
0100
0010
1000
0001
0100
0010
1000
0001
,
1000
0000
0100
0010
0110
0001
0010
0100
0010
0100
0010
1000
1100
0100
1000
0100
,
0010
0001
0100
1000
0010
0100
0001
0100
0010
0100
1000
0100
0010
0100
1000
0001
,
1000
0100
0010
0001
0100
0110
0010
0100
,
1000
0100
0010
0100
1000
1100
0010
0001
,
0010
0100
1000
0100
1000
0110
0001
0100
,
0001
1000
0010
1000
0001
0100
1010
0000
,
0100
0001
1000
0001
0100
0100
0100
0010
,
1000
0100
1000
0100
0010
0010
0010
0001
,
0010
0000
0100
0010
1000
0001
0100
0010
1000
0001
0100
0010
1000
0000
0100
0000
,
0010
0100
0010
0001
0012
0000
0000
0000
,
1003
0100
1100
1000
0100
0010
0011
0100
,
0001
0010
0110
1000
0100
1000
1100
0010
,
0100
0010
0101
1000
0010
1000
1100
0110
,
0010
0001
0011
0100
1000
0100
1001
0100
,
0010
0000
1000
0000
1001
0000
0010
0100
0010
0000
1000
0100
0010
0000
0001
0010
,
0100
0000
1000
0100
0010
0000
0001
0100
0010
0000
1000
0010
0100
0000
0001
0000
,
1000
0001
0100
0010
0100
0010
1000
0001
,
1000
0100
0010
0001
0010
0100
1000
0001
0100
0010
1000
0001
0100
0010
1000
0001
,
2000
0000
0100
0100
,
3100
1000
0200
0010
,
0320
0000
0031
0100
,
0120
0000
0000
0000
1030
0000
0001
1000
0002
0000
0000
0000
0000
0000
0000
0000
,
1003
0100
0010
0001
0010
0100
1000
0100
,
0020
0001
0032
1000
,
0103
1000
0100
0010
0001
0010
0100
1000
,
0200
1000
1300
0110
,
0001
0010
0100
0010
0001
1000
0100
0010
,
0100
1000
0100
0010
0110
0000
1001
0000
,
0100
0010
1000
0010
0100
0010
1000
0001
0100
0001
0010
0100
1000
0001
0100
0010
,
0100
0001
0100
0010
1000
0010
0100
0001
0100
0000
0000
0000
1000
0000
0001
0000
,
1000
0001
1000
0001
1000
0001
1000
0001
1000
0001
1000
0001
1000
0001
1000
0001
,
1000
0001
1000
0001
1000
0001
1000
0001
1000
0001
1000
0001
1000
0000
0110
0000
,
0001
0000
0010
0000
0100
1000
0010
0000
0100
0000
0001
0000
1000
0000
0100
1000
,
0100
0000
1000
0000
0100
0000
0010
0001
0100
0000
0001
0000
1000
0000
0100
0000
,
1000
0000
0001
0000
1000
0000
0010
0000
0100
0010
0100
0000
0001
0000
1000
0000
,
0100
1000
0100
0000
1000
0000
0100
0000
0010
0001
0010
0001
0010
0001
0010
0001
,
0010
0000
0100
0000
1000
0000
0010
0100
0001
0000
1000
0000
0100
0000
1000
0001
,
0100
0000
0010
0000
1000
0000
0010
0100
0001
0000
1000
0000
0100
0000
1000
0000
,
0001
0000
0100
0000
0010
1000
0001
0000
0100
0000
0001
0000
1000
0000
0100
0010
,
0100
0010
0001
1000
0100
0010
0100
0010
,
0001
1000
0100
1000
,
0110
0001
1000
0001
,
0101
1000
0100
0010
,
0001
0100
0010
1000
0001
0100
0010
0000
,
1001
0010
0100
0001
,
0110
1000
0001
0100
,
1001
0010
1000
0100
,
0010
0001
1000
0010
0100
0001
1000
0000
,
0101
0010
1000
0001
,
1010
0100
0001
0100
,
1001
0010
0100
0001
,
0110
0000
1000
0000
0001
0000
1000
0100
,
0010
0001
1000
0100
1000
0001
1000
0001
,
0010
0100
1000
0100
0010
0100
1000
0001
,
0010
0100
0010
0001
0010
0100
0010
0001
,
1000
0100
1000
0100
1000
0000
0000
0000
,
0110
0000
0001
0000
1000
0000
0010
0100
0001
0000
0010
0000
0100
0000
0010
0000
,
1001
0000
0100
0000
0010
0000
0100
0000
1000
0000
0010
0001
0100
0001
0010
0000
,
1000
0000
0100
0000
0010
0000
0001
0000
1000
0000
0010
1000
0100
0000
0010
0000
,
0011
0000
0100
0000
1000
0000
0001
0000
1000
0000
0010
0100
0010
0100
0001
1000
,
0010
0000
0100
0000
0001
0000
0100
0000
0010
0000
1000
0010
0100
0000
0001
0000
,
0100
0000
0010
0000
1000
0000
0010
0000
0100
0000
0001
1000
0010
0000
1000
0000
,
0001
0000
1000
0000
0100
0000
1000
0000
0100
0000
0010
0001
0010
0000
0100
0000
,
1000
0010
0100
0010
0100
0001
1000
0100
0001
0010
0100
1000
0010
0000
0000
0000
,
1001
0000
0100
0110
0000
0001
0101
0010
,
2000
0000
0000
0000
0100
0000
3100
0000
0000
0010
0001
0010
0001
0000
0010
0000
,
0200
0000
1000
1300
0000
0101
0001
1000
,
2000
0000
0100
3100
0000
0011
0011
0000
,
1000
0100
1000
0100
0010
0001
0010
0001
,
1000
0100
0010
0100
1000
0001
0010
0100
,
0010
0001
0010
0100
0010
1000
0001
0100
,
0001
1000
0100
1000
0100
0010
0001
0010
,
2002
0000
0000
0000
,
0000
0000
3003
0000
;

//---------------dance-single - ----------------
#NOTES:
     dance-single:
     :
     Medium:
     6:
     0.555,0.758,0.182,0.041,0.000:
0000
0000
0000
0000
,
0000
0000
0000
0000
,
0000
0000
0000
0000
,
0000
0000
0000
0000
,
0000
0000
0000
0000
,
0000
0000
0000
0000
,
1000
0000
0010
0000
0100
0010
0000
0100
,
0001
0000
1000
0000
0100
1000
0100
0000
,
1000
0000
0100
0000
0010
0001
0010
0000
,
0100
1000
0100
1100
,
0010
0001
0010
0100
1000
0100
0010
0000
,
0001
0100
0001
1000
,
0001
0100
0010
0000
1000
0001
0100
0000
,
0010
0100
0010
0100
0001
1000
0100
0000
,
0010
0100
0010
1000
,
0001
0100
0001
1000
,
0001
0100
0010
0000
1000
0001
0100
0000
,
0010
1000
0010
0100
0010
0100
0001
0100
,
0010
1000
0010
0100
,
1001
0010
0100
0010
,
0110
0001
0010
0100
,
1100
0010
0011
0100
,
1100
0000
0010
0000
0001
0000
1000
0010
,
0100
0000
0010
0000
1000
0000
0001
0100
,
0010
0000
1000
0001
1000
0000
0001
0010
,
0001
0000
0010
0100
1000
0000
0100
0000
,
0010
0001
0010
0100
1000
0100
0010
0100
,
0010
0001
0011
0100
1000
0001
1000
0100
,
0010
0100
0010
0001
0010
0100
1000
0100
,
0010
0001
1000
0010
0100
0001
0001
1000
,
0010
0100
0010
1000
,
0010
0000
0100
0000
0001
1000
0001
0000
,
0100
0001
1000
0001
,
0100
0000
0001
0000
1000
0010
0100
0000
,
0010
1000
0001
1000
,
0010
0100
0010
0000
1000
0001
1000
0000
,
0001
0100
0001
1000
,
0001
0100
0001
0000
1000
0100
1000
0100
,
0000
0010
0001
0010
0000
0100
1100
0000
,
0010
0001
0010
0000
0100
1000
0100
0000
,
0010
0001
0010
0000
0100
1000
0100
0000
,
0010
0001
0100
0000
0001
1000
0010
0000
,
0200
0010
0010
0010
,
0010
0010
0010
0310
,
0100
0001
0010
0100
,
1000
0100
1000
0100
1000
0100
1000
0000
,
0001
0000
0010
0000
0100
0000
1000
0010
,
0100
0001
1000
0100
,
1100
0010
0001
0010
,
0100
0000
1000
0001
0100
0000
0010
0000
,
0110
1000
0100
1000
,
0001
0010
0100
1000
,
0101
0010
1000
0001
,
1100
0010
0011
0110
,
1000
0100
0010
0100
,
1000
0100
0011
0110
,
1000
0001
0100
0010
,
1000
0001
1000
0001
1000
0000
0110
0000
,
0002
0000
0000
0000
,
0000
0000
0000
0000
0000
0000
0000
0003
,
1000
0100
0010
0001
,
1000
0010
0100
0010
0100
0000
0001
0000
,
0100
0010
1000
0010
,
0100
0000
0001
0000
1000
0001
1000
0000
,
0010
0100
0010
1000
,
0001
0000
0100
0000
0001
1000
0100
0000
,
1000
0001
0100
0010
,
1000
0000
0010
0000
0100
0001
1000
0000
,
1000
0001
1000
0000
0100
0000
0010
0000
,
0001
0010
0100
1000
,
0010
0100
0010
0000
,
0100
0000
0000
0010
0100
0000
0000
0000
,
0001
0000
1000
0000
,
0020
0000
0130
0000
,
0010
1000
0001
0100
,
0010
1000
0001
0100
,
0010
0100
0010
1000
,
0001
0100
0001
1000
,
0100
0010
0001
0100
,
0010
1000
0001
1000
,
0010
0100
0001
1000
,
0001
1000
0001
0100
,
0001
0000
1000
0000
0010
0100
0000
0000
,
0010
0001
1000
0000
,
0001
0010
0100
1000
,
0001
0000
0100
0000
0010
1000
0010
0000
,
1000
0001
0100
0000
0010
0000
1000
0000
,
0100
0010
0011
0110
,
1000
0100
1000
0000
0100
0000
0010
0001
,
0010
0100
0010
0100
0000
1000
0100
0000
,
1000
0100
0010
0001
,
0010
0100
1000
0100
0000
0010
0001
0000
,
0010
0000
0110
0110
0000
0000
1000
0000
,
0010
0000
0100
0100
0000
0001
0000
0000
,
1000
0000
0010
0010
0000
0100
0000
0000
,
0001
0000
1000
0100
0000
0010
0010
0000
,
0001
0010
0100
1000
,
0001
0100
0000
0001
0001
1000
0100
0000
,
0100
1000
1000
0010
,
0100
0001
1000
0010
0100
0001
0100
0000
,
2002
0000
0000
0000
,
0000
0000
0000
0000
0000
3003
0000
0000
;

//---------------dance-single - ----------------
#NOTES:
     dance-single:
     :
     Easy:
     4:
     0.407,0.630,0.075,0.033,0.000:
0000
0000
0000
0000
,
0000
0000
0000
0000
,
0000
0000
0000
0000
,
0000
0000
0000
0000
,
0000
0000
0000
0000
,
0000
0000
0000
0000
,
1000
0100
0010
0100
,
0010
1000
0010
0100
,
0001
0010
0100
1000
,
0010
0100
0001
0010
,
0100
1000
0100
0010
,
0100
0010
1000
0010
,
0100
0001
0100
0001
,
1000
0010
1000
1000
,
0010
0100
0010
0100
,
0001
1000
0010
0100
,
0010
1000
0010
0100
,
0001
1000
0010
1010
,
0001
0010
0100
1000
,
0010
0100
0010
0100
,
0001
0100
0010
1000
,
0010
0100
0001
1000
,
1000
0010
0100
0010
,
0010
1000
0001
0100
,
0100
0010
1000
0010
,
0100
0001
1000
0010
,
1000
0100
0010
0000
0100
0010
0100
0000
,
0001
0010
0100
0000
0010
0100
0010
0000
,
1000
0100
0010
0000
0100
0010
0100
0000
,
0001
1000
0001
1000
0001
1000
0001
1000
,
0010
0010
0100
0100
,
0001
0001
1000
1000
,
0010
0100
0010
0100
,
0100
0001
0010
0100
,
1000
1000
1000
1000
,
0010
0010
0010
0010
,
0100
0100
0100
0100
,
0001
0001
0001
0001
,
1000
0010
0100
0001
,
1000
0010
0100
0001
,
1000
0010
0100
0001
,
1000
0010
0100
0001
,
1000
0010
0010
0010
,
0010
0010
0010
0010
,
0100
0100
0100
0100
,
0100
0100
0100
0100
,
0001
0000
1000
0000
,
0010
0100
0001
1000
,
1010
0000
0001
0100
,
0010
0000
1000
0010
,
0100
0001
1000
0001
,
1001
0000
0100
0010
,
1000
0010
0100
0001
,
0010
0000
0100
1000
,
0010
0000
1000
0000
,
0010
0000
0100
0000
,
0001
0001
0001
0001
,
0001
0001
0001
0000
,
2020
0000
0000
0000
,
0000
0000
0000
3030
,
0001
0100
0010
1000
,
0001
0100
0100
0100
,
0010
1000
0010
0100
,
0001
1000
0010
0010
,
0010
1000
0001
0100
,
0010
1000
0001
0001
,
0001
1000
0010
0100
,
0001
1000
0010
0010
,
1000
0000
0010
0000
,
0100
0000
0001
0000
,
1000
0000
0010
0000
,
1000
0010
1000
0000
,
0001
0000
0010
0000
,
0100
0000
0010
0000
,
1000
0000
0010
0000
,
1000
0000
0001
0100
,
0001
0000
1000
0000
,
0010
0000
0100
0000
,
0010
0000
1000
0000
,
0001
0000
0001
0000
,
0100
0000
0001
0000
,
1000
0000
0010
0000
,
0100
0000
0010
0000
,
1000
0000
0001
0000
,
1000
0010
0100
0001
,
1000
1000
0010
0100
,
0001
1000
0010
0100
,
0010
1000
0001
1000
,
0010
0100
0001
1000
,
0010
0010
0100
0001
,
1000
1000
0010
0100
,
0001
1000
0010
0100
,
0001
0000
0000
1001
0000
0000
0000
0000
,
1000
0000
0000
0110
0000
0000
0000
0000
,
0001
0000
0000
0110
0000
0000
0000
0000
,
1000
0000
0000
1001
0000
0000
0000
0000
,
0100
0010
1000
0010
,
0100
0001
1000
0010
,
0100
0001
1000
0001
,
1000
0010
0100
0010
,
2002
0000
0000
0000
,
0000
0000
0000
3003
0000
0000
0000
0000
;

//---------------dance-single - Copied from----------------
#NOTES:
     dance-single:
     Copied from:
     Beginner:
     2:
     0.111,0.290,0.017,0.017,0.000: // measure 1
0000
0000
0000
0000
,  // measure 2
0000
0000
0000
0000
,  // measure 3
0000
0000
0000
0000
,  // measure 4
0000
0000
0000
0000
,  // measure 5
0000
0000
0000
0000
,  // measure 6
0000
0000
0000
0000
,  // measure 7
0010
0000
0000
0000
,  // measure 8
0100
0000
0000
0000
,  // measure 9
0001
0000
0000
0000
,  // measure 10
1000
0000
0000
0000
,  // measure 11
0010
0000
0000
0000
,  // measure 12
0100
0000
0000
0000
,  // measure 13
0001
0000
0000
0000
,  // measure 14
1000
0000
0000
0000
,  // measure 15
0010
0000
0000
0000
,  // measure 16
0100
0000
0000
0000
,  // measure 17
0001
0000
0000
0000
,  // measure 18
1000
0000
0000
0000
,  // measure 19
0010
0000
0000
0000
,  // measure 20
0100
0000
0000
0000
,  // measure 21
0010
0000
0000
0000
,  // measure 22
1000
0000
0000
0000
,  // measure 23
0001
0000
0000
0000
,  // measure 24
1000
0000
0000
0000
,  // measure 25
0001
0000
0000
0000
,  // measure 26
0100
0000
0000
0000
,  // measure 27
0010
0100
0000
0000
,  // measure 28
0001
1000
0000
0000
,  // measure 29
0010
0100
0000
0000
,  // measure 30
0001
1000
0010
0100
,  // measure 31
0001
0000
0000
0000
,  // measure 32
1000
0000
0000
0000
,  // measure 33
0001
0000
0000
0000
,  // measure 34
1000
0000
0000
0000
,  // measure 35
0010
0000
0000
0000
,  // measure 36
0100
0000
0000
0000
,  // measure 37
0010
0000
0000
0000
,  // measure 38
0100
0000
0000
0000
,  // measure 39
0001
0000
0000
0000
,  // measure 40
0001
0000
0000
0000
,  // measure 41
0001
0000
0000
0000
,  // measure 42
0001
0000
0000
0000
,  // measure 43
0001
0000
0000
0000
,  // measure 44
0001
0000
0000
0000
,  // measure 45
0001
0000
0000
0000
,  // measure 46
0001
0000
0000
0000
,  // measure 47
0001
0000
0000
0000
,  // measure 48
1000
0000
0000
0000
,  // measure 49
1000
0000
0000
0000
,  // measure 50
0010
0000
0000
0000
,  // measure 51
1000
0000
0000
0000
,  // measure 52
1000
0000
0000
0000
,  // measure 53
0100
0000
0000
0000
,  // measure 54
1000
0000
0000
0000
,  // measure 55
1000
0000
0000
0000
,  // measure 56
0000
0000
0000
0000
,  // measure 57
0110
0000
0000
0000
,  // measure 58
0000
0000
0000
0000
,  // measure 59
2002
0000
0000
0000
,  // measure 60
0000
0000
0000
3003
,  // measure 61
0010
0000
0000
0000
,  // measure 62
0100
0000
0000
0000
,  // measure 63
0010
0000
0000
0000
,  // measure 64
0100
0000
0000
0000
,  // measure 65
0001
0000
0000
0000
,  // measure 66
1000
0000
0000
0000
,  // measure 67
0001
0000
0000
0000
,  // measure 68
1000
0000
0000
0000
,  // measure 69
0010
0000
0000
0000
,  // measure 70
0000
0000
0000
0000
,  // measure 71
1000
0000
0000
0000
,  // measure 72
0000
0000
0000
0000
,  // measure 73
0010
0000
0000
0000
,  // measure 74
0000
0000
0000
0000
,  // measure 75
1000
0000
0000
0000
,  // measure 76
0000
0000
0000
0000
,  // measure 77
0010
0000
0000
0000
,  // measure 78
0000
0000
0000
0000
,  // measure 79
1000
0000
0000
0000
,  // measure 80
0000
0000
0000
0000
,  // measure 81
0010
0000
0000
0000
,  // measure 82
0000
0000
0000
0000
,  // measure 83
1000
0000
0000
0000
,  // measure 84
0000
0000
0000
0000
,  // measure 85
0001
0000
0000
0000
,  // measure 86
0100
0000
0000
0000
,  // measure 87
0100
0000
0000
0000
,  // measure 88
0010
0000
0000
0000
,  // measure 89
1000
0000
0000
0000
,  // measure 90
1000
0000
0000
0000
,  // measure 91
0010
0000
0000
0000
,  // measure 92
0100
0000
0000
0000
,  // measure 93
0001
0000
0000
0000
,  // measure 94
1000
0000
0000
0000
,  // measure 95
0010
0000
0000
0000
,  // measure 96
0100
0000
0000
0000
,  // measure 97
0010
0000
0000
0000
,  // measure 98
1000
0000
0000
0000
,  // measure 99
0010
0000
0000
0000
,  // measure 100
0100
0000
0000
0000
,  // measure 101
0001
0000
0000
0000
;
