#TITLE:Devastating Blaster;
#SUBTITLE:;
#ARTIST:INNOCENT NOIZE;
#TITLETRANSLIT:;
#SUBTITLETRANSLIT:;
#ARTISTTRANSLIT:;
#CREDIT:SupremeX;
#BANNER:Devastating Blaster-bn.png;
#BACKGROUND:Devastating Blaster-bg.png;
#LYRICSPATH:;
#CDTITLE:;
#MUSIC:Devastating Blaster.ogg;
#OFFSET:-2.300;
#SAMPLESTART:50.300;
#SAMPLELENGTH:12.000;
#SELECTABLE:YES;
#BPMS:0.000=160.010,128.000=320.020,250.000=80.010,282.000=320.020;
#STOPS:184.000=0.085
,184.500=0.095
,185.000=0.085
,185.500=0.095
,214.000=0.195
,215.000=0.195
,216.000=0.195
,217.000=0.195
,409.500=0.280
;
#BGCHANGES:0.000=Devastating Blaster.avi=1.000=1=1=0,
99999=-nosongbg-=1.000=0=0=0 // don't automatically add -songbackground-
;

//---------------dance-single - ----------------
#NOTES:
     dance-single:
     :
     Challenge:
     14:
     1.000,1.000,0.664,0.411,0.660:
0000
0000
0000
0000
,
0000
0000
0000
0000
,
0000
0000
0000
0000
,
0000
0000
0000
0000
,
1000
0010
0100
0000
0100
0001
0010
0000
0010
0000
0100
1000
0100
0000
1100
0000
,
0010
0000
0001
0100
0010
0000
0010
0100
0001
0000
1000
0100
1000
0000
1100
0000
,
0010
0001
0010
0000
0010
0001
0010
0000
0100
0000
1000
0100
0010
0000
0011
0000
,
0000
0000
2000
0000
3200
0000
1300
0000
0100
0000
1000
0010
0100
0000
0110
0000
,
0010
0100
0010
0000
0100
0000
0001
0100
0001
0000
1000
0000
1100
0000
0110
0000
,
0010
0000
0001
0010
0001
0000
0010
0001
0010
0000
0100
0000
1100
0000
0110
0000
,
0001
0010
0100
0000
1000
0100
0010
0000
0011
0000
0001
0000
0110
0000
1100
0000
,
1100
0000
0010
0001
0100
0000
1000
0010
0100
0000
0110
0000
0001
0010
0100
0000
,
2200
0000
3300
0000
0010
0001
0010
0000
0110
0000
1000
0010
0100
0001
1000
0010
,
0100
0001
1010
0100
0101
1000
1001
0010
,
0100
0000
0110
0000
0010
0000
1000
0010
0100
0000
0100
0000
0010
0000
1000
0001
,
0100
0000
0100
0000
1010
0000
0100
0001
1000
0100
0010
0001
1000
0100
0010
0001
,
1000
0000
0100
0000
1000
0000
0100
0000
0021
0000
0001
0000
0031
0000
0001
0010
,
0100
0000
1000
0100
0010
0000
0001
0000
0120
0000
0100
0000
0130
0000
0010
0000
,
0100
0000
0010
0000
1000
0010
0100
0000
0120
0000
0100
0000
0130
0000
0001
0010
,
0100
1000
0100
0000
1000
0100
0010
0000
0021
0000
0001
0000
0031
0000
0100
0000
,
1000
0100
0010
0001
1002
0100
0103
0010
,
1000
0010
1000
0000
0010
0000
0100
0001
0201
0000
0010
0000
0310
1000
0100
0000
,
0100
0001
1000
0000
0001
0000
1000
0000
1200
0000
1000
0000
1300
0000
0100
0010
,
0100
0000
0010
0000
0001
0010
0001
0000
2100
0000
0100
0000
3100
0000
0010
0001
,
0010
0000
0100
1000
0100
0000
1000
0000
0210
0000
0000
0000
0310
0000
0010
0000
,
0001
0010
0100
1000
0120
0000
0130
0100
,
0010
0000
0000
0000
0010
0000
0000
0000
1000
0000
0010
0000
0100
0000
0001
0000
1000
0010
0000
0100
0000
0010
0000
0000
0100
0000
0000
0000
0001
0000
0000
0000
,
1000
0010
1100
0010
0110
0001
1000
0100
,
1000
0100
0010
0001
0100
0010
1000
0000
2100
0000
0001
0000
3001
0100
0010
0000
,
1000
0010
0100
0001
0100
0010
1000
0000
0220
0000
0330
0000
0001
0010
0100
1000
,
0010
0100
0001
1000
0010
0100
0010
0000
2002
0000
3003
0000
0010
0100
0001
1000
,
0001
0100
0010
1000
0001
0000
0001
0000
1001
0000
1000
0000
1010
0000
0010
0000
,
1010
0100
1000
0100
0010
0100
0010
0001
,
0101
0010
1000
0100
1000
0100
0010
0100
,
0110
0010
0001
0010
0001
0010
0100
1000
,
0110
1000
0010
0100
0010
0100
0001
1000
,
0110
0100
0001
1000
0010
0100
0001
1000
,
1001
0010
0100
0010
0001
0010
0100
1000
,
0001
0100
0001
1000
0010
0100
0001
1000
,
0010
0100
0001
1000
0010
1000
0100
1000
,
0100
0010
0100
0010
0100
0001
1000
0001
,
0100
0010
0100
0010
1000
0001
0010
0100
,
1001
0010
0100
0010
0100
0001
1000
0100
,
0110
0001
1000
0100
1000
0100
0010
0001
,
0101
0010
1000
0001
0100
0010
1000
0001
,
0010
0100
1000
0100
0010
0001
0010
0100
,
1100
0110
0110
1001
1000
0100
1000
0000
,
0010
1000
0010
0000
0100
0001
1000
0010
,
0100
0001
1000
0010
1001
0001
0010
0100
,
0010
0001
0010
0100
1010
0100
0010
0100
,
1000
0100
0010
0100
1000
0001
0010
0100
,
1000
0001
0100
0010
1001
0100
0010
0001
,
1000
0100
1000
0010
0101
0010
1000
0001
,
1000
0100
0010
0001
2000
3010
0020
0130
,
0200
0301
0002
1003
1000
0100
0010
0001
,
1000
0010
0100
0001
1001
0010
0100
0001
,
0100
0010
1000
0001
0101
0010
1000
0001
,
0100
0010
1000
0001
0110
1000
0001
0020
,
0000
0130
0001
0100
0010
1000
0010
1000
,
0100
0010
1001
1000
0100
0010
0100
1000
,
0100
0010
0100
0001
1010
0001
0100
0010
,
0100
0010
0001
0010
0100
1000
0100
0010
,
0100
0000
0000
0000
1000
0000
0000
0000
0100
0000
0000
0000
0010
0000
0000
0000
0001
0100
0010
1000
0001
0100
1000
0000
1200
0000
0000
0000
0310
0000
0000
0000
,
0001
1000
0010
0100
0001
1000
0010
0000
0120
0000
0000
0000
1030
0000
0000
0000
0100
0001
1000
0100
0010
0001
1000
0000
0120
0000
0000
0000
0130
0000
0000
0000
,
0001
0010
0100
1000
0010
0100
0001
0000
2001
0000
0000
0000
3100
0000
0000
0000
0010
0001
0010
0100
1000
0100
0010
0000
0012
0000
0000
0000
1003
0000
0000
0000
,
1000
0100
0010
0001
0100
0010
1000
0000
0210
0000
0000
0000
0301
0000
0000
0000
0001
0010
0100
1000
0010
1000
0001
0000
0210
0000
0000
0000
2300
0000
0000
0000
,
3100
0010
0001
1000
0100
1000
0100
0000
0120
0000
0000
0000
0032
0000
0000
0000
0013
0001
0010
0100
1000
0100
1000
0000
0110
0000
0001
0010
0100
1000
0100
0010
,
0001
0010
0100
1000
0100
0010
0001
0000
1001
0000
1000
0100
0010
0001
1000
0010
0100
0001
1000
0100
0010
0001
0100
0000
0110
0000
0010
0100
0001
0000
0100
0010
,
1000
0001
1000
0001
0100
0010
0100
0010
1001
0000
0110
0001
0010
0100
1000
0010
0100
0010
1000
0001
1000
0010
0100
0001
0101
0000
1010
0000
0100
0010
0001
0100
,
1000
0010
0001
0010
0100
1000
0010
0100
0101
0000
1010
0000
0100
0010
0001
0010
0100
1000
0100
0010
0001
0010
0100
0000
1100
0000
0110
0000
0001
0000
0010
0000
,
0001
0010
0000
0100
1000
0010
0100
0001
1000
0010
0100
0001
1000
0010
0100
0010
1000
0000
0000
0000
0001
0000
0000
0000
0010
0000
0000
0000
0100
0000
0000
0000
,
1000
0010
0100
0001
1000
0010
0100
0001
,
0010
0100
1000
0100
0010
0001
1000
0010
,
0100
0001
0100
0010
1000
0010
0100
0001
,
1000
0001
0100
0010
1010
0001
0100
0001
,
1000
0001
0100
0010
1000
0100
0010
0001
,
1000
0010
0100
0001
1001
0010
0100
0010
,
0100
0001
1000
0001
0100
0010
1000
0001
,
1000
0010
0100
0010
1001
0100
0010
0001
,
1000
0010
0100
0001
1000
0010
0100
0001
,
1000
0100
1000
0100
0110
0010
0100
0001
,
1000
0001
0010
0100
1000
0010
0100
0001
,
1000
0010
0100
0010
1001
0000
0100
0010
,
0100
0010
1000
0001
0100
0001
1000
0010
,
0100
0001
0010
0100
1000
0001
0100
0010
,
1000
0010
0100
0001
1000
0010
0100
0001
,
1000
0010
0100
0010
0101
1000
0100
0010
,
0001
0010
0100
1000
0220
0000
0330
0000
,
1000
0100
0010
0001
0100
0010
0100
0001
,
0010
0100
0010
0100
2200
0000
0000
0300
,
3200
0000
0000
0300
1000
0100
0010
0100
,
1000
0100
0010
0100
2002
0000
0000
0003
,
3002
0000
0000
0003
0010
0001
0010
0100
,
1000
0100
0010
0001
0022
0000
0000
0003
,
0032
0000
0000
0003
0010
0100
1000
0100
,
0010
0001
0010
0100
0220
0000
0000
0030
,
0320
0000
0130
0001
0100
0010
1000
0010
,
1000
0100
0010
0001
0022
0000
0000
0003
,
0032
0000
0013
0100
0010
0100
1000
0001
,
0100
0001
1000
0010
0220
0000
0000
0030
,
0310
0000
1000
0100
0010
0001
1000
0010
,
0100
0001
0100
0010
1000
0001
0100
0001
,
1000
0100
0010
0002
1003
0010
0100
0001
,
1000
0100
0010
0001
0010
0100
1000
0100
,
0010
0001
1000
0010
1000
0001
0100
0001
,
1000
0100
1000
0100
0010
0001
1000
0001
,
0010
0100
1000
0100
0000
0010
0010
0010
,
0001
0001
0001
0100
0100
0100
0010
0010
,
0010
1000
1000
1000
0100
0100
0100
0010
,
0010
0010
0001
0001
0001
0001
0001
0000
,
1000
0100
0010
0001
0010
0100
1000
0100
,
0010
0001
1000
0010
0100
0001
1000
0010
,
0100
0001
1000
0010
0100
0010
1000
0001
,
0010
0001
0010
0100
1000
0001
1000
0100
,
0010
0001
0010
0100
1000
0100
0100
0100
,
1000
1000
1000
0001
0001
0001
0100
0100
,
0100
0020
0000
0030
0000
1001
1000
1000
,
1000
1000
0010
0010
0010
0010
0100
0100
,
0100
0100
0001
0001
0001
0001
2000
0000
,
0002
0000
0000
0000
,
0000
0000
0000
0000
,
0000
0000
0000
0000
,
3003
0000
0000
0000
;

//---------------dance-single - ----------------
#NOTES:
     dance-single:
     :
     Hard:
     11:
     1.000,1.000,0.404,0.346,0.418: // measure 1
0000
0000
0000
0000
,  // measure 2
0000
0000
0000
0000
,  // measure 3
0000
0000
0000
0000
,  // measure 4
0000
0000
0000
0000
,  // measure 5
1000
0000
0010
0000
0100
0000
0010
0000
1000
0000
0001
0100
0001
0000
0101
0000
,  // measure 6
0010
0000
1000
0000
0010
0000
0100
0000
0001
0000
1000
0100
1000
0000
1100
0000
,  // measure 7
0010
0000
0001
0000
0010
0000
0100
0000
1000
0000
0001
0100
0001
0000
0101
0000
,  // measure 8
0000
0000
1000
0000
0010
0000
0100
0000
0010
0000
1000
0010
0100
0000
0110
0000
,  // measure 9
0001
0010
0001
0010
0100
1000
0010
0110
,  // measure 10
0100
0001
0010
0100
0010
0001
1001
1000
,  // measure 11
0100
0010
0100
1000
1100
0100
0110
0011
,  // measure 12
0011
0000
0100
1000
0100
0000
1000
0100
1000
0000
0110
0000
0001
0010
0001
0000
,  // measure 13
0220
0000
0330
0000
1000
0100
1000
0000
0110
0000
0001
0100
0010
1000
0001
0100
,  // measure 14
0010
1000
1100
0100
0110
0001
1000
0100
,  // measure 15
0010
0001
0010
0100
0010
1000
0010
0100
,  // measure 16
0010
0000
1000
0000
0100
0000
0010
0000
0001
0000
0010
0001
0010
0001
0010
0001
,  // measure 17
0010
0100
1000
0100
0020
0000
0130
0100
,  // measure 18
0001
1000
0100
1000
0210
0000
0301
0010
,  // measure 19
0100
1000
0001
0100
0020
0000
1030
0001
,  // measure 20
0100
0010
1000
0001
0020
0000
0130
1000
,  // measure 21
0100
0010
0001
0010
1200
0000
1300
0100
,  // measure 22
1000
0100
0010
0001
0012
0000
0013
0001
,  // measure 23
0010
0100
0010
0001
0210
0000
0310
0100
,  // measure 24
0010
1000
0001
1000
0210
0000
0310
0100
,  // measure 25
0001
0010
0100
1000
2100
0000
3100
0100
,  // measure 26
1000
0010
1000
0010
0210
0000
0310
0100
,  // measure 27
0001
0000
0000
0000
0001
0000
0000
0000
1000
0000
0100
0000
1000
0000
0100
0000
1000
0010
0000
0100
0000
0010
0000
0000
0100
0000
0000
0000
0001
0000
0000
0000
,  // measure 28
1000
0010
0100
0010
0110
0001
1000
0100
,  // measure 29
1000
0100
0010
0001
0100
0010
1000
0000
2100
0000
0000
0000
3001
0000
0000
0000
,  // measure 30
1000
0010
0100
0001
0100
0010
1000
0000
2020
0000
3030
0000
0100
0001
1000
0010
,  // measure 31
1000
0100
0010
0001
0010
0100
1000
0000
0220
0000
0330
0000
0001
0100
0010
1000
,  // measure 32
0010
0100
0001
1000
0020
0000
0000
0000
2030
0000
0000
0000
3002
0000
0000
0000
,  // measure 33
1003
0100
1000
0100
0010
0100
0010
0001
,  // measure 34
0010
0001
1000
0100
1000
0100
0010
0100
,  // measure 35
0010
0100
0001
0010
0001
0010
0100
1000
,  // measure 36
0100
1000
0010
0100
0010
0100
0001
1000
,  // measure 37
0010
0100
0001
1000
0010
0100
0001
1000
,  // measure 38
0010
1000
0100
0010
0001
1000
0100
1000
,  // measure 39
0001
0100
0001
1000
0010
0100
0001
1000
,  // measure 40
0010
0100
0001
1000
0010
1000
0100
1000
,  // measure 41
0100
0010
0100
0010
0100
0001
1000
0001
,  // measure 42
0100
0010
0100
0010
1000
0001
0010
0100
,  // measure 43
1000
0010
0100
0010
0100
0001
1000
0100
,  // measure 44
0010
0001
1000
0100
1000
0100
0010
0001
,  // measure 45
0010
0001
1000
0010
1000
0010
1000
0001
,  // measure 46
0100
0001
0100
0001
1000
0100
0010
0001
,  // measure 47
1000
0010
0100
0001
1000
0100
1000
0000
,  // measure 48
0010
1000
0010
0000
0100
0001
1000
0010
,  // measure 49
0100
0001
1000
0010
1000
0001
0010
0100
,  // measure 50
0010
0001
0010
0100
1000
0100
0010
0100
,  // measure 51
1000
0100
0010
0100
1000
0001
0010
0100
,  // measure 52
1000
0001
0100
0010
1000
0100
0010
0001
,  // measure 53
1000
0100
1000
0001
0100
0001
0010
0100
,  // measure 54
1000
0100
0010
0001
2000
0000
3200
0000
,  // measure 55
0320
0000
0032
0000
1003
0100
0010
0001
,  // measure 56
1000
0100
1000
0100
1000
0010
0100
0010
,  // measure 57
0100
0010
1000
0001
1000
0001
1000
0010
,  // measure 58
0100
0010
1000
0001
0100
0001
1000
0020
,  // measure 59
0000
0130
0001
0100
0010
1000
0010
1000
,  // measure 60
0100
0010
0001
1000
0100
0010
0100
1000
,  // measure 61
0100
0010
0100
0001
1000
0010
0100
0001
,  // measure 62
0010
0100
1000
0010
0100
0001
1000
0010
,  // measure 63
0100
0000
0000
0000
0001
0000
0000
0000
1000
0000
0000
0000
0001
0000
0000
0000
1000
0100
1000
0100
1000
0100
1000
0000
0110
0000
0000
0000
0101
0000
0000
0000
,  // measure 64
0010
1000
0010
1000
0010
1000
0010
0000
1010
0000
0000
0000
0101
0000
0000
0000
0100
0010
0100
0010
0100
0010
0100
0000
0110
0000
0000
0000
1010
0000
0000
0000
,  // measure 65
0001
0100
0001
0100
0001
0100
0001
0000
1010
0000
0000
0000
0101
0000
0000
0000
0010
0100
0010
0100
0010
0100
0010
0000
0110
0000
0000
0000
1001
0000
0000
0000
,  // measure 66
1000
0100
1000
0100
1000
0100
1000
0000
1100
0000
0000
0000
0011
0000
0000
0000
0001
0010
0001
0010
0001
0010
0001
0000
0110
0000
0000
0000
1100
0000
0000
0000
,  // measure 67
0100
1000
0100
1000
0100
1000
0100
0000
0110
0000
0000
0000
0011
0000
0000
0000
1000
0010
1000
0010
1000
0010
1000
0000
1010
0000
0001
0000
0010
0000
0100
0000
,  // measure 68
0010
0001
0010
0100
1100
1000
0100
1000
0100
0010
0001
0100
0110
0010
1000
0100
,  // measure 69
0010
0001
1000
0100
1100
0110
0001
0010
0100
1000
0001
0100
0101
1010
0100
0001
,  // measure 70
1000
0001
0100
0010
0101
1010
0100
0010
0100
0001
1000
0100
1100
0110
0001
0010
,  // measure 71
0001
0010
0000
0100
1000
0010
0100
0010
0100
0010
0100
0010
0100
0010
0100
0010
1000
0000
0000
0000
0001
0000
0000
0000
0010
0000
0000
0000
0100
0000
0000
0000
,  // measure 72
0010
0100
1000
0100
0010
0001
0100
0010
,  // measure 73
1000
0010
1000
0010
0100
0010
1000
0100
,  // measure 74
0010
0001
0100
0010
1000
0010
1000
0001
,  // measure 75
0100
0001
0100
0010
1000
0010
1000
0001
,  // measure 76
1000
0001
1000
0010
0100
0010
0100
0001
,  // measure 77
0100
0001
0100
0001
1000
0010
1000
0010
,  // measure 78
1000
0010
0100
0001
1000
0010
0100
0001
,  // measure 79
1000
0010
0100
0010
1000
0100
0010
0001
,  // measure 80
1000
0010
0100
0001
1000
0010
0100
0001
,  // measure 81
1000
0100
1000
0100
0010
0100
0010
0001
,  // measure 82
0010
0001
0010
0100
1000
0010
0100
0001
,  // measure 83
1000
0010
0100
0000
1001
0000
0100
0010
,  // measure 84
0100
0010
1000
0001
1000
0001
1000
0010
,  // measure 85
0100
0001
0010
0100
1000
0001
0100
0010
,  // measure 86
1000
0010
0100
0001
1000
0010
0100
0001
,  // measure 87
1000
0010
0100
0000
0001
1000
0001
1000
,  // measure 88
0010
0100
0010
0100
0110
0000
0000
0000
,  // measure 89
1000
0001
0100
0001
1000
0100
0010
0001
,  // measure 90
0100
0001
0010
0100
2000
0000
0000
0000
,  // measure 91
3100
0000
0000
0000
1000
0100
0010
0100
,  // measure 92
1000
0100
0010
0100
2000
0000
0000
0000
,  // measure 93
3100
0000
0000
0000
0010
0001
0010
0100
,  // measure 94
1000
0100
0010
0001
0020
0000
0000
0000
,  // measure 95
0031
0000
0000
0000
0100
1000
0100
0010
,  // measure 96
0001
1000
0100
1000
0200
0000
0000
0000
,  // measure 97
1300
0000
0100
0010
0001
1000
0010
0100
,  // measure 98
0001
1000
0010
0100
0002
0000
0000
0000
,  // measure 99
1003
0000
0100
0010
0100
0010
1000
0001
,  // measure 100
0100
0001
1000
0000
0200
0000
0000
0000
,  // measure 101
0310
0000
0100
0010
0100
0001
1000
0010
,  // measure 102
0100
0001
0100
0010
1000
0001
0100
0001
,  // measure 103
1000
0100
0010
0001
1000
0010
0100
0001
,  // measure 104
1000
0100
0010
0001
0010
0100
1000
0100
,  // measure 105
0010
0001
1000
0010
1000
0001
0100
0001
,  // measure 106
1000
0100
1000
0100
0010
0001
1000
0001
,  // measure 107
0010
0100
1000
0100
0000
0020
0000
0000
,  // measure 108
0032
0000
0000
0203
0000
0000
0320
0000
,  // measure 109
0000
2030
0000
0000
3200
0000
0000
0320
,  // measure 110
0000
0032
0000
0003
,  // measure 111
1000
0100
0010
0001
0010
0100
1000
0100
,  // measure 112
0010
0001
1000
0010
0100
0001
1000
0010
,  // measure 113
0100
0001
1000
0100
1000
0100
1000
0001
,  // measure 114
0010
0001
0010
0100
1000
0001
1000
0100
,  // measure 115
0010
0001
0010
0100
1000
0200
0000
0000
,  // measure 116
2300
0000
0000
3002
0000
0000
0203
0000
,  // measure 117
0000
0310
0000
0000
0000
2001
0000
0000
,  // measure 118
0000
3020
0000
0230
,  // measure 119
0000
0302
0000
2003
,  // measure 120
0000
0000
0000
0000
,  // measure 121
0000
0000
0000
0000
,  // measure 122
0000
0000
0000
0000
,  // measure 123
3000
0000
0000
0000
;

//---------------dance-single - ----------------
#NOTES:
     dance-single:
     :
     Medium:
     8:
     0.590,1.000,0.310,0.036,0.000:
0000
0000
0000
0000
,
0000
0000
0000
0000
,
0000
0000
0000
0000
,
0000
0000
0000
0000
,
1000
0001
0100
0010
1000
0001
0100
0100
,
0000
0001
1000
0100
1000
0001
0100
0100
,
0000
0001
0010
0100
1000
0100
1000
1000
,
0000
0100
0010
1000
0010
0100
0001
0001
,
0000
1000
0100
1000
0100
0010
0010
0010
,
0000
0001
0100
0010
1000
0010
0100
0000
,
0000
0001
0100
0010
1000
0001
0100
0010
,
0000
0100
0001
1000
0100
1000
0100
1000
,
0001
0100
0001
0100
0001
1000
0010
0100
,
0000
0001
0010
0100
1000
0001
0100
0010
,
0000
0010
0100
0001
1000
0100
0010
0100
,
0010
0001
1000
0100
1000
0100
0010
0000
,
0001
0000
0010
0001
0010
0000
0100
1000
,
0100
0010
0100
0001
0001
0000
1000
0010
,
0100
0010
1000
0100
0100
0000
1000
0001
,
0010
0100
1000
0010
0100
0000
0100
0010
,
1000
0001
0100
0001
1001
0000
0010
0100
,
0010
1000
0001
1000
1100
0000
0010
0000
,
0001
0000
0010
0100
1000
0000
0100
0000
,
1000
0000
0010
0100
0010
0000
0100
0000
,
0001
0100
0010
1000
1001
0000
0010
0000
,
0100
0000
0010
0100
0110
0000
0001
0000
,
1000
0001
0100
0001
1000
0001
0100
0000
,
0010
1010
0100
0101
,
1000
0100
0010
0001
1000
0000
0010
0000
,
0100
0001
1000
0001
0100
0000
0010
0000
,
1000
0010
1000
0010
0100
0000
0001
0000
,
0010
0100
1000
0010
,
0100
0001
1000
0100
,
1000
0010
0100
0010
,
1000
0100
0010
0001
,
0010
0100
0010
0001
,
0010
0100
1000
0100
,
0010
0100
0010
0001
,
0100
0100
0100
0010
,
0010
0010
0010
1000
,
0100
1000
0100
0010
,
0001
0010
0100
1000
,
0010
0100
0010
1000
,
0001
1000
0010
0100
,
0001
1000
0010
0100
,
0001
1000
0001
0000
,
0010
0100
0001
1000
0000
0000
0000
0010
,
0000
0000
0100
0000
,
0001
0000
1000
0000
0000
0010
0000
0000
,
0100
0000
0001
0000
,
1000
0100
0010
0001
,
1000
0100
1000
0000
,
0000
0001
0000
0000
0000
0100
0000
0000
,
0000
0001
0000
0000
1000
0000
1100
0000
,
0010
0110
0001
0010
,
0100
1000
0100
0010
,
0001
1000
0100
1000
,
0100
0010
0100
0010
,
0001
0010
0001
0010
,
0100
1000
0010
0000
,
0110
0000
0001
0100
,
0010
1000
0001
0100
,
0010
0000
0000
0000
0101
0010
1000
0001
,
0100
0010
1010
0100
0010
0001
0011
0100
,
1000
0100
0110
0001
0010
0001
0011
0100
,
1000
0100
1100
0010
0001
0010
0101
0010
,
1000
0010
1010
0100
0010
0100
0010
1000
,
0010
0100
0001
0100
0110
0001
1001
0100
,
0110
0001
1100
0010
0110
0001
0101
1000
,
1010
0100
0110
0010
0011
0100
1100
0010
,
0001
0010
0100
1000
0001
0000
0010
0000
,
0100
1000
0100
1000
,
0100
0010
0100
0010
,
0001
1000
0010
0100
,
0010
1000
0001
0100
,
0010
0100
0001
0010
,
0100
1000
0001
0100
,
0010
1000
0001
0100
,
0001
1000
0010
0100
,
0010
0100
0001
1000
,
0100
0010
0001
1000
,
0100
1000
0001
0100
,
0001
1000
0100
1000
,
0100
0010
0001
0010
,
0001
1000
0100
0010
,
0100
1000
0100
0010
,
0001
0010
0100
1000
,
0001
0100
0100
0000
,
0101
0000
0010
1000
,
0100
1000
0001
0000
,
1100
0000
0010
0001
,
0010
0100
1000
0000
,
0110
0000
0001
0100
,
0010
1000
0010
0000
,
0101
0000
1000
0100
,
1000
0100
0020
0000
,
0031
0010
0100
1000
,
0100
1000
0200
0000
,
1300
0100
0010
0001
,
0010
0100
1002
0000
,
0103
0010
1000
0010
,
0100
0001
0100
0010
,
1000
0010
1000
0100
,
0010
0001
1000
0010
,
0100
0001
1000
0100
,
1000
0001
0010
0100
,
1000
0100
0010
0001
,
0100
0000
0010
0000
1000
0000
0000
1100
,
0000
0000
0110
0000
0000
0011
0000
0000
,
0110
0000
0000
1100
0000
0000
0001
0000
,
0000
1000
0010
0100
,
0001
1000
0010
0100
,
0001
0010
0100
1000
,
0010
0100
0010
1000
,
0001
0100
0000
0010
,
0000
1000
0010
0000
0101
0000
0000
1010
,
0000
0101
0000
0010
,
0000
0000
1000
0000
0000
1100
0000
0000
,
0000
1001
0000
0000
0000
0000
0022
0000
,
0000
0000
0000
0000
,
0000
0033
0000
0000
;

//---------------dance-single - ----------------
#NOTES:
     dance-single:
     :
     Easy:
     5:
     0.405,0.660,0.152,0.036,0.000:
0000
0000
0000
0000
,
0000
0000
0000
0000
,
0000
0000
0000
0000
,
0000
0000
0000
0000
,
1000
0010
0100
0001
,
0001
1000
0100
0010
,
0001
1000
0100
1000
,
0010
0010
0100
0100
,
0001
0110
1000
0110
,
1000
0001
1001
1001
,
0010
0100
0001
0110
,
1000
1100
0010
0011
,
0100
1000
1001
0010
,
0100
0001
0101
1010
,
0001
0100
1010
0101
,
0010
1000
0100
1000
,
0001
0000
0100
0010
1000
0000
0001
0000
,
0100
0000
0010
1000
0001
0000
0100
0000
,
0001
0010
0100
1000
0010
0000
0100
0000
,
0010
0000
1000
0010
1000
0000
0001
0000
,
0100
0000
0010
1000
0010
0000
0100
0000
,
0001
0001
1000
0010
,
0100
0000
0001
1000
0001
0000
0100
0000
,
0010
0000
1000
0000
0001
0100
0010
0000
,
1000
0010
0100
0001
,
1000
0000
0010
0100
0001
0000
1000
0000
,
0010
0000
0100
0000
0001
0001
0001
0000
,
1000
0000
0010
0000
0100
0010
0100
0000
,
0001
0010
0100
1000
,
0010
0100
0010
0000
1000
0010
1000
0000
,
0001
0100
0110
0010
,
1000
0001
0100
0010
,
1000
0010
1000
0000
,
0001
0100
0001
0000
,
1000
0010
0100
0000
,
0001
0010
0100
0000
,
1000
0010
0100
0000
,
0001
1000
0010
0000
,
0110
0000
0001
0000
,
1100
0000
0110
0000
,
0001
0010
0100
0000
,
1000
0100
0010
0000
,
0001
0100
0010
0000
,
0010
0100
0010
0000
,
1000
0001
1000
0000
,
0010
0100
0010
0000
,
1000
1000
0010
0010
1000
0000
0000
0000
,
0100
0000
0010
0000
,
0100
0010
2000
0000
,
3100
0000
0001
0000
,
1000
0000
0001
0000
,
0100
0000
0010
0000
,
1000
0001
1000
0000
,
1000
0000
0010
0100
,
0010
0100
0001
0000
,
1000
0010
2000
0000
,
3100
0000
0001
0100
,
0001
0000
1000
0010
,
0100
0000
0001
0000
,
1001
0000
0110
0000
,
1001
0000
0100
0010
,
0100
0000
0001
1000
,
0001
0000
0000
0000
1000
0010
0100
0000
,
0001
0100
0010
0000
1000
0001
0100
0000
,
0001
1000
0010
0000
0100
0010
1000
0000
,
0001
0010
0100
0000
1000
1000
0100
0000
,
0010
0010
0001
0000
0010
0100
1000
0000
,
0001
0100
0010
0010
0000
1000
0010
0100
,
0001
1000
0100
0100
0000
0010
0001
1000
,
0000
0001
0100
0010
1000
0001
0100
0010
,
2000
0000
3001
0000
,
0100
0000
0010
0000
,
1000
0000
0001
0000
,
1000
0000
0010
0000
,
1000
0000
0001
0000
,
0100
0000
0001
0000
,
0010
0000
1000
0000
,
0100
0000
0010
0000
,
0001
0000
1000
0100
,
1000
0000
0001
0100
,
0010
0000
0010
1000
,
0010
0000
0100
0001
,
1000
0000
0001
0000
,
1000
0000
0010
0100
,
0010
0000
1000
0000
,
0001
0000
0100
0000
,
0010
0000
1000
0000
,
0001
1000
1000
0000
,
0010
0000
0100
0000
,
0001
0000
1000
0000
0000
0010
0000
0000
,
0100
0000
0001
0000
,
1000
0010
0100
0000
,
0100
0000
0001
0000
,
1000
0100
0010
0000
,
0010
0000
0001
0000
,
1000
0010
1000
0000
,
1000
0000
0001
0000
,
1000
0010
0100
0000
,
0100
0000
0010
0000
,
0001
0000
0010
0000
,
0100
0000
1000
0000
,
0100
0000
0010
0000
,
0001
0000
1000
0000
,
0000
0001
0000
0000
0000
0010
0000
0000
,
0000
0100
0000
0000
0000
1000
0000
0000
,
0000
0100
0000
0000
0000
0010
0000
0000
,
0000
0001
0000
0000
0000
0000
0010
0000
,
0000
0010
0000
0100
,
0000
1000
0000
0100
,
0000
0010
0000
0000
,
0001
0000
0000
0000
0000
0010
0000
0000
,
0000
0100
0000
0000
0000
0010
0000
0000
,
0000
1000
0000
0000
0000
0010
0000
0000
,
0000
0100
0000
0000
0000
0001
0000
0000
,
0000
1000
0000
0000
0000
0010
0000
0000
,
0000
0100
0000
0000
0000
0000
0001
0000
,
0000
1001
0000
0000
0000
0000
1000
0000
,
0000
0010
0000
0000
0000
0000
0100
0000
,
0000
0000
0000
0001
0000
0000
0000
1000
,
0000
0000
0000
0220
0000
0000
0000
0000
,
0000
0000
0000
0000
,
0000
0000
0000
0000
0000
0000
0000
0330
;

//---------------dance-single - Copied from----------------
#NOTES:
     dance-single:
     Copied from:
     Beginner:
     2:
     0.163,0.393,0.065,0.014,0.000:
0000
0000
0000
0000
,
0000
0000
0000
0000
,
0000
0000
0000
0000
,
0000
0000
0000
0000
,
1000
0000
1000
0000
,
0010
0000
0010
0000
,
0100
0000
0100
0000
,
0001
0000
0001
0000
,
1000
0000
0010
1000
,
0000
0001
0100
0001
,
0000
1000
0000
0010
,
0000
0100
0001
0100
,
0000
0010
0000
1000
,
0000
0010
0100
0001
,
0000
1000
0000
0010
,
0000
1000
0001
0100
,
0000
0000
0010
0000
,
1000
0000
1001
0000
,
0010
0000
0100
0000
,
0001
0000
1001
0000
,
0100
0000
0010
0000
,
1000
0000
1010
0000
,
0001
0000
0100
0000
,
0010
0000
1010
0000
,
0001
0000
0100
0000
,
0001
0000
0101
0000
,
1000
0000
0010
0000
,
0000
0101
0000
0000
,
0010
0000
1000
0000
,
0001
0000
0100
0000
,
0010
0000
1000
0000
,
0001
0000
0001
0000
,
0100
0000
0000
0000
,
0100
0000
0000
0000
,
0010
0000
0000
0000
,
1000
0000
0000
0000
,
0001
0000
0000
0000
,
0100
0000
0000
0000
,
1010
0000
0000
0000
,
0101
0000
0000
0000
,
1000
0000
0000
0000
,
0010
0000
0000
0000
,
0100
0000
0000
0000
,
0001
0000
0000
0000
,
1000
0000
0000
0000
,
0010
0000
0000
0000
,
0100
0000
0000
0000
,
0000
0000
0001
0000
,
0000
0000
0100
0000
,
0000
0000
0001
0000
,
0000
0000
1000
0000
,
0000
0000
0110
0000
,
0000
0000
0001
0000
,
0000
0000
1000
0000
,
0010
0000
0100
0000
,
0000
0000
0001
0000
,
0000
0000
1000
0000
,
0000
0000
0010
0000
,
0000
0000
0000
0100
0000
0000
0000
0000
,
0000
0000
0100
0000
,
0000
0000
0001
0000
,
0000
0000
1000
0000
,
0000
0000
0001
1000
,
0010
0100
0001
1000
,
0010
0100
0001
1000
,
0010
0100
0001
1000
,
0010
0100
0001
0010
,
0100
1000
0100
0010
,
0001
1000
0010
0100
,
0001
1000
0100
0010
,
0002
0000
1003
0000
,
0000
0000
0000
0000
,
0000
0000
1000
0000
,
0000
0000
0000
0000
,
0000
0000
0010
0000
,
0000
0000
0000
0000
,
0000
0000
0000
0010
0000
0000
0000
0000
,
0000
0000
0000
0000
,
0000
0000
0000
0100
0000
0000
0000
0000
,
0000
0000
0000
0000
,
0000
0000
0001
0000
,
0000
0000
0000
0000
,
0000
0000
1000
0000
,
0000
0000
0000
0000
,
0000
0000
0010
0000
,
0000
0000
0000
0000
,
0000
0000
0100
0000
,
0000
0000
0000
0000
,
0000
0000
0001
0000
,
0000
0000
0000
0000
,
0000
0000
1000
0000
,
0000
0000
0000
0000
,
0000
0000
0010
0000
,
0000
0000
0000
0000
,
0000
0000
0100
0000
,
0000
0000
0000
0000
,
0000
0000
0001
0000
,
0000
0000
0000
0000
,
0000
0000
0010
0000
,
0000
0000
0000
0000
,
0000
0000
0100
0000
,
0000
0000
0000
0000
,
1000
0000
0000
0000
,
0000
0000
0000
0000
,
0000
0000
0000
0000
,
0000
0000
1000
0000
,
0000
0000
0000
0000
,
0000
0000
0010
0000
,
0000
0000
0000
0000
,
0000
0000
0000
0000
,
0100
0000
0000
0000
,
0000
0000
0000
0000
,
0001
0000
0000
0000
,
0000
0000
0000
0000
,
1000
0000
0000
0000
,
0010
0000
0000
0000
,
0100
0000
0000
0000
,
0000
0000
0000
0000
,
0001
0000
0000
0000
,
2000
0000
0000
0000
,
0000
0000
0000
0000
,
3000
0000
0000
0000
;
