#TITLE:Dark Parashu;
#SUBTITLE:;
#ARTIST:INNOCENT NOIZE;
#TITLETRANSLIT:;
#SUBTITLETRANSLIT:;
#ARTISTTRANSLIT:;
#GENRE:;
#CREDIT:SupremeX;
#BANNER:Dark Parashu-bn.png;
#BACKGROUND:Dark Parashu-bg.png;
#LYRICSPATH:;
#CDTITLE:;
#MUSIC:Dark Parashu.ogg;
#OFFSET:-0.361974;
#SAMPLESTART:82.699997;
#SAMPLELENGTH:12.000000;
#SELECTABLE:YES;
#BPMS:0.000000=175.000000
;
#STOPS:
;
#BGCHANGES:;
#KEYSOUNDS:;
#ATTACKS:;

//---------------dance-single - ----------------
#NOTES:
     dance-single:
     :
     Challenge:
     10:
     0.811485,0.923064,0.309080,0.275666,0.279843,680.000000,643.000000,37.000000,33.000000,0.000000,0.000000,0.811485,0.923064,0.309080,0.275666,0.279843,680.000000,643.000000,37.000000,33.000000,0.000000,0.000000:
0000
0000
0000
0000
,
0000
0000
0000
0000
,
0000
0000
0000
0000
,
0000
0000
0000
0000
,
0100
0010
0100
0010
1000
0001
1000
0001
,
1000
0100
1000
0100
0010
0001
0010
0001
,
1000
1000
1000
0000
1000
0100
1000
0100
,
0010
0001
0010
0001
1000
0100
1000
0001
,
0100
0000
0001
0100
0001
0000
0100
0000
0010
0000
0100
1000
0100
0000
0010
0000
,
0001
0000
0100
0001
0100
0000
0001
0000
1000
0000
0010
1000
0010
0000
0000
0000
,
1000
0000
0001
0100
0010
0000
1000
0000
0001
0000
1000
0010
1000
0000
0001
1000
,
0100
0000
1000
0000
0100
0000
0010
0001
0010
0000
0100
0000
1000
0000
0110
0000
,
0001
0100
0010
1000
0010
0100
0010
0010
,
1000
0100
0010
0001
0010
0100
1000
1000
,
0010
0100
0001
1000
0010
0100
0001
0001
,
1000
0000
0100
0000
1000
0000
0001
0000
1000
0010
1000
0010
0200
0000
0000
0000
,
0302
0000
1003
0100
1000
0010
1000
0010
,
1000
0001
1000
0010
0200
0000
0310
0100
,
0010
0000
0100
0000
0001
0000
1000
0000
0010
0100
0010
0100
0010
0000
0100
0000
,
0001
0000
1000
0000
0001
0000
0010
0000
0100
0000
1000
0100
1000
0100
1000
0000
,
0001
0100
0001
0000
1000
0000
0100
0000
1000
0000
1000
0000
0010
0000
0110
0000
,
0001
0001
1000
0100
0100
0010
0001
0001
,
1000
0000
0001
1000
0100
0000
0100
0000
1000
0000
1000
0000
0001
0000
1001
0000
,
0100
0000
1000
0100
1000
0000
0100
0000
0100
0000
0010
0000
0110
0000
0001
0000
,
0010
0000
0010
0000
0100
0000
1000
0100
1000
0000
0100
0000
1000
0000
1100
0000
,
0010
0001
0010
0100
1000
1000
0001
0101
,
0010
0000
1000
0000
0010
0000
0100
0000
0010
0000
1000
0010
1000
0000
0110
0000
,
0100
0001
0100
0001
1000
1000
0010
0110
,
0001
0000
0010
0000
0100
0000
1000
0001
1000
0000
0001
0000
1000
0000
1100
0000
,
0010
0001
0010
0100
1000
0100
1100
0010
,
0001
0000
0010
0000
1000
0000
0100
0010
0100
0000
0010
0000
0001
0000
1001
0000
,
1000
0100
1000
0100
0100
0010
0001
1001
,
1000
0000
0100
1000
0100
0000
0010
0000
0001
0000
0010
0000
0001
0000
1001
0000
,
0100
0000
0010
0100
0010
0000
0100
0000
0001
0000
1000
0000
0100
0000
1100
0000
,
0010
0000
0001
0000
0010
0000
0100
0000
0001
0000
1000
0010
0100
0000
0101
0000
,
0010
0100
1000
0100
0010
0001
0001
0001
,
1000
0100
1000
0100
0020
0000
0031
0010
,
0001
0010
0100
1000
0200
0000
1300
0100
,
0010
0001
0010
0001
2000
0000
3100
0010
,
0001
0100
0001
1000
1002
0000
0103
0000
,
0010
1000
0001
1000
1200
0000
1300
0100
,
0010
0001
0010
0100
0120
0000
1030
0100
,
1000
0100
0010
0100
2100
0000
3100
1000
,
0100
0010
0001
0010
0011
0000
0100
1000
,
0100
0010
0110
0000
0001
1000
1100
0000
,
0010
0001
0011
0000
0100
1000
1100
0000
,
0010
0001
0011
0000
1000
0100
1100
0000
,
0001
0010
0100
1000
0200
0000
1300
0000
,
0010
0000
0001
0000
0010
0000
0100
0000
1000
0000
0100
0000
0010
0000
0001
0010
,
0002
0023
0230
2300
,
3100
1000
0100
0010
0001
0100
0001
1000
,
0001
0100
0010
1000
0010
0100
0001
0000
,
1000
0000
0010
0000
0100
0000
0001
0000
1000
0010
1000
0000
0100
0000
0100
0000
,
0010
0000
1000
0001
0100
0000
0010
0000
1000
0000
0001
0000
1000
0000
1000
0000
,
0100
0000
0001
0000
1000
0000
0010
0000
0100
0001
0100
0000
0010
0000
0010
0000
,
1000
0000
0100
0010
0001
0000
1000
0000
0100
0000
1000
0000
0010
0000
0010
0000
,
1000
0000
0100
0010
0001
0000
1000
0000
0001
0000
1000
0100
0010
0000
0001
0000
,
0010
0000
0100
1000
0100
0000
0010
0000
0001
0000
0010
0100
1000
0000
0100
0000
,
0010
0001
0010
0001
0010
0000
0100
1000
0100
1000
0100
0010
0001
0010
0001
0000
,
1000
0001
0100
0010
1000
0001
0100
0000
,
0020
0000
0001
0000
0031
0000
0100
0001
,
2000
0000
0010
3020
0000
0000
0230
0000
,
0301
0100
0001
1000
0100
1000
0010
0100
,
0020
0130
1001
1001
,
0120
1000
0100
1030
,
0001
0010
0100
1000
0001
0100
0010
1000
,
1200
0000
0000
0000
1000
0000
0000
0000
0310
0100
0001
0000
1000
0000
0000
0000
,
0102
0000
0000
0000
1000
0000
0000
0000
1003
0010
0100
0000
0001
0000
1000
0000
,
0200
0000
1300
0001
0010
0100
1000
0000
,
0200
2300
3200
0320
,
0031
0100
0001
0000
0100
0000
0010
0000
0100
0000
0001
0000
1001
0000
0100
0000
,
0010
0100
0010
0000
0100
0000
0001
0000
0010
0100
1000
0000
2000
0000
0000
0000
,
3020
0000
0000
0000
0130
0000
0010
0000
1000
0000
0010
0000
0100
0010
0001
0000
,
0100
0000
0001
0000
0100
0000
0001
0000
1000
0000
0100
1000
0100
0000
0000
0000
,
1100
0000
0010
0001
0010
0001
0000
0000
1000
0001
1000
0001
1000
0000
0010
0100
,
0010
0100
0010
0000
1000
0001
1000
0001
1000
0000
0010
0000
0100
0000
0001
0000
,
0102
1000
1000
1003
,
0001
0000
0100
0000
0010
0000
1000
0000
0001
0010
0100
0000
0101
0000
0000
0000
,
1000
0010
0100
0001
1000
0100
1100
0000
,
0010
0000
0001
0000
0010
0000
0100
0000
1000
0100
0010
0000
0100
0000
0000
0000
,
1000
0000
0010
1000
0010
0000
1000
0000
0001
0000
0100
0001
0100
0000
0001
0000
,
1000
0000
0100
1000
0100
0000
1000
0000
0001
0000
0010
0100
1000
0000
0100
0000
,
0010
0000
0001
0010
0100
1000
0010
0100
0001
1000
0010
0100
0001
1000
0010
0100
,
0001
0001
1000
0100
0010
0001
0100
0010
,
0220
0000
0000
0000
,
0330
0000
0000
0000
;

//---------------dance-single - ----------------
#NOTES:
     dance-single:
     :
     Hard:
     9:
     0.632481,0.639044,0.100242,0.300727,0.000000,530.000000,518.000000,12.000000,36.000000,0.000000,0.000000,0.632481,0.639044,0.100242,0.300727,0.000000,530.000000,518.000000,12.000000,36.000000,0.000000,0.000000:
0000
0000
0000
0000
,
0000
0000
0000
0000
,
0000
0000
0000
0000
,
0000
0000
0000
0000
,
0100
0010
1000
0001
,
1000
0010
0100
0001
,
1000
0100
1000
0000
1000
0000
0001
0000
,
0100
0001
1000
0010
,
0100
0001
1000
0010
0100
0010
1000
0000
,
0001
0010
0001
0010
0100
0010
0100
0000
,
1000
0100
1000
0100
0010
0100
0010
0001
,
0010
0001
0010
0100
1000
0001
0100
0000
,
1001
0000
0100
1000
0100
1000
0100
1000
,
1000
0000
0001
0010
0001
0010
0001
0010
,
0010
0100
1000
0100
1000
0100
1000
0100
,
1000
1000
0001
0010
0001
0010
0002
0000
,
2003
0000
3100
1000
0100
0010
0001
0010
,
0100
0100
1000
0010
0100
0001
0100
0010
,
0001
0001
1000
0100
0010
0001
1000
0100
,
1000
0001
1000
0010
0100
0001
1000
1000
,
0010
0100
0010
0100
0001
0001
1000
0100
,
0010
0001
1000
0100
0100
0010
0001
0010
,
0100
1000
0010
0010
0100
0100
0001
0001
,
1000
0100
1000
0100
0100
0010
0110
0001
,
1000
1000
0001
0010
0010
0100
0100
1000
,
0010
0100
0001
1000
0001
0001
1000
0100
,
1000
0001
1000
0100
1000
1000
0001
0100
,
0001
0010
0100
1000
0100
0100
0010
0001
,
0010
0100
1000
0001
1000
1000
0010
0100
,
0010
1000
0100
1000
0001
0001
1000
0100
,
0010
0001
1000
0100
0010
0010
0001
1000
,
0100
1000
0001
0100
0100
0000
0001
0001
,
1000
0100
1000
0100
0010
0100
0001
0001
,
1000
0010
0100
0001
1000
0010
0100
0000
,
0001
1000
0010
0100
0001
1000
0100
0100
,
0010
0100
1000
0100
0010
0001
1000
0010
,
2000
0000
0000
0000
3100
0000
0100
0010
,
0002
0000
0100
0000
0103
0000
0010
1000
,
0020
0000
0100
0000
0130
0000
0001
1000
,
0010
0100
0001
1000
1001
0000
1100
0000
,
0100
0010
0001
1000
1100
0000
1000
0100
,
0010
0001
0010
0100
0110
0000
1000
0100
,
1000
0100
0010
0100
0110
0000
0001
0010
,
0100
1000
0010
0100
0101
0000
1000
0100
,
2000
0100
0100
3100
,
0002
2003
3020
0230
,
0302
0100
0100
0103
,
0020
1030
2000
3100
,
0010
0001
0010
0100
1000
0100
0010
0000
,
0002
0023
0230
2300
,
3200
0000
0310
0001
0010
0100
1000
0100
,
1000
0100
0010
0001
0010
0001
0010
0000
,
0002
0100
0100
0103
,
0010
1000
0010
1000
0010
1000
0010
0000
,
0100
0001
1000
0010
0100
0001
1000
1000
,
0010
0100
0010
0100
0010
0100
0010
0010
,
1000
0100
0010
0001
1000
0100
1000
1000
,
0100
0010
0001
0001
0010
0100
1000
1000
,
0100
0010
0001
0001
1000
0001
0100
0010
,
1000
0001
0100
0010
1000
0001
0100
0010
,
2000
0000
0001
0000
3001
0000
0001
1000
,
0200
0000
0000
2300
0000
0000
3020
0000
,
0130
0001
0100
0001
1000
0010
1000
1000
,
0002
0000
0000
0003
1001
0000
1001
0000
,
0120
0100
0100
0130
,
0001
0010
0100
1000
0001
0010
0100
1000
,
0200
0010
0010
0310
,
0002
0000
1000
0000
1000
0000
1003
0010
,
0200
0010
0010
0010
,
0320
1000
1000
1030
,
0002
0000
0100
0000
0100
0000
0103
0001
,
0100
0010
1000
0010
1000
0100
1000
0100
,
0020
0001
0001
0031
,
1000
0100
1000
0100
0010
0001
0010
0000
,
0200
1000
1000
1300
,
0002
0100
0100
0103
,
0020
1000
1000
1030
,
0001
0100
0010
1000
0001
0100
0001
0000
,
1000
0100
0010
0001
1000
0100
1000
0000
,
0001
0010
0100
0010
0001
0010
0100
0000
,
1000
0010
1000
0010
0100
0001
0100
0001
,
1000
0100
1000
0100
1000
0010
0100
0010
,
0001
0010
0100
1000
0100
0010
0001
0010
,
0100
1000
0010
0100
0001
0100
0010
1000
,
2002
0000
0000
0000
,
3003
0000
0000
0000
;

//---------------dance-single - ----------------
#NOTES:
     dance-single:
     :
     Medium:
     6:
     0.445123,0.499958,0.100242,0.100242,0.000000,373.000000,361.000000,12.000000,12.000000,0.000000,0.000000,0.445123,0.499958,0.100242,0.100242,0.000000,373.000000,361.000000,12.000000,12.000000,0.000000,0.000000:
0000
0000
0000
0000
,
0000
0000
0000
0000
,
0000
0000
0000
0000
,
0000
0000
0000
0000
,
0010
0100
0001
0100
,
0010
1000
0001
1000
,
0010
0010
0010
0000
0100
0000
0001
0000
,
1000
0010
0100
0001
,
1000
0000
0010
0000
0100
0001
1000
0000
,
0010
1000
0001
0000
0100
0000
0110
0000
,
0001
1000
0010
0000
0100
0001
1000
0000
,
0100
1000
0100
0000
1000
0001
0100
0000
,
0010
0100
0001
1000
,
0001
0000
0100
0000
0001
0000
1000
0100
,
0010
0001
1000
0100
,
1000
0000
0001
0000
0100
0000
0010
0010
,
0010
1000
0001
0100
,
0010
0000
1000
0000
0001
0000
0100
0010
,
1000
0000
0001
0100
0010
0000
1000
0001
,
0100
0000
0010
1000
0001
1000
0010
0000
,
0100
0000
0010
0000
1000
0100
0010
0000
,
0001
1000
0100
1000
,
0001
0000
0010
0000
0100
1000
0100
1000
,
0000
0100
0010
0001
,
1000
0000
0100
0000
1000
0010
0100
0001
,
0000
1000
0010
0100
,
0001
0000
1000
0000
0100
1000
0100
0010
,
0000
0001
0010
0100
,
1000
0000
0001
0000
1000
0010
0100
0001
,
0000
1000
0110
0001
,
1000
0000
0100
0000
0001
1000
0001
0100
,
0000
0010
0100
0010
,
1000
0000
0001
0000
0100
0010
1000
0010
,
0000
0100
0010
0100
,
0001
0000
1000
0000
0010
0100
0010
0100
,
0000
0001
1000
0010
,
0200
0000
0302
0000
,
2003
0000
3020
0000
,
0230
0000
0302
0000
,
2003
0000
3010
0000
,
0100
0001
0100
0010
,
1000
0000
0010
0000
1000
0000
0001
0100
,
0010
1000
0010
0100
,
0001
0000
1000
0000
0010
0000
0100
0100
,
0100
0001
1000
0010
,
1010
0001
0101
0010
,
1001
0100
0010
1000
,
1100
0100
0110
0010
,
0011
0100
1000
0100
,
0010
0001
0010
0000
0100
1000
0100
0000
,
0010
0001
1000
0000
0010
0100
0001
0000
,
1000
0100
1000
0010
,
0100
0000
0001
0000
1000
0000
0100
1000
,
0100
1000
0100
0010
,
0001
0000
1000
0000
0001
0100
0010
0000
,
1000
0010
1000
0001
,
0010
0000
0100
0000
1000
0100
0010
0000
,
0001
0010
0100
0000
1000
0001
0100
0000
,
0100
0001
1000
0000
0001
0100
0010
0000
,
0010
1000
0001
0000
1000
0100
1000
0000
,
0020
0000
0000
0000
,
0130
0001
1000
0100
,
2000
0000
0000
0000
,
3001
0000
0100
0010
,
0100
0001
1000
0010
,
0100
0001
1000
0010
,
0100
0001
1000
0000
0010
0100
0010
0000
,
1000
0001
1001
1001
,
0010
0100
0010
1000
,
0001
0101
0010
1010
,
2000
0000
0100
0000
0100
0000
0100
3000
,
0001
0010
0100
1000
,
0200
0010
0010
0310
,
0100
0010
0100
0001
,
1000
0100
1000
0000
0100
1000
0100
0000
,
0010
0001
0010
0000
0100
1000
0001
0000
,
0100
0000
0100
0000
0001
1000
0010
0000
,
0100
0000
0001
0000
1000
0010
0100
0000
,
0001
0000
0010
0000
0100
1000
0100
0000
,
1000
0000
0100
0000
0010
0100
0010
0000
,
0001
0010
0100
0000
1000
0010
0100
0000
,
0100
0001
1000
0000
0010
0000
0100
0010
,
0000
1000
0001
0100
0010
1000
0001
0100
,
0010
1000
0000
0000
0010
0000
0100
0001
,
2000
0000
0000
0000
,
0000
0000
3000
0000
;

//---------------dance-single - ----------------
#NOTES:
     dance-single:
     :
     Easy:
     4:
     0.329367,0.385933,0.033414,0.175424,0.000000,276.000000,272.000000,4.000000,21.000000,0.000000,0.000000,0.329367,0.385933,0.033414,0.175424,0.000000,276.000000,272.000000,4.000000,21.000000,0.000000,0.000000:
0000
0000
0000
0000
,
0000
0000
0000
0000
,
0000
0000
0000
0000
,
0000
0000
0000
0000
,
1000
1000
1000
1000
,
0010
0010
0010
0010
,
0100
0010
0100
0000
0100
0000
0100
0000
,
0100
0001
0001
0001
,
0001
1000
0001
1000
,
0001
0000
1000
0000
0001
1000
0001
0000
,
1000
0010
1000
0010
,
0100
0001
0100
0001
,
1000
1000
0010
0010
,
0100
0100
0001
0001
,
1000
1000
0010
0010
,
0100
0100
0001
0001
,
1000
0000
1000
0000
0010
0100
0010
0000
,
1000
1000
0001
0001
,
0100
0100
0010
0010
,
1000
1000
0001
0001
,
1000
0000
0010
0000
1000
0010
1000
0010
,
0000
0100
0100
0100
,
0001
0000
0001
0000
0100
0001
0100
0001
,
0000
0010
0010
0010
,
1000
0000
1000
0000
0001
1000
0001
1000
,
0000
0000
0010
0000
0010
0000
0100
0010
,
0100
0000
0001
0000
0001
1000
0001
1000
,
0000
0010
0010
0100
,
0100
0000
0001
0000
0001
1000
0001
1000
,
0000
0010
0010
0100
,
0100
0000
0001
0000
1000
0010
1000
0010
,
0000
0100
0100
0001
,
1000
0000
0001
0000
0000
0100
0010
0100
,
0010
1000
1000
0001
,
0001
0000
1000
0000
0010
0100
0010
1000
,
0000
0000
0100
0000
0001
0010
0100
0000
,
1000
1000
1000
1000
,
1000
1000
1000
0001
,
0001
0001
0001
0001
,
0001
0001
0001
0001
,
0100
0100
0100
0100
,
0100
0100
0100
0100
,
0010
0010
0010
0010
,
0010
0000
0010
0000
0010
0000
1000
0001
,
2000
0000
0000
3000
,
0010
0100
0010
0100
,
0020
0000
0000
0000
0000
0000
0000
0030
,
1000
0001
1000
0001
,
2000
0000
0000
3000
,
0001
0001
0100
0100
,
0002
0000
0000
0000
0000
0000
0000
0003
,
0020
0000
0000
0030
,
0200
0000
0000
0000
,
0300
0000
2000
0000
,
0000
0000
0000
0000
0000
0000
0000
3000
,
0000
0001
0001
0001
,
0100
0100
0010
0010
,
1000
1000
0001
0001
,
0100
0100
0010
0010
,
1000
0001
1000
0001
,
2000
0000
0000
3000
,
0010
0010
0100
0100
,
0200
0000
0000
0000
0000
0300
0000
0000
,
0001
0001
1000
1000
,
0020
0000
0000
0030
,
0100
0100
0001
0001
,
0002
0000
0000
0003
,
2002
0000
0000
3003
,
0220
0000
0000
0330
,
1000
0001
1000
0001
,
2000
0000
0000
3000
,
0001
1000
0001
1000
,
0002
0000
0000
0000
0000
0000
0000
0003
,
0100
0010
0100
0010
,
0200
0000
0000
0300
,
0020
0000
0000
0030
,
0220
0000
0000
0000
,
0000
0000
0000
0330
,
1000
1000
1000
1000
,
0001
0001
0001
0001
,
0100
0100
0100
0100
,
0100
0100
0100
0100
,
0100
0010
0010
0010
,
0010
0010
0010
1000
,
1001
0000
0000
0000
;

//---------------dance-single - Copied from----------------
#NOTES:
     dance-single:
     Copied from:
     Beginner:
     2:
     0.163490,0.315763,0.000000,0.083535,0.000000,137.000000,137.000000,0.000000,10.000000,0.000000,0.000000,0.163490,0.315763,0.000000,0.083535,0.000000,137.000000,137.000000,0.000000,10.000000,0.000000,0.000000:
0000
0000
0000
0000
,
0000
0000
0000
0000
,
0000
0000
0000
0000
,
0000
0000
0000
0000
,
1000
0000
1000
0000
,
1000
0000
1000
0000
,
1000
0000
1000
0000
,
1000
0000
1000
0000
,
1000
0000
0001
0000
,
1000
0000
0001
0000
,
1000
0000
0001
0000
,
1000
0000
0001
0000
,
0100
0000
0100
0000
,
0100
0000
0100
0000
,
0010
0000
0010
0000
,
0010
0000
0010
0000
,
0100
0000
0100
0000
,
0100
0000
0100
0000
,
0010
0000
0010
0000
,
0010
0000
0010
0000
,
1000
0000
0001
0000
,
1000
0000
0001
0000
,
1000
0000
0010
0000
,
1000
0000
0010
0000
,
1000
0000
0001
0000
,
0100
0000
0001
0000
,
0100
0000
0001
0000
,
0100
0000
0001
0000
,
0100
0000
0010
0000
,
0100
0000
0010
0000
,
0100
0000
0010
0000
,
0100
0000
0010
0000
,
1000
0000
0010
0000
,
1000
0000
0010
0000
,
1000
0000
0010
0000
,
1000
0000
0010
0000
,
0200
0000
0000
0000
,
0000
0000
0300
0000
,
0002
0000
0000
0000
,
0000
0000
0003
0000
,
2000
0000
0000
0000
,
0000
3000
0000
0000
,
0020
0000
0000
0000
,
0000
0000
0000
0030
0000
0000
0000
0000
,
0100
0100
0100
0100
,
0001
0001
0001
0001
,
0001
0000
0000
0000
,
1000
1000
1000
1000
,
1000
0000
0000
0000
,
0010
0010
0010
0010
,
0010
0000
0000
0000
,
0200
0000
0000
0300
,
0001
0000
0000
0000
,
1000
0000
0000
0000
,
0001
0000
0000
0000
,
1000
0000
0000
0000
,
0010
0100
0010
0100
,
0000
0010
0100
0010
,
0000
1000
0001
1000
,
0000
0000
0000
0000
,
0020
0000
0000
0000
0000
0030
0000
0000
,
0100
0000
0100
0000
,
0100
0000
0000
0000
,
0001
0000
0001
0000
,
0001
0000
0000
0000
,
1000
0000
1000
0000
,
1000
0000
0000
0000
,
0020
0000
0000
0030
,
0100
0000
0100
0000
,
0100
0000
0001
0000
,
0001
0000
0001
0000
,
1000
0000
1000
0000
,
1000
0000
0001
0000
,
1000
0000
0001
0000
,
0200
0000
0000
0300
,
0020
0000
0000
0030
,
2000
0000
0000
0000
,
0000
0000
0000
0000
,
0000
0000
0000
0000
,
0000
0000
0000
0000
0000
0000
0000
3000
,
0001
0000
0100
0000
,
0001
0000
0100
0000
,
0001
0000
1000
0000
,
0010
0000
1000
0000
,
0010
0000
0000
0000
;
