#TITLE:DUB I DUB;
#SUBTITLE:;
#ARTIST:Kors K feat. Starbity;
#TITLETRANSLIT:;
#SUBTITLETRANSLIT:;
#ARTISTTRANSLIT:;
#CREDIT:SupremeX;
#BANNER:DUB I DUB-bn.png;
#BACKGROUND:DUB I DUB-bg.png;
#LYRICSPATH:;
#CDTITLE:;
#MUSIC:DUB I DUB.ogg;
#OFFSET:-0.111;
#SAMPLESTART:90.520;
#SAMPLELENGTH:12.000;
#SELECTABLE:YES;
#BPMS:0.000=130.000;
#STOPS:;
#BGCHANGES:;

//---------------dance-single - ----------------
#NOTES:
     dance-single:
     :
     Hard:
     8:
     0.535,0.632,0.366,0.111,0.400: // measure 1
0000
0000
0000
0000
,  // measure 2
0000
0000
0000
0000
,  // measure 3
0000
0000
0000
0000
,  // measure 4
0000
0000
0000
0000
,  // measure 5
0000
0000
0000
0000
,  // measure 6
1000
0100
1000
0100
1000
1000
1000
0000
,  // measure 7
0001
0100
0001
0100
0010
1000
0101
0000
,  // measure 8
1000
0100
1000
0100
1000
1000
1000
0000
,  // measure 9
0001
1000
0100
0010
0001
1000
2000
0000
,  // measure 10
0100
0100
0100
3010
,  // measure 11
0200
0001
0001
0310
,  // measure 12
0020
1000
1000
0130
,  // measure 13
0002
0100
0100
1003
,  // measure 14
0010
1000
0001
0100
0010
1000
0001
0000
,  // measure 15
1000
0010
0100
0010
0100
0001
1000
0000
,  // measure 16
0001
0010
0100
0010
0001
0010
0100
0000
,  // measure 17
1100
0000
0100
0110
0000
0001
1001
0000
,  // measure 18
1000
0000
0000
1100
0000
0000
0100
0000
0000
0110
0000
0000
0001
0000
0100
0000
,  // measure 19
0001
0000
0000
1001
0000
0000
0010
0000
0000
0101
0000
0000
1000
0000
0010
0000
,  // measure 20
0100
0000
0000
0110
0000
0000
1000
0000
0000
1010
0000
0000
0001
0000
1000
0000
,  // measure 21
0100
0000
0000
1100
0000
0000
0001
0000
0000
0101
0000
0000
1010
0000
1000
0000
,  // measure 22
0010
0000
0000
1001
0000
0000
0100
0000
0000
0110
0000
0000
0001
0000
0010
0000
,  // measure 23
0100
0000
0000
1100
0000
0000
0010
0000
0000
0011
0000
0000
0001
0000
1000
0000
,  // measure 24
0010
0000
0000
1010
0000
0000
0100
0000
0000
1001
0000
0000
0100
0000
0000
0000
,  // measure 25
0010
0000
0001
0100
0000
0001
0100
0000
0010
0000
0010
0000
0010
0000
0000
0000
,  // measure 26
1000
0000
0000
1010
0000
0000
0100
0000
0000
0101
0000
0000
1000
0000
0010
0000
,  // measure 27
1000
0000
0000
0101
0000
0000
0010
0000
0000
1010
0000
0000
0100
0000
0010
0000
,  // measure 28
0100
0000
0000
1001
0000
0000
0100
0000
0000
0110
0000
0000
1000
0000
0100
0000
,  // measure 29
1000
0000
0000
1100
0000
0000
0010
0000
0000
0011
0000
0000
1001
0000
1000
0000
,  // measure 30
0100
0000
0000
0110
0000
0000
0010
0000
0000
0101
0000
0000
1000
0000
0100
0000
,  // measure 31
1000
0000
0000
0110
0000
0000
0001
0000
0000
1001
0000
0000
1000
0000
0100
0000
,  // measure 32
0010
0000
0000
0011
0000
0000
1000
0000
0000
1001
0000
0000
0100
0000
0001
0000
,  // measure 33
1000
0100
0010
0001
0010
0100
1000
0000
,  // measure 34
1000
0000
0000
1100
0000
0000
0100
0000
0000
0110
0000
0000
0010
0000
0000
0000
,  // measure 35
0001
0000
1000
0100
0000
1000
0100
1000
0001
0000
0100
0001
0000
1000
0100
1000
,  // measure 36
0001
0000
0100
0010
0000
1000
0001
1000
0010
0000
0100
0010
0000
0100
0001
1000
,  // measure 37
0001
0000
1000
0100
0000
1000
0100
1000
0100
0000
0010
0001
0000
0010
0001
0000
,  // measure 38
1000
0000
0000
1001
0000
0000
1000
0000
0000
0110
0000
0000
0110
0000
0000
0000
,  // measure 39
0001
0000
0100
0001
0000
0100
0001
1000
0010
0000
1000
0010
0000
1000
0001
0100
,  // measure 40
0010
0000
0100
0010
0000
1000
0100
1000
0100
0000
0010
0001
0000
0010
0100
1000
,  // measure 41
0001
0000
0100
0001
0000
1000
0010
1000
0010
0000
0100
0000
0110
0000
0001
0000
,  // measure 42
1000
0000
0100
0010
0000
0001
1000
0000
0100
0000
1000
0000
1000
0000
0000
0000
,  // measure 43
0001
0000
1000
0010
0000
0100
0001
0000
2000
0000
0000
0000
3100
0000
0000
0000
,  // measure 44
0010
0000
0001
0010
0000
0001
1000
0001
1000
0000
0100
0000
0100
0000
0000
0000
,  // measure 45
0010
0001
0010
0200
0000
1300
1000
0000
,  // measure 46
0001
0000
0100
0010
0000
1000
0001
0000
1000
0000
0100
0000
0100
0000
0000
0000
,  // measure 47
0010
0000
0001
0010
0000
0100
1000
0000
2000
0000
0000
0000
3001
0000
0000
0000
,  // measure 48
0001
0000
0100
0010
0000
0010
1000
0010
1000
0000
0001
0000
0001
0000
0000
0000
,  // measure 49
1000
0100
1000
0200
0000
0310
0010
0000
,  // measure 50
0001
0000
0100
0001
0000
0001
0100
0000
0010
0000
1000
0000
1100
0000
0000
0000
,  // measure 51
0010
0000
0001
0010
0000
0001
0100
0000
0002
0000
0000
0000
0103
0000
0000
0000
,  // measure 52
0010
0000
1000
0100
0000
0100
1000
0100
1000
0000
0010
0000
0010
0000
0000
0000
,  // measure 53
0001
1000
0010
2000
0000
3010
0010
0000
,  // measure 54
1000
0000
0100
1000
0000
0001
0100
0010
1000
0000
0001
0000
0001
0000
0000
0000
,  // measure 55
1000
0000
0100
0010
0000
0010
0100
0000
0002
0000
0000
0000
1003
0000
0000
0000
,  // measure 56
1000
0000
0010
0100
0000
0100
0010
0000
1000
0000
0001
0000
1001
0000
0000
0000
,  // measure 57
0010
0100
0010
1000
0010
0100
0100
0001
,  // measure 58
0001
1000
1000
0010
0010
1000
1000
0001
,  // measure 59
1000
0010
1000
0001
0010
0100
2002
0000
,  // measure 60
0000
0000
0000
3003
0000
0000
0000
0000
;

//---------------dance-single - ----------------
#NOTES:
     dance-single:
     :
     Medium:
     6:
     0.365,0.375,0.077,0.009,0.128:
0000
0000
0000
0000
,
0000
0000
0000
0000
,
0000
0000
0000
0000
,
0000
0000
0000
0000
,
0000
0000
0000
0000
,
1000
0100
1000
0100
0010
0001
0001
0000
,
1000
0010
1000
0000
0101
0000
1010
0000
,
0001
1000
0100
0010
0100
1000
1000
0000
,
0001
0000
0100
0010
0000
1000
0001
0000
,
1000
0000
0010
0000
0100
0001
0100
0000
,
0001
0000
1000
0000
0100
1000
0100
0000
,
1000
0000
0001
0000
0100
0010
0100
0000
,
0001
0000
1000
0000
0100
1000
0100
0000
,
1000
0001
0100
0000
0100
0001
1000
0000
,
1000
0001
0100
0000
0100
0010
1000
0000
,
0001
1000
0100
1000
0100
1000
0001
0000
,
0001
0000
0100
0100
0000
0010
0010
0000
,
1000
0000
0000
0100
0000
0000
1000
0000
0000
0001
0000
0000
0100
0000
0000
0000
,
0100
0000
0000
0010
0000
0000
0010
0000
0000
1000
0000
0000
1000
0000
0000
0000
,
0001
0000
0000
0100
0000
0000
0001
0000
0000
0100
0000
0000
0010
0000
0000
0000
,
0010
0000
1000
0000
0001
0100
0001
0000
,
1000
0000
0000
1000
0000
0000
0100
0000
0000
0100
0000
0000
0010
0000
0000
0000
,
0001
0000
0000
0001
0000
0000
0100
0000
0000
0100
0000
0000
0010
0000
0000
0000
,
1000
0000
0000
1000
0000
0000
0100
0000
0000
0100
0000
0000
0010
0000
0000
0000
,
0001
0000
1000
0000
0100
1000
0100
0000
,
1000
0000
0000
0001
0000
0000
0010
0000
0000
0100
0000
0000
1000
0000
0000
0000
,
0010
0000
0000
0100
0000
0000
0001
0000
0000
1000
0000
0000
0001
0000
0000
0000
,
1000
0000
0000
0001
0000
0000
1000
0000
0000
0010
0000
0000
0100
0000
0000
0000
,
0001
0000
0000
1000
0000
0000
0001
0000
0000
1000
0000
0000
0100
0000
0100
0000
,
1000
0000
0000
0001
0000
0000
0001
0000
0000
0010
0000
0000
0010
0000
0000
0000
,
0100
0000
0000
0100
0000
0000
1000
0000
0000
1000
0000
0000
0001
0000
0000
0000
,
0100
0000
0000
0010
0000
0000
1000
0000
0000
0010
0000
0000
1000
0000
0000
0000
,
0001
0000
1000
0100
1000
0100
1000
0000
,
0001
0000
0000
0010
0000
0000
0100
0000
0000
1000
0000
0000
0100
0000
0000
0000
,
0010
0000
0001
0100
0001
0000
1000
0100
,
1000
0000
0001
0100
0010
0000
0010
1000
,
0001
1000
0010
0100
0010
0010
0100
0000
,
0001
0000
0000
1000
0000
0000
0001
0000
0000
0100
0000
0000
0100
0000
0000
0000
,
0010
0000
1000
0100
1000
0000
0001
0100
,
0001
0000
1000
0001
0010
0100
1000
0000
,
0010
0000
0010
0000
1000
0001
1000
0000
,
0010
0000
0010
0000
1000
1000
1000
0000
,
0001
1000
0110
1001
,
0010
0000
0100
0000
0001
0001
0001
0000
,
1000
0100
1000
0001
0000
0100
0100
0000
,
0001
0000
1000
0000
0100
0100
0100
0000
,
0010
0001
1100
0110
,
0001
0000
1000
0000
0100
0100
0100
0000
,
1000
0000
0001
0100
0000
0100
0001
0000
,
1000
0100
1000
0100
0010
0001
0001
0000
,
1000
0100
1000
0100
1000
0000
0011
0000
,
1000
0100
1000
0000
0010
0010
0010
0000
,
1000
0001
1000
0001
0000
0100
0100
0000
,
0010
0000
0010
0000
1000
1000
1000
0000
,
0001
1000
0010
0000
0101
0000
1010
0000
,
0001
0000
1000
0000
0100
1000
0100
0000
,
1000
0001
0100
0100
0000
0010
0010
0000
,
2000
0100
0100
3100
,
0001
0000
1000
1000
0000
0001
0001
0000
;

//---------------dance-single - ----------------
#NOTES:
     dance-single:
     :
     Easy:
     4:
     0.270,0.305,0.128,0.085,0.000:
0000
0000
0000
0000
,
0000
0000
0000
0000
,
0000
0000
0000
0000
,
0000
0000
0000
0000
,
0000
0000
0000
0000
,
0010
1000
0001
0001
,
1000
0010
0100
0100
,
0001
1000
0010
0010
,
1000
0000
0001
0001
0000
1000
1000
0000
,
0020
0000
0000
0030
,
2000
0000
0000
3000
,
0002
0000
0000
0003
,
0200
0000
0000
0300
,
0001
0010
0100
0100
,
1000
1000
0010
0010
,
0100
0001
1000
0001
,
2000
0000
0000
3000
,
0010
0010
0100
0110
,
0001
0001
0001
1001
,
1000
1000
1000
1100
,
0010
0010
0010
0011
,
1000
0010
1000
1010
,
0001
0100
0001
0101
,
1000
0001
1000
1001
,
0110
0000
0000
0000
,
1000
1000
1000
1000
,
0010
0010
0010
0010
,
0100
0100
0100
0100
,
0001
0001
0001
0001
,
1000
1000
1000
1100
,
0010
0010
0010
0110
,
0001
0001
0001
0011
,
1000
0000
0001
0001
0000
1000
1000
0000
,
0010
0100
0001
1000
,
0010
0000
0100
0100
0000
0000
0001
0001
,
0000
0000
1000
1000
0000
0000
0010
0000
,
0100
0010
0100
0010
,
0100
0100
0100
0001
,
0001
0001
0010
0010
,
0100
0100
1000
1000
,
0001
1000
0001
1000
,
0020
0000
0000
0000
0000
0030
0000
0000
,
2000
0000
0000
0000
0000
3000
0000
0000
,
0002
0000
0000
0000
0000
0003
0000
0000
,
0200
0000
0000
0000
0000
0300
0000
0000
,
0010
0000
0010
0000
0010
0010
0010
0000
,
1000
0000
1000
0000
1000
1000
1000
0000
,
0001
0000
0001
0000
0001
0001
0001
0000
,
0100
0000
0100
0000
0100
0100
0100
0000
,
0001
0000
1000
0000
0001
0001
0001
0000
,
1000
0001
1000
1001
,
0010
0000
0100
0000
0010
0010
0010
0000
,
0100
0010
0000
0110
,
0001
0000
1000
0000
0010
0010
0010
0000
,
1000
0001
0110
0110
,
1000
0000
0001
0000
0100
0100
0100
0000
,
0010
0000
1000
0010
0000
0100
0001
0000
,
1000
1000
1000
0010
,
0100
0000
0001
1000
0000
0001
0002
0000
,
0000
0000
0000
0003
;

//---------------dance-single - Copied from----------------
#NOTES:
     dance-single:
     Copied from:
     Beginner:
     2:
     0.122,0.126,0.000,0.017,0.000:
0000
0000
0000
0000
,
0000
0000
0000
0000
,
0000
0000
0000
0000
,
0000
0000
0000
0000
,
0000
0000
0000
0000
,
0001
0000
0000
0000
,
1000
0000
0000
0000
,
0001
0000
0000
0000
,
1000
0000
0000
0000
,
0001
0000
0001
0000
,
0001
0000
0001
0000
,
0001
0000
0001
0000
,
0001
0000
0001
0000
,
0100
0000
0100
0000
,
0100
0000
0100
0000
,
0100
0000
0100
0000
,
0100
0000
0000
0000
,
0010
0000
0010
0000
,
0010
0000
0010
0000
,
0010
0000
0010
0000
,
0010
0000
0000
0000
,
1000
0000
1000
0000
,
1000
0000
1000
0000
,
1000
0000
1000
0000
,
1000
0000
0000
0000
,
0001
0000
1000
0000
,
0001
0000
1000
0000
,
0001
0000
1000
0000
,
0001
0000
1000
0000
,
0010
0000
0100
0000
,
0010
0000
0100
0000
,
0010
0000
0100
0000
,
0010
0000
0000
0000
,
1000
0000
0010
0000
,
1000
0000
0001
0000
,
0100
0000
0001
0000
,
1000
0000
0010
0000
,
1000
0000
0001
0000
,
0100
0000
0001
0000
,
1000
0000
0010
0000
,
1000
0000
0001
0000
,
0100
0000
0100
0000
,
0010
0000
0010
0000
,
1000
0000
1000
0000
,
0001
0000
0001
0000
,
0100
0000
0100
0000
,
0010
0000
0010
0000
,
1000
0000
1000
0000
,
0001
0000
0001
0000
,
1000
0000
0010
0000
,
0100
0000
0001
0000
,
1000
0000
0010
0000
,
0100
0000
0001
0000
,
1000
0000
1000
0000
,
0001
0000
0010
0000
,
0100
0000
0100
0000
,
1000
0000
0001
0000
,
0200
0000
0000
0000
0000
0300
0000
0000
,
0020
0000
0000
0000
,
0030
0000
0000
0000
;
