#TITLE:DREAMIN' OF YOU feat.コッテル;
#SUBTITLE:;
#ARTIST:Arts Of Collective;
#TITLETRANSLIT:DREAMIN' OF YOU feat. Cottel;
#SUBTITLETRANSLIT:;
#ARTISTTRANSLIT:;
#CREDIT:SupremeX;
#BANNER:DREAMIN OF YOU.png;
#BACKGROUND:DREAMIN OF YOU-bg.png;
#LYRICSPATH:;
#CDTITLE:CDTitle.png;
#MUSIC:DREAMIN OF YOU.ogg;
#OFFSET:-0.121;
#SAMPLESTART:88.060;
#SAMPLELENGTH:12.000;
#SELECTABLE:YES;
#BPMS:0.000=109.000;
#STOPS:;
#BGCHANGES:;

//---------------dance-single - ----------------
#NOTES:
     dance-single:
     :
     Challenge:
     9:
     0.449,0.575,0.094,0.230,0.366:
0000
0000
0000
0000
,
0000
0000
0000
0000
,
0000
0000
0000
0000
,
0000
0000
0000
0000
,
1000
0000
0000
0000
1000
0000
0000
0000
0001
0000
0100
0010
0100
0010
0000
0000
,
1000
0010
1000
0200
0000
0300
0000
0000
,
0001
0000
0100
0000
0010
1000
0000
0010
0000
0000
0000
0000
0000
0000
0000
0000
,
1000
0000
0010
0000
1000
0010
0000
0100
0000
0000
0000
0000
0000
0000
0000
0000
,
0001
0100
0001
1000
0010
0000
0000
0000
,
1000
0010
1000
0001
0100
0000
0000
0000
,
0001
0010
0100
1000
0000
0000
0000
0000
,
0001
0100
0001
0100
0010
1000
0010
0000
,
0100
0001
0200
0310
,
1000
0100
1000
0100
1000
0000
0001
0010
0002
0000
0000
0000
0013
0000
1000
0100
,
0000
1000
0000
0010
0100
0010
0100
0000
0000
0000
0001
1000
0001
1000
0001
0000
,
0000
0000
0100
0010
0100
0010
1000
0010
1000
0000
0010
0000
1000
0000
0001
0000
,
0000
0000
0100
0010
0100
0000
0000
0100
0000
0010
1000
0010
1000
0000
0100
0010
,
0000
0100
0001
0100
0001
0000
0100
0010
0000
0000
1000
0000
0010
1000
0010
0000
,
0100
0000
0001
0000
0100
0000
0010
0000
0000
0000
1000
0000
0001
0100
0001
0100
,
0000
0000
0010
0100
0010
0100
0010
0100
0001
0100
0001
0100
0001
0000
1000
0010
,
0000
0000
0100
0000
0010
0000
1000
0010
0000
0000
0100
0000
0001
1000
0001
0000
,
0000
0000
1000
0010
1000
0000
1000
0010
1000
0000
1000
0000
0010
0000
0100
0010
,
0100
0000
0001
0100
0001
0000
0001
0000
0000
0000
1000
0010
1000
0010
1000
0010
,
0000
0000
0100
0000
0001
0000
1000
0000
0001
0000
0100
0000
0001
1000
0010
1000
,
0000
0000
0010
0000
0100
0000
0001
0100
0000
0000
0010
0000
1000
0000
0010
1000
,
0000
0001
0010
0100
1000
0010
1000
0001
,
0100
0000
0001
0100
0001
0000
0100
0001
0100
0000
0001
0000
0000
0000
0010
0000
,
0100
0000
0010
0000
0100
0000
0001
0000
1000
0010
1000
0010
1000
0000
0010
0000
,
0000
0000
0100
0000
0001
0100
0001
0100
0000
0000
0010
0100
0010
0100
0010
0100
,
0000
0000
0001
1000
0010
0100
0001
1000
0010
0001
0100
0001
1000
0100
0010
0000
,
0000
0000
1000
0000
0001
0100
0000
0010
0100
0000
0010
0000
1000
0010
0000
0000
,
0100
0000
0001
0000
0100
0000
0001
0010
0001
0010
0001
0010
0001
0010
0001
0000
,
0000
0000
1000
0100
1000
0010
0100
0000
0001
0100
0001
0000
0100
0010
0100
0010
,
1000
0001
0100
0001
0100
0000
0010
1000
0010
1000
0010
1000
0001
0000
0100
0001
,
0000
1000
0010
1000
0100
0010
0001
0100
,
0010
1000
0010
1000
0010
0000
0100
0000
0010
0000
1000
0000
0001
0000
1000
0000
,
0020
0000
0000
0030
0000
0100
0010
0100
,
0220
0000
0000
0000
0330
0000
0001
1000
,
2002
0000
0000
0000
3003
0010
0100
0010
,
0220
0000
0330
0000
,
2200
0000
0000
0000
3300
0001
0100
0010
,
0002
0000
0000
0000
0003
0000
1000
0001
,
0202
0000
0000
0000
0303
0010
0100
0010
,
2020
0000
0000
0000
0000
3030
0000
0000
,
0200
0000
0000
0300
0000
0001
0100
0001
,
1000
0000
0000
0001
0000
0000
0101
0000
0000
0000
2000
0000
0000
0000
3000
0000
,
0200
0000
0000
0000
0300
0010
0001
0010
,
0100
0000
0000
1000
0000
0000
2200
0000
0000
0000
3300
0000
0001
0000
0100
0000
,
0020
0000
0000
1030
0000
0000
0001
0000
,
0001
0000
0000
1000
0000
0000
1001
0000
0000
0000
0100
0000
0010
0000
0100
0000
,
0220
0000
0000
0330
0000
0000
0001
0000
,
2002
0000
0000
0000
,
3003
0000
0000
0000
;

//---------------dance-single - ----------------
#NOTES:
     dance-single:
     :
     Hard:
     8:
     0.344,0.354,0.017,0.162,0.072: // measure 1
0000
0000
0000
0000
,  // measure 2
0000
0000
0000
0000
,  // measure 3
0000
0000
0000
0000
,  // measure 4
0000
0000
0000
0000
,  // measure 5
0001
0000
0000
0000
0010
0000
0000
0000
0100
0000
1000
0000
1000
0010
0000
0000
,  // measure 6
0100
0001
0100
0020
0000
0030
0000
0000
,  // measure 7
0100
0000
0010
0000
1000
0100
0000
1000
0000
0000
0000
0000
0000
0000
0000
0000
,  // measure 8
0010
0000
0100
0000
0001
0010
0000
0001
0000
0000
0000
0000
0000
0000
0000
0000
,  // measure 9
1000
0100
0010
0001
0100
0000
0000
0000
,  // measure 10
0001
0010
0100
1000
0010
0000
0000
0000
,  // measure 11
0100
0010
0100
0001
0000
0000
0000
0000
,  // measure 12
0010
0100
1000
0100
0010
0001
0100
0000
,  // measure 13
0010
1000
0002
0013
,  // measure 14
0100
1000
0100
0010
0002
0000
0103
0010
,  // measure 15
0000
1000
1000
1000
0000
0001
0001
0001
,  // measure 16
0000
0100
0010
0100
0001
1000
0010
0100
,  // measure 17
0000
0000
0001
0000
0010
0000
0000
0001
0000
0000
1000
0000
0100
0000
0000
1000
,  // measure 18
0000
0000
0001
0000
0100
0000
0010
0001
0000
0000
0100
0000
0100
0000
0100
0000
,  // measure 19
0000
0010
1000
0100
0000
0001
0100
0001
,  // measure 20
0000
0000
1000
0000
0010
0000
1000
0000
0100
0000
0010
0000
0001
0000
0010
0001
,  // measure 21
0000
1000
0100
1000
0000
0001
0100
0001
,  // measure 22
0000
0000
0010
0000
0100
0000
1000
0000
0100
0000
0010
0000
0001
0000
0100
0010
,  // measure 23
0000
0000
1000
0000
0001
0000
1000
0000
0000
0000
0100
0000
0010
0000
0001
0100
,  // measure 24
0000
0010
1000
0100
1000
0001
0100
0001
,  // measure 25
0000
0000
0010
0000
1000
0000
0010
0100
0000
0000
0010
0000
0010
0000
0100
0001
,  // measure 26
0000
0010
0100
1000
0100
0010
1000
0001
,  // measure 27
0100
0010
1000
1000
0010
0010
0000
1000
,  // measure 28
0100
1000
0010
0100
0001
0100
1000
0100
,  // measure 29
0000
0001
0010
0001
0000
1000
0010
1000
,  // measure 30
0000
0010
0100
0001
0100
0010
1000
0010
,  // measure 31
0000
0100
0001
0001
1000
1000
0010
0100
,  // measure 32
0001
0100
0010
1000
0100
0001
0100
1000
,  // measure 33
0000
0001
0010
0100
1000
0001
0010
1000
,  // measure 34
0010
0000
0001
0000
0100
0000
0010
0000
1000
0000
0001
0000
0100
0000
0010
0100
,  // measure 35
0000
0001
1000
0001
0100
0010
1000
0001
,  // measure 36
0100
0010
1000
0001
1000
0010
0100
0010
,  // measure 37
2000
0000
0000
3000
0000
0100
0010
0001
,  // measure 38
0200
0000
0000
0000
0300
0000
0001
0100
,  // measure 39
0002
0000
0000
0000
0003
1000
0010
1000
,  // measure 40
0020
0000
0030
0000
,  // measure 41
0200
0000
0000
0000
0300
0001
0100
0001
,  // measure 42
2000
0000
0000
0000
3000
0000
0100
0001
,  // measure 43
0020
0000
0000
0000
0030
1000
0010
1000
,  // measure 44
0002
0000
0000
0000
0000
0003
0000
0000
,  // measure 45
0200
0000
0000
0300
0000
0001
0100
0001
,  // measure 46
1000
0000
0000
0001
0000
0000
0101
0000
0000
0000
2000
0000
0000
0000
3000
0000
,  // measure 47
0020
0000
0000
0000
0030
1000
0100
0010
,  // measure 48
0001
0000
0000
0100
0000
0000
0020
0000
0000
0000
0030
0000
1000
0000
1000
0000
,  // measure 49
0002
0000
0000
0103
0000
0000
0010
0000
,  // measure 50
0010
0000
0000
1000
0000
0000
0001
0000
0000
0000
1000
0000
0010
0000
0001
0000
,  // measure 51
0200
0000
0000
0300
0000
0000
0010
0000
,  // measure 52
2002
0000
0000
0000
,  // measure 53
3003
0000
0000
0000
;

//---------------dance-single - ----------------
#NOTES:
     dance-single:
     :
     Medium:
     6:
     0.278,0.310,0.026,0.170,0.060:
0000
0000
0000
0000
,
0000
0000
0000
0000
,
0000
0000
0000
0000
,
0000
0000
0000
0000
,
0001
0000
1000
0000
0001
0100
0100
0000
,
1000
0000
0010
0010
0000
0000
0000
0000
,
1000
0000
0010
0000
1000
0000
0000
1000
0000
0000
0000
0000
0000
0000
0000
0000
,
0001
0000
0100
0000
0001
0000
0000
0001
0000
0000
0000
0000
0000
0000
0000
0000
,
1000
0001
1001
0000
,
0001
1000
1001
0000
,
0100
0000
0000
0010
0000
0000
0010
0000
0000
0000
0000
0000
0000
0000
0000
0000
,
0010
0000
0000
0000
0100
0000
0000
0100
0000
0000
0000
0000
0000
0000
0000
0000
,
0010
1000
0002
0013
,
1000
0000
1000
0000
0002
0000
0103
0100
,
0000
0010
0010
0010
0000
1000
1000
1000
,
0000
0001
0001
0001
0100
0000
0100
0000
,
0000
0000
0010
0000
0010
0000
0000
0010
0000
0000
1000
0000
1000
0000
0000
1000
,
0000
0000
0001
0000
0001
0000
0000
0001
0000
0000
1000
0000
1000
0000
1000
0000
,
0000
0002
0000
0003
0000
0200
0000
0300
,
0000
0001
0000
0001
1000
0010
0100
0001
,
0000
1000
0100
1000
0000
0001
0010
0001
,
0000
0000
2000
0000
0010
0000
0000
0000
0010
0000
0000
0000
0001
0000
3000
0001
,
0000
0000
0100
0000
0010
0000
0100
0000
0000
0000
0010
0000
0100
0000
0010
0100
,
0000
1000
0010
1000
0010
0001
0100
1000
,
0000
0010
0010
0010
0000
0100
0100
0100
,
0000
0001
0000
0001
0010
0001
0010
0001
,
0100
0000
1000
0000
0010
0010
0000
0000
,
1000
0000
1100
0000
0001
0100
0010
0010
,
0000
1000
0001
1000
0000
1000
0001
1000
,
0000
0000
0001
0100
0001
0100
0001
0100
,
0000
0000
0010
0000
1000
0000
1000
0000
0100
0000
0000
0100
0000
0100
0000
0000
,
0001
0000
0010
0000
0010
0001
1000
0001
,
0000
0100
0001
0100
,
1000
0000
0010
0000
1000
0001
0100
1000
,
0000
0001
0001
0000
0100
0000
0001
0000
,
1000
0000
0010
0000
1000
0000
0001
1000
,
0020
0000
0000
0030
0000
0100
0100
0100
,
2000
0000
0000
0000
3000
0000
0001
0001
,
0002
0000
0000
0000
0003
0100
0100
0100
,
2000
0000
3000
0000
,
0020
0000
0000
0000
0030
0100
0100
0100
,
0200
0000
0000
0000
0300
0000
0001
0001
,
0002
0000
0000
0000
0003
1000
1000
1000
,
2000
0000
0000
0000
0000
3000
0000
0000
,
0020
0000
0000
0030
0000
1000
0100
1000
,
0001
0000
0000
0001
0000
0000
0001
0000
0000
0000
2000
0000
0000
0000
3000
0000
,
0200
0000
0000
0000
0300
0001
0010
0000
,
0100
0000
0000
0010
0000
0000
0020
0000
0000
0000
0030
0000
1000
0000
0000
0000
,
0002
0000
0000
0103
0000
0000
0010
0000
,
0010
0000
0000
1000
0000
0000
0001
0000
0000
0000
0000
0000
0100
0000
0000
0000
,
0002
0000
0000
0003
0000
0000
0010
0000
,
2000
0000
0000
0000
,
3000
0000
0000
0000
;

//---------------dance-single - ----------------
#NOTES:
     dance-single:
     :
     Easy:
     3:
     0.165,0.199,0.000,0.136,0.000:
0000
0000
0000
0000
,
0000
0000
0000
0000
,
0000
0000
0000
0000
,
0000
0000
0000
0000
,
1000
0000
0000
0000
,
0001
0000
0000
0000
,
1000
1000
1000
0000
,
0010
0010
0010
0000
,
0100
0100
0100
0000
,
0001
0001
0001
0000
,
1000
1000
1000
0000
,
0010
0010
0010
0000
,
0001
0100
0001
1000
,
0001
1000
0001
0010
,
1000
0100
0000
0001
,
0000
1000
0010
0100
,
0001
0010
0100
0010
,
0100
0010
0100
0100
,
0000
0010
0000
1000
,
0000
0001
0001
0010
,
0100
1000
0000
0010
,
0000
0100
0010
0100
,
0001
1000
0000
0010
,
0000
0001
0100
0001
,
0100
1000
0000
0010
,
0000
1000
0010
1000
,
0001
0100
0001
0000
,
1000
0010
0100
0100
,
0000
0001
0001
0010
,
0010
1000
1000
0100
,
0100
0010
0010
0010
,
1000
0001
1000
0001
,
0010
0100
1000
1000
,
0100
0010
0001
0001
,
1000
0010
0100
0001
,
1000
0001
0100
0001
,
2000
0000
0000
0000
0000
3000
0000
0000
,
0020
0000
0030
0000
,
0200
0000
0300
0000
,
0002
0000
0000
0000
0000
0003
0000
0000
,
2000
0000
3000
0000
,
0020
0000
0030
0000
,
0200
0000
0300
0000
,
0002
0000
0003
0000
,
2000
0000
0000
3000
0000
0000
0000
0000
,
0020
0000
0030
0000
,
0200
0000
0000
0300
0000
0000
0000
0000
,
0002
0000
0003
0000
,
0020
0000
0000
0000
0000
0030
0000
0000
,
2000
0000
0000
0000
0000
3000
0000
0000
,
0200
0000
0300
0010
,
0002
0000
0000
0000
0000
0000
0000
0003
;

//---------------dance-single - Copied from----------------
#NOTES:
     dance-single:
     Copied from:
     Beginner:
     2:
     0.090,0.109,0.000,0.034,0.000:
0000
0000
0000
0000
,
0000
0000
0000
0000
,
0000
0000
0000
0000
,
0000
0000
0000
0000
,
1000
0000
0000
0000
,
0001
0000
0000
0000
,
1000
0000
0000
0000
,
0001
0000
0000
0000
,
1000
0000
0000
0000
,
0001
0000
0000
0000
,
1000
0000
0000
0000
,
0001
0000
0000
0000
,
0100
0000
0100
0000
,
0100
0000
0100
0000
,
0100
0000
0100
0000
,
0100
0000
0000
0000
,
0010
0000
0010
0000
,
0010
0000
0010
0000
,
0000
1000
0000
0001
,
0000
1000
0000
0001
,
0000
1000
0000
0001
,
0000
1000
0000
0001
,
0000
0100
0000
0100
,
0000
0010
0000
0010
,
0000
1000
0000
0010
,
0000
1000
0000
0010
,
0000
0001
0000
0000
,
0100
0000
0000
0000
,
0000
0001
0000
0001
,
0000
0001
0000
0001
,
0000
1000
0000
1000
,
0000
1000
0000
1000
,
0000
0010
0000
0010
,
0000
0010
0000
0100
,
0000
0010
0000
0010
,
0000
0010
0000
0100
,
0001
0000
0000
0000
,
1000
0000
0000
0000
,
0200
0000
0300
0000
,
0010
0000
0000
0000
,
0001
0000
0000
0000
,
1000
0000
0000
0000
,
0020
0000
0030
0000
,
0100
0000
0000
0000
,
0001
0000
0000
0000
,
1000
0000
0000
0000
,
0200
0000
0000
0300
0000
0000
0000
0000
,
0010
0000
0000
0000
,
0001
0000
0000
0000
,
1000
0000
0000
0000
,
0020
0000
0000
0030
0000
0000
0100
0000
,
0100
0000
0000
0000
;
