#TITLE:DENPASAR;
#SUBTITLE:;
#ARTIST:good-cool;
#TITLETRANSLIT:;
#SUBTITLETRANSLIT:;
#ARTISTTRANSLIT:;
#CREDIT:SupremeX;
#BANNER:DENPASAR-bn.png;
#BACKGROUND:DENPASAR-bg.png;
#LYRICSPATH:;
#CDTITLE:;
#MUSIC:DENPASAR.ogg;
#OFFSET:-1.695;
#SAMPLESTART:79.640;
#SAMPLELENGTH:12.000;
#SELECTABLE:YES;
#BPMS:0.000=135.000;
#STOPS:;
#BGCHANGES:;

//---------------dance-single - ----------------
#NOTES:
     dance-single:
     :
     Hard:
     8:
     0.493,0.445,0.373,0.078,0.000: // measure 1
0000
0000
0000
0000
,  // measure 2
0000
0000
0000
0000
,  // measure 3
0000
0000
0000
0000
,  // measure 4
0000
0000
0000
0000
0000
0000
0000
1000
,  // measure 5
0100
0010
0001
0100
0001
1000
0000
0010
,  // measure 6
0100
0001
1000
0010
0100
0001
0000
1000
,  // measure 7
0100
1000
0100
0010
0001
0100
0000
0001
,  // measure 8
1000
0010
0100
0001
1000
0001
0000
1000
,  // measure 9
0100
1000
0001
0100
0010
0100
0000
0001
,  // measure 10
0010
0100
1000
0010
0100
0010
0000
1000
,  // measure 11
0001
0010
0100
1000
0001
0100
0000
0100
,  // measure 12
0010
1000
0001
0100
0010
1000
0000
0001
,  // measure 13
0000
0100
0000
0010
0100
0001
0000
1001
,  // measure 14
0000
1100
0000
0001
0010
0100
1000
1100
,  // measure 15
0000
1001
0000
0010
0100
0001
1000
1010
,  // measure 16
0000
0101
0000
0010
1000
0100
0010
0011
,  // measure 17
0000
0110
0000
1000
0001
0010
0100
1100
,  // measure 18
0000
1001
0000
0010
0100
0010
1000
1001
,  // measure 19
0000
0110
0000
0001
0010
0100
0000
1000
,  // measure 20
0100
0010
0001
0100
0010
1000
0100
1100
,  // measure 21
0000
1001
0000
0010
0100
0010
0000
1001
,  // measure 22
0000
0110
0000
0001
0010
0100
0000
1000
,  // measure 23
0100
1000
0000
0001
0100
0001
0000
1000
,  // measure 24
0100
0010
0001
1000
0100
1000
0000
0110
,  // measure 25
0000
1001
0000
0010
0010
0010
0000
0110
,  // measure 26
0000
1001
0000
1000
0100
0010
0000
0011
,  // measure 27
0000
1100
0000
1001
0000
0110
0000
0001
,  // measure 28
0010
0100
1000
0010
0100
0010
1000
0001
,  // measure 29
0000
0001
0000
1000
0010
1000
0000
0100
,  // measure 30
0010
0001
1000
0010
0100
0010
1000
0001
,  // measure 31
0000
0100
0000
0010
1000
0010
0100
0002
,  // measure 32
0000
1003
0000
0010
1000
0001
1000
0020
,  // measure 33
0000
0130
0000
0001
1000
0010
1000
2000
,  // measure 34
0000
3100
0000
0010
0001
0010
0100
0200
,  // measure 35
0000
1300
0000
0001
0010
0100
1000
0020
,  // measure 36
0000
1030
0000
0100
0010
0001
1000
1001
,  // measure 37
0000
0010
0000
1000
0010
0100
0010
0100
,  // measure 38
0000
1001
0000
0010
0100
0001
0100
0010
,  // measure 39
0000
1010
0000
0001
0010
0100
1000
1100
,  // measure 40
0000
0110
0000
0001
1000
0100
0010
1001
,  // measure 41
0000
0110
0000
0001
1000
0100
1000
1100
,  // measure 42
0000
0110
0000
0001
0010
0100
1000
1001
,  // measure 43
0000
0110
0000
0001
0010
0100
1000
0020
,  // measure 44
0000
1000
0000
0100
0100
0100
0130
0001
,  // measure 45
0010
0100
1000
0010
0100
0001
1000
0001
,  // measure 46
0100
0010
1000
0100
0010
0001
0100
0010
,  // measure 47
1000
0001
1000
0010
0100
0010
0000
1000
,  // measure 48
0100
1000
0010
0100
0100
0101
0000
0010
,  // measure 49
1000
0001
0100
0001
1000
0010
0100
0001
,  // measure 50
0100
0010
1000
0001
0100
0001
0000
1000
,  // measure 51
0100
0010
0001
1000
0100
1000
0000
0001
,  // measure 52
0100
0001
1000
0010
0100
1001
0000
0220
,  // measure 53
0000
0000
0000
0000
,  // measure 54
0000
0000
0000
0330
0000
0000
0000
0000
;

//---------------dance-single - ----------------
#NOTES:
     dance-single:
     :
     Medium:
     5:
     0.361,0.367,0.235,0.088,0.000:
0000
0000
0000
0000
,
0000
0000
0000
0000
,
0000
0000
0000
0000
,
0000
0000
0000
0000
,
0000
0010
0000
0000
0000
0100
0000
0001
,
0000
1001
0000
0000
0000
1000
0000
0001
,
0000
0110
0000
0000
0000
1000
0000
0010
,
0100
0010
0000
1000
1000
1000
0000
0001
,
0000
1100
0000
0001
0010
0100
0000
1000
,
0000
0110
0000
0000
0001
0100
0000
0100
,
0000
1010
0000
0000
0100
0001
0000
0001
,
1000
0100
0000
0010
0001
0010
0000
0100
,
0000
1000
0000
0100
0010
0001
0000
1000
,
0010
1000
0000
0101
0000
1001
0000
0100
,
0010
0100
0000
0001
0000
1100
0000
0010
,
0000
0011
0000
0100
1000
0100
0000
0010
,
0000
1001
0000
0010
0100
0010
0000
1001
,
0000
0110
0000
1000
0001
1000
0000
0010
,
0010
0010
0000
0101
0000
1010
0000
0001
,
0010
0100
0000
1000
0100
1000
0000
0110
,
0000
0001
0000
1000
0000
0100
0000
0010
,
0000
0001
0000
1000
0000
0100
0000
1000
,
0000
0010
0000
0100
0000
0001
0000
1000
,
0000
0010
0000
1000
0001
1000
0010
0100
,
0000
0001
0000
1000
1000
1000
0000
0010
,
0000
0100
0000
0001
0000
1000
0000
0020
,
0000
0230
0000
0302
0000
2003
0000
3010
,
0000
0110
0000
1010
0000
0101
0000
1000
,
0000
0001
0000
1000
0100
0010
0000
0001
,
0000
1000
0000
0001
0010
0100
0000
1000
,
0000
0010
0000
0100
0001
1000
0000
0010
,
0000
0110
0000
0001
1000
0010
0000
0110
,
0000
1001
0000
0100
0001
1000
0000
0010
,
0000
0110
0000
0000
0001
0010
0100
1000
,
0000
0001
0000
1000
0000
0001
0000
0100
,
0010
0100
0010
1000
0001
1000
0000
0010
,
0000
0100
0000
0001
0000
0001
0000
1000
,
0000
1000
0000
0100
0000
0010
0000
0001
,
0100
0001
0000
0010
0000
1100
0000
1000
,
0010
0100
0000
0001
0001
0001
0000
1000
,
0000
0010
0000
0100
0000
0001
0000
1000
,
0000
0010
0000
1000
0000
0001
0000
0100
,
0010
1000
0000
0001
0100
0010
0000
1000
,
0010
0100
0000
0001
0100
0001
0000
1000
,
0000
1000
0000
1000
0000
1000
0000
0010
,
0000
0010
0000
0010
0000
0010
0000
0200
,
0000
0001
0000
0001
0000
0301
0000
1000
,
0000
0001
0000
1000
0100
0010
0000
0002
,
0000
1000
0000
1000
0000
1003
0000
0100
,
0000
0010
0000
0001
0010
0100
0000
2000
,
0000
0001
0000
0100
0000
3001
0000
0010
,
0000
0100
0000
1000
0001
1000
0000
0220
,
0000
0000
0000
0000
,
0000
0000
0330
0000
;

//---------------dance-single - ----------------
#NOTES:
     dance-single:
     :
     Easy:
     3:
     0.230,0.235,0.127,0.039,0.000:
0000
0000
0000
0000
,
0000
0000
0000
0000
,
0000
0000
0000
0000
,
0000
0000
0000
0000
0000
0000
0000
0010
,
0000
0000
0000
0000
0000
0000
0000
1000
,
0000
0000
0000
0000
0000
0000
0000
0010
,
0000
1000
0000
0000
0000
0000
0000
0001
,
0000
0100
0000
0000
0000
0000
0000
0010
,
0000
1000
0000
0001
0000
0100
0000
0000
,
0000
0010
0000
1000
0000
0001
0000
0100
,
0000
0100
0000
0000
0000
0010
0000
1000
,
0000
0001
0000
0100
0000
0010
0000
1000
,
0000
1000
0000
1000
0000
1000
0000
0001
,
0000
0001
0000
0001
0000
0001
0000
0100
,
0000
0100
0000
0100
0000
0100
0000
0010
,
0000
0010
0000
0010
0000
0010
0000
1000
,
0000
0001
0000
1000
0000
0010
0000
0000
,
0000
0100
0000
0000
0000
1001
0000
0000
,
0000
0010
0000
0100
0000
0001
0000
1000
,
0000
0010
0000
0100
0000
0001
0000
1000
,
0000
0000
0000
1010
0000
0000
0000
0001
,
0000
0000
0000
0101
0000
0000
0000
1001
,
0000
0000
0000
0110
0000
0000
0000
1001
,
0000
0000
0000
0110
0000
0000
0000
1000
,
0000
0000
0000
1100
0000
0000
0000
0001
,
0000
0000
0000
0011
0000
0000
0000
1010
,
0000
0000
0000
0101
0000
0000
0000
1001
,
0000
0000
0000
0000
0000
0000
0000
1000
,
0000
0010
0000
0100
0000
0001
0000
1000
,
0000
0010
0000
0100
0000
0001
0000
1000
,
0000
0010
0000
0100
0000
0001
0000
1000
,
0000
1000
0000
1000
0000
1000
0000
0010
,
0000
0100
0000
0001
0000
0001
0000
1000
,
0000
0010
0000
0100
0000
0001
0000
1000
,
0000
1000
0000
0010
0000
0100
0000
0001
,
0000
1000
0000
0001
0000
1000
0000
0010
,
0000
0010
0000
0010
0000
0010
0000
0100
,
0000
0100
0000
0100
0000
0100
0000
0001
,
0000
0001
0000
0001
0000
0001
0000
1000
,
0000
1000
0000
1000
0000
1000
0000
0010
,
0000
0100
0000
0001
0000
0001
0000
1000
,
0000
0010
0000
0100
0000
0100
0000
0001
,
0000
1000
0000
0010
0000
0010
0000
1000
,
0000
0001
0000
1000
0000
0010
0000
0200
,
0000
0000
0000
0000
,
0000
0000
0000
0300
0000
0000
0000
0010
,
0000
1000
0000
0001
0000
0100
0000
0010
,
0000
1000
0000
0001
0000
0100
0000
0020
,
0000
0000
0000
0000
,
0000
0000
0000
0030
0000
0000
0000
1000
,
0000
0001
0000
0100
0000
0010
0000
1000
,
0000
0001
0000
1000
0000
0001
0000
2002
,
0000
0000
0000
0000
,
0000
0000
0000
3003
0000
0000
0000
0000
;

//---------------dance-single - Copied from----------------
#NOTES:
     dance-single:
     Copied from:
     Beginner:
     1:
     0.060,0.076,0.010,0.039,0.000:
0000
0000
0000
0000
,
0000
0000
0000
0000
,
0000
0000
0000
0000
,
0000
0000
0000
0000
0000
0000
0000
0010
,
0000
0000
0000
0000
0000
0000
0000
0100
,
0000
0000
0000
0000
0000
0000
0000
0010
,
0000
0000
0000
0000
0000
0000
0000
0100
,
0000
0000
0000
0000
0000
0000
0000
0001
,
0000
0000
0000
0000
0000
0000
0000
1000
,
0000
0000
0000
0000
0000
0000
0000
0001
,
0000
0000
0000
0000
0000
0000
0000
1000
,
0000
0000
0000
0000
0000
0000
0000
0010
,
0000
0000
0000
0000
0000
0000
0000
0100
,
0000
0000
0000
0000
0000
0000
0000
0010
,
0000
0000
0000
0000
0000
0000
0000
0100
,
0000
0000
0000
0000
0000
0000
0000
0001
,
0000
0000
0000
0000
0000
0000
0000
1000
,
0000
0000
0000
0000
0000
0000
0000
0001
,
0000
0000
0000
0000
0000
0000
0000
1000
,
0000
0000
0000
0000
0000
0000
0000
0010
,
0000
0000
0000
0000
0000
0000
0000
0010
,
0000
0000
0000
0000
0000
0000
0000
0100
,
0000
0000
0000
0000
0000
0000
0000
0100
,
0000
0000
0000
0000
0000
0000
0000
0010
,
0000
0000
0000
0000
0000
0000
0000
0010
,
0000
0000
0000
0000
0000
0000
0000
0100
,
0000
0000
0000
0000
0000
0000
0000
0100
,
0000
0000
0000
0000
0000
0000
0000
0002
,
0000
0000
0000
0000
,
0000
0000
0000
0000
0000
0003
0000
0000
,
0000
0000
0000
0000
,
0000
0000
0000
0000
0000
0000
0000
2000
,
0000
0000
0000
0000
,
0000
0000
0000
3000
,
0000
0000
0000
0000
0000
0000
0000
0110
,
0000
0000
0000
0000
0000
0000
0000
0001
,
0000
0000
0000
0000
,
0000
0000
0000
0000
0000
0000
0000
1000
,
0000
0000
0000
0000
,
0000
0000
0000
0000
0000
0000
0000
0001
,
0000
0000
0000
0000
,
0000
1000
0000
0000
0000
0000
0000
0000
,
0000
0001
0000
0000
0000
0000
0000
0000
,
0000
0000
0000
1000
0000
0000
0000
0020
,
0000
0000
0000
0000
,
0000
0000
0030
0000
,
0000
0000
0000
0000
0000
0000
0000
0100
,
0000
0000
0000
0000
0000
0000
0000
0200
,
0000
0000
0000
0000
,
0000
0000
0300
0000
,
0000
0000
0000
0000
0000
0000
0000
0001
,
0000
0000
0000
0000
0000
0000
0000
1000
;
