#TITLE:DAWN OF FALCON;
#SUBTITLE:;
#ARTIST:L.E.D.-G;
#TITLETRANSLIT:;
#SUBTITLETRANSLIT:;
#ARTISTTRANSLIT:;
#CREDIT:SupremeX;
#BANNER:DAWN OF FALCON-bn.png;
#BACKGROUND:DAWN OF FALCON-bg.png;
#LYRICSPATH:;
#CDTITLE:CDtitle.png;
#MUSIC:DAWN OF FALCON.ogg;
#OFFSET:-0.050;
#SAMPLESTART:40.288;
#SAMPLELENGTH:12.387;
#SELECTABLE:YES;
#BPMS:0.000=155.000;
#STOPS:;
#BGCHANGES:;

//---------------dance-single - ----------------
#NOTES:
     dance-single:
     :
     Hard:
     9:
     0.649,0.630,0.329,0.141,0.527:
0000
0000
0000
0000
,
0000
0000
0000
0000
,
0000
0000
0000
0000
,
0000
0000
0000
0000
,
1000
0000
0000
0000
0010
0100
0010
0100
0010
0000
0000
0000
1000
0000
0100
0000
,
0010
0000
0001
0000
0010
0000
0001
0000
0010
0000
0100
0000
1000
0100
1000
0100
,
1000
0000
0000
0000
0010
0100
0010
0100
0010
0000
0000
0000
0100
0000
0000
0000
,
0001
1000
0100
1000
0001
0100
0001
0000
,
2000
0000
0100
0000
3100
1000
0100
0010
,
0002
0000
0013
0000
1000
0100
1000
0000
,
0200
0000
0010
0000
0310
0100
0001
0100
,
0010
0000
0000
1010
0000
0000
0101
0000
0000
0000
0010
0000
1000
0000
0100
0000
,
0020
0000
0001
0000
0031
0010
0100
1000
,
0100
0000
0000
1100
0000
0000
0100
0000
0010
0000
0001
0000
0010
0000
0000
0000
,
0200
0000
1000
0000
1300
0100
1000
0100
,
0010
0000
0000
0110
0000
0000
0010
0000
0000
0011
0000
0000
0100
0000
1000
0000
,
0220
0000
0000
0000
,
0330
0001
0100
0001
,
1000
1100
0100
0110
,
0010
0011
0001
1001
,
0100
0110
0001
0101
,
0010
0000
1010
0000
0100
0010
0100
0010
,
1000
1001
0010
0110
,
0001
1001
0100
0110
,
1000
0000
0100
0000
1000
0000
0100
0000
0010
0000
0001
0000
0010
0000
0100
1000
,
0100
0000
0000
0000
0000
0000
0000
0000
1000
0100
0000
1000
0000
0100
0010
0001
,
0010
0000
0100
1000
0100
0000
0110
0001
,
0010
0100
1000
0001
1000
0100
1000
0100
,
0010
0000
0000
0000
0001
0010
0100
1000
0100
0000
0010
0000
0001
0000
0010
0000
,
0100
0000
0010
0000
0001
0000
0010
0000
0100
0000
1000
0000
0100
0000
1000
0100
,
1000
0000
0000
0000
0100
0010
0100
0010
1000
0000
0100
0000
0010
0000
0001
0000
,
0100
0000
0010
0000
0100
0000
0001
0000
1000
0000
0100
0000
1000
0000
0100
1000
,
0100
0000
0000
0000
0010
0000
0001
0000
0010
0000
0000
0000
0100
0000
1000
0100
,
1000
0000
0100
0000
0010
0000
0001
0010
0002
0000
0000
0000
0023
0000
0000
0000
,
0031
0000
0000
0000
1000
0100
1000
0000
0100
0000
0010
0000
0001
0000
0010
0000
,
0100
0000
1000
0000
0100
0000
1000
0000
0001
0000
1000
0000
0100
0000
1000
0001
,
1000
0000
0010
0000
0100
0000
0010
0100
0001
0000
0100
0000
0001
0000
1000
0000
,
0100
0000
1000
0000
0001
0000
0100
0000
0010
0000
1000
0000
0100
0000
0010
0100
,
0010
1000
0001
0100
0001
1000
0010
1000
,
0001
0100
0001
1000
0001
0100
0001
1000
,
0010
0000
0100
0000
0001
0000
0100
0000
0010
0000
0000
0110
0000
0000
1000
0100
,
1000
0000
0000
0110
0000
0000
0010
0000
0001
0000
0000
1001
0000
0000
0100
0001
,
0200
0010
0010
0010
,
0310
0000
0000
1000
0000
0000
1000
0000
0010
0100
0000
0010
,
0100
0000
0000
0001
0000
0000
1000
0000
0000
0001
0000
0100
,
0010
0000
0000
0100
0000
0000
0001
1000
0010
0100
0001
1000
,
0010
0000
0010
0100
0001
0000
0001
0000
1000
0000
0000
0000
1010
0000
0000
0000
,
0001
0000
0000
0101
0000
0000
1000
0000
0010
0100
0000
0010
,
0100
1001
0100
0110
,
0010
1000
0001
0010
0100
1000
0010
0001
0100
0010
0100
0001
,
1000
0000
0000
0000
0000
0000
0000
0000
0001
0000
0000
0000
0010
0000
0000
0000
0000
0000
0000
0000
0010
0000
0000
0000
0100
0000
0000
0000
0000
0000
0000
0000
0100
0000
0000
0000
1000
0000
0000
0100
0000
0000
1000
0000
0000
0000
0000
0000
,
0100
0000
0010
0100
0000
0100
0001
1000
0010
0100
0001
0100
,
0010
0000
1000
0100
0000
0100
0010
0000
0010
0001
0100
0001
,
0100
0000
0000
0000
0000
0000
0000
0000
0010
0000
0000
0000
1000
0000
0000
0000
0000
0000
0000
0000
0010
0000
0000
0000
1000
0000
0000
0000
0000
0000
0001
0000
0000
0100
0000
0000
0000
0000
0000
0010
0000
0000
1000
0000
0000
0000
0000
0000
,
1100
0110
0011
0110
,
1100
0000
0000
0110
0000
0000
0011
0000
0100
1000
0000
0100
,
0010
0000
0010
0001
0000
0100
0010
0000
1000
0000
0001
0000
,
1001
0000
0000
0000
0000
0000
0020
0000
0130
0002
0000
1003
,
0100
0000
1000
0100
0000
0010
0001
0000
0010
0001
1000
0010
,
0100
0000
0010
0100
0000
0001
1000
0001
0100
0010
0100
0010
,
1000
0000
0010
1000
0000
0001
0100
0000
0100
0010
1000
0001
,
0010
0000
0000
0000
0000
0000
0000
0000
0010
0000
0000
0000
0100
0000
0000
0000
0000
0000
0000
0000
0100
0000
0000
0000
1000
0000
0000
0000
0000
0000
0000
0000
1000
0000
0000
0000
0000
0000
0000
0000
0000
0000
0100
0000
0000
1000
0000
0000
,
0100
0000
0000
0000
0000
0000
0000
0000
0010
0000
0000
0000
0001
0000
0000
0000
0000
0000
0000
0000
0010
0000
0000
0000
0100
0000
0000
0000
0000
0000
0000
0000
0100
0000
0000
0000
1000
0000
0000
0000
0000
0000
0010
0000
0000
0001
0000
0000
,
0010
0000
0100
1000
0000
0010
0100
0000
0001
0010
0000
0100
,
1000
0000
1000
0010
0000
0101
0000
0000
0010
0100
0000
0001
,
0200
0000
0000
0000
0000
0000
0301
0100
0010
1000
0000
0001
,
0220
0000
0000
0000
,
0330
0000
0000
0000
;

//---------------dance-single - ----------------
#NOTES:
     dance-single:
     :
     Medium:
     6:
     0.398,0.473,0.367,0.103,0.000:
0000
0000
0000
0000
,
0000
0000
0000
0000
,
0000
0000
0000
0000
,
0000
0000
0000
0000
,
1000
0000
0010
0000
,
1000
0000
0001
0000
,
1000
0010
0100
0001
,
1000
1000
0010
0010
,
0100
0000
0001
0000
1000
0000
0010
1000
,
0010
1000
0001
0100
,
0001
0000
1000
0000
0001
0000
0100
0010
,
0100
0001
1000
0010
,
1000
0000
0001
0000
0100
0000
0001
1000
,
0010
0010
0100
0100
,
0001
0000
1000
0000
0100
0000
1000
0010
,
0100
0100
0001
0010
,
0100
2000
0200
0000
,
0000
3300
0000
0000
0000
0000
0000
0000
,
0010
0000
0011
0000
0100
1000
0100
0000
,
0010
0000
0110
0000
0001
1000
0100
0000
,
0100
0000
0110
0000
0001
1000
0001
0000
,
0100
0110
2000
3000
,
0010
0100
0001
0100
,
0010
1000
0010
0100
,
0001
0010
0100
1000
0010
0100
0001
1000
,
0001
0000
1000
0100
,
1000
1010
0001
0100
,
0010
0100
0001
0101
,
1010
0001
1000
0100
,
1000
0100
0011
0110
,
1100
0001
0010
0100
,
1000
0010
0100
0010
,
0110
1000
1100
0010
,
0011
0110
1100
1001
,
0010
0100
0001
0100
,
0010
1000
1010
0101
,
0010
1000
0001
0100
,
0001
1000
0010
1000
,
0110
0001
0101
0010
,
1010
0100
1001
0010
,
0110
1000
0100
1000
,
0001
0100
0001
1000
,
2002
0000
0000
0000
0000
3003
0000
0000
,
0220
0000
0000
0330
,
1001
0100
0010
1000
,
0001
0100
0001
1000
,
0001
0100
0010
1000
,
0010
0100
0001
1000
,
0010
0100
0001
1000
,
0010
0100
0001
1000
,
0010
0100
0010
0000
1000
0010
1000
0000
,
0001
0100
0001
0000
1000
0010
0100
0000
,
0001
0010
0100
0000
1000
0100
0010
0000
,
0001
0100
0010
0000
1000
0001
1000
0000
,
0100
0010
0001
1000
,
0010
0100
0001
1000
,
0100
1000
0001
0100
,
2002
0000
0000
3003
,
0110
0001
1000
1100
,
0010
0001
0010
1100
,
0110
0001
0100
0010
,
1000
0100
1010
0101
,
1001
0010
0100
0010
,
1000
0010
0100
0001
,
0101
0010
1010
0001
,
0110
0000
1001
0000
,
0220
0000
0000
0000
,
0330
0000
0000
0000
;

//---------------dance-single - ----------------
#NOTES:
     dance-single:
     :
     Easy:
     4:
     0.331,0.378,0.160,0.094,0.000:
0000
0000
0000
0000
,
0000
0000
0000
0000
,
0000
0000
0000
0000
,
0000
0000
0000
0000
,
1000
0010
0100
0000
,
0001
1000
0010
0000
,
1000
1000
0001
0001
,
0100
0100
0010
0010
,
1000
0001
0100
0000
,
0010
1000
0001
0000
,
1000
1000
0010
0010
,
0100
0100
0001
0001
,
1000
0010
0100
0001
,
1000
0010
0100
0001
,
1000
1000
0010
0010
,
0100
0100
0001
0001
,
2002
0000
0000
0000
0000
0000
0000
3003
,
0000
0000
0000
0000
,
0100
0010
1000
0010
,
0100
0001
0100
0010
,
1000
0010
0100
0010
,
1000
0001
0100
0010
,
0100
0100
0001
0001
,
1000
1000
0010
0010
,
0100
0100
0001
0001
,
2000
0000
0000
0000
0000
0000
0000
3000
,
0010
0100
0010
1000
,
0001
0100
0010
1000
,
0001
0001
0100
0100
,
0010
0010
1000
0001
,
0100
0010
1000
0010
,
0100
0001
1000
1000
,
0010
0100
0010
1000
,
0001
0100
0010
1000
,
1001
0010
0100
0010
,
1000
0010
0100
0001
,
1000
0010
0100
0001
,
1000
0010
0100
0001
,
1000
1000
0010
0010
,
0100
0100
0001
0001
,
1000
0010
0100
0010
,
1001
0000
0110
0000
,
2002
0000
0000
3003
,
0110
1001
0110
1000
,
1000
0001
0001
0100
,
0010
1000
0010
0100
,
1000
0010
0100
0001
,
0010
0100
0001
0100
,
0010
1000
0001
1000
,
0010
0100
0100
0010
,
0020
0000
0000
0000
0000
0000
0000
0030
,
0200
0000
0000
0000
0000
0000
0000
0300
,
0001
1000
0001
1000
,
1000
0010
0010
0100
,
0100
0001
1000
0010
,
0100
0001
1000
0010
,
0101
0010
1010
0100
,
0002
0000
0000
0000
0000
0000
0000
0003
,
1000
0010
0100
0010
,
1000
0010
0100
0010
,
0101
0010
1000
0010
,
0100
0001
1000
0010
,
1100
0010
0100
0001
,
0100
0010
1000
0001
,
1001
0010
0110
0001
,
1001
0000
0110
0000
,
2002
0000
0000
0000
,
3003
0000
0000
0000
;

//---------------dance-single - ----------------
#NOTES:
     dance-single:
     :
     Beginner:
     2:
     0.094,0.158,0.009,0.103,0.000: // measure 1
0000
0000
0000
0000
,  // measure 2
0000
0000
0000
0000
,  // measure 3
0000
0000
0000
0000
,  // measure 4
0000
0000
0000
0000
,  // measure 5
1000
0000
0000
0000
,  // measure 6
1000
0000
0000
0000
,  // measure 7
0010
0000
0000
0000
,  // measure 8
0010
0000
0000
0000
,  // measure 9
0200
0000
0000
0000
0000
0300
0000
0000
,  // measure 10
0002
0000
0000
0003
,  // measure 11
2000
0000
0000
3000
,  // measure 12
0020
0000
0000
0030
,  // measure 13
0100
0000
0000
0000
,  // measure 14
0100
0000
0000
0000
,  // measure 15
0001
0000
0000
0000
,  // measure 16
0001
0000
0000
0000
,  // measure 17
2000
0000
0000
0000
,  // measure 18
3000
0000
0000
0000
,  // measure 19
0010
0000
0000
0000
,  // measure 20
0100
0000
0000
0000
,  // measure 21
0010
0000
0000
0000
,  // measure 22
0100
0000
0000
0000
,  // measure 23
0001
0000
0000
0000
,  // measure 24
1000
0000
0000
0000
,  // measure 25
0001
0000
0000
0000
,  // measure 26
1000
0000
0000
0000
,  // measure 27
0010
0000
0000
0000
,  // measure 28
0010
0000
0000
0000
,  // measure 29
0100
0000
0000
0000
,  // measure 30
0100
0000
0000
0000
,  // measure 31
0001
0000
0000
0000
,  // measure 32
0001
0000
0000
0000
,  // measure 33
1000
0000
0000
0000
,  // measure 34
1000
0000
0000
0000
,  // measure 35
0010
0000
0000
0000
,  // measure 36
0100
0000
0000
0000
,  // measure 37
0001
0000
0000
0000
,  // measure 38
1000
0000
0000
0000
,  // measure 39
0010
0000
0000
0000
,  // measure 40
0100
0000
0000
0000
,  // measure 41
0001
0000
0000
0000
,  // measure 42
1000
0000
0000
0000
,  // measure 43
0020
0000
0000
0000
,  // measure 44
0030
0000
0000
0000
,  // measure 45
0200
0000
0000
0000
,  // measure 46
0300
0000
0000
0000
,  // measure 47
0020
0000
0000
0000
,  // measure 48
0030
0000
0000
0000
,  // measure 49
2000
0000
0000
0000
,  // measure 50
3000
0000
0000
0000
,  // measure 51
0100
0000
0000
0000
,  // measure 52
0100
0000
0000
0000
,  // measure 53
0010
0000
0000
0000
,  // measure 54
0010
0000
0000
0000
,  // measure 55
0001
0000
0000
0000
,  // measure 56
0001
0000
0000
0000
,  // measure 57
1000
0000
0000
0000
,  // measure 58
1000
0000
0000
0000
,  // measure 59
0010
0000
0000
0000
,  // measure 60
0010
0000
0000
0000
,  // measure 61
0100
0000
0000
0000
,  // measure 62
0100
0000
0000
0000
,  // measure 63
0001
0000
0000
0000
,  // measure 64
0001
0000
0000
0000
,  // measure 65
1000
0000
0000
0000
,  // measure 66
1000
0000
0000
0000
,  // measure 67
2002
0000
0000
0000
,  // measure 68
3003
0000
0000
0000
;
