#TITLE:Chiwawa;
#SUBTITLE:;
#ARTIST:Wanko Ni Mero Mero;
#TITLETRANSLIT:;
#SUBTITLETRANSLIT:;
#ARTISTTRANSLIT:;
#CREDIT:SupremeX;
#BANNER:Chiwawa-bn.png;
#BACKGROUND:Chiwawa-bg.png;
#LYRICSPATH:;
#CDTITLE:;
#MUSIC:Chiwawa.ogg;
#OFFSET:-0.790;
#SAMPLESTART:38.240;
#SAMPLELENGTH:12.000;
#SELECTABLE:YES;
#BPMS:0.000=128.080;
#STOPS:;
#BGCHANGES:0.000=chiwawa.avi=1.000=1=1=0,
99999=-nosongbg-=1.000=0=0=0 // don't automatically add -songbackground-
;

//---------------dance-single - ----------------
#NOTES:
     dance-single:
     :
     Hard:
     8:
     0.542,0.493,0.182,0.017,0.087: // measure 1
0000
0000
0000
0000
,  // measure 2
0000
0000
0000
0000
,  // measure 3
1000
0000
1000
0000
0010
0100
0010
0000
,  // measure 4
1000
0001
0220
0330
,  // measure 5
1000
0010
0100
0000
0100
0001
0010
0000
,  // measure 6
0010
0100
1000
0100
0010
0001
0001
0000
,  // measure 7
1000
0100
1000
0000
0001
0100
0001
0000
,  // measure 8
1010
0000
0101
0000
1000
0010
0010
0000
,  // measure 9
1000
0100
1000
0000
0001
0100
0001
0000
,  // measure 10
1000
0010
1000
0010
0100
0001
0100
0000
,  // measure 11
0010
1000
0010
0000
1000
0001
1000
0000
,  // measure 12
0001
0010
0100
1000
0010
0100
0110
0000
,  // measure 13
0001
0001
1000
0000
0100
0100
1000
0000
,  // measure 14
1000
0001
0100
0010
1000
0001
0001
0000
,  // measure 15
0010
0100
0100
0000
1000
0010
0010
0000
,  // measure 16
1000
0010
0100
0010
1000
0010
0100
0000
,  // measure 17
0010
0000
0100
0010
0100
0000
0000
0000
0001
0000
1000
0001
1000
0000
0000
0000
,  // measure 18
0001
0010
0100
1000
0010
1000
0010
0000
,  // measure 19
0100
0001
0100
0000
0010
1000
0010
1000
,  // measure 20
0001
0100
0001
1000
0010
0100
0110
0000
,  // measure 21
0001
0100
0001
1000
0010
0100
0010
1000
,  // measure 22
0001
0100
0001
1000
0000
0010
1000
1000
,  // measure 23
0010
0100
0010
1000
0010
0100
0001
1000
,  // measure 24
0001
0100
0010
1000
0010
0000
1001
0000
,  // measure 25
0010
0100
0001
1000
0010
0100
0001
1000
,  // measure 26
0010
0100
0001
1000
0010
0100
0001
0001
,  // measure 27
1000
0100
1000
0001
0100
0001
1000
0100
,  // measure 28
1000
0001
0100
0001
1000
0010
0100
0000
,  // measure 29
0001
1001
0110
1001
,  // measure 30
0101
1010
0101
1010
,  // measure 31
0001
0000
0000
0000
1000
0100
1000
0000
0100
0000
0000
0000
0010
0001
0010
0000
,  // measure 32
0001
0000
1000
0100
1000
0100
0010
0100
,  // measure 33
0010
0000
0000
0000
0001
0010
0001
0000
0010
0000
0000
0000
1100
0000
0000
0000
,  // measure 34
0110
0011
1001
0110
,  // measure 35
0010
0000
0000
0000
1000
0001
1000
0000
0001
0000
0000
0000
1000
0100
1000
0000
,  // measure 36
0100
0000
0000
1000
0000
0000
0100
0000
0010
0000
0100
0000
0010
0000
0001
0000
,  // measure 37
1000
0100
1000
0100
1000
0000
0100
0000
0010
0000
0100
0000
0010
0000
0000
0000
,  // measure 38
0001
1000
0001
1000
0001
0000
0010
0000
0100
0000
1000
0000
0010
0000
0000
0000
,  // measure 39
0100
0010
0100
0010
0100
0000
0001
0000
1000
0000
0100
0000
1000
0000
0000
0000
,  // measure 40
0001
1000
0010
1000
0001
0010
0100
0100
,  // measure 41
1000
0100
1000
0100
1000
0000
0100
0000
0010
0000
0001
0000
0001
0000
0000
0000
,  // measure 42
0100
0010
0100
0010
0100
0000
0001
0000
1000
0000
0001
0000
1000
0000
0000
0000
,  // measure 43
0010
1000
0010
1000
0010
0000
0100
0000
0001
0000
1000
0000
0001
0000
0000
0000
,  // measure 44
1000
0100
0010
0001
1000
0100
1100
0000
,  // measure 45
0001
0100
0001
0100
0010
1000
0010
0100
,  // measure 46
0010
1000
0001
1000
0010
0100
0100
0100
,  // measure 47
0001
1000
0100
1000
0001
0100
0001
1000
,  // measure 48
0100
1000
0001
0100
0001
1000
0010
0000
,  // measure 49
1000
0100
1000
0100
0010
0001
0010
0001
,  // measure 50
0010
0100
1000
0100
0010
0001
0100
0100
,  // measure 51
0010
1000
0010
1000
0001
1000
0001
0100
,  // measure 52
0010
0100
0001
1000
0100
1000
0001
0000
,  // measure 53
0100
0010
0100
0001
1000
0010
0100
0001
,  // measure 54
1000
0100
1000
0001
0100
0100
0010
0010
,  // measure 55
1000
0001
0100
0001
1000
0001
0100
0001
,  // measure 56
1000
0001
0100
0001
1000
0010
0110
0000
,  // measure 57
0001
1000
0010
0100
0001
1000
0010
0100
,  // measure 58
0001
1000
0010
0100
0001
1000
0001
0001
,  // measure 59
0100
0010
1000
0010
0100
0010
1000
0010
,  // measure 60
0100
0001
0010
0100
1000
0010
1001
0000
;

//---------------dance-single - ----------------
#NOTES:
     dance-single:
     :
     Medium:
     5:
     0.396,0.337,0.217,0.035,0.000:
0000
0000
0000
0000
,
0000
0000
0000
0000
,
0010
0000
0010
0000
1000
0001
1000
0000
,
0100
0010
0002
0003
,
0100
0100
0100
0000
0010
0010
0010
0000
,
1000
0000
0100
0000
0001
0100
0010
0000
,
1000
1000
1000
0000
0001
0001
0001
0000
,
0010
0100
1000
1000
,
0010
0100
0100
0000
0001
1000
1000
0000
,
0001
0000
1000
0000
0010
0100
0010
0000
,
1000
1000
1000
0000
0001
0001
0001
0000
,
0100
0010
0100
0000
0010
0010
0010
0000
,
1000
0100
1100
1100
,
0010
0000
0001
0000
0010
0100
1000
0000
,
0100
0010
0101
1010
,
0100
0000
0010
0000
1000
0001
1000
0000
,
0001
0101
0010
1010
,
0001
0000
1000
0000
0100
0010
0001
0000
,
0100
0000
0100
0000
0010
1000
0100
0000
,
0100
0001
1000
0000
1000
0100
0010
0000
,
0001
0000
0001
0000
0010
1000
0100
0000
,
0100
0000
1000
0000
1000
0000
0100
0100
,
1000
0000
1000
0000
0001
0100
0001
0000
,
1000
0000
0100
0000
0010
0001
0010
0000
,
0100
1000
1100
1001
,
0100
0000
0010
0000
1000
0001
1000
0000
,
0100
0000
0010
0000
0001
0010
0100
0000
,
1000
0000
1000
0000
0001
0100
0010
0000
,
0010
1000
1000
0010
,
0101
1001
0110
1001
,
0100
0010
0100
0010
,
2000
0000
0000
3000
0001
0000
0001
0000
,
1000
0000
0010
1000
0100
0000
0100
0000
,
1001
0100
0110
0101
,
1000
0000
0001
0100
0010
0000
0010
1000
,
0001
0001
1000
0100
,
0100
1000
0100
0000
1000
1000
1000
0000
,
0001
0100
0010
0000
0100
0100
0100
0000
,
0001
0010
0100
0000
1000
1000
1000
0000
,
0100
0001
0010
0000
0010
1000
0100
0000
,
0100
0000
0010
0000
0010
0001
1000
0000
,
1000
0000
0101
0000
1000
0010
0100
0000
,
0100
0000
0001
0000
1000
0010
0100
0000
,
0100
0000
0001
0000
1000
0010
1000
0000
,
0100
0000
0010
0000
0001
1000
0001
0000
,
0110
0000
0110
0000
1000
0100
0100
0000
,
0010
0000
0011
0000
0100
1000
0100
0000
,
0010
0011
1000
1001
,
0100
0000
0010
0000
0001
1000
0001
0000
,
0100
0010
0100
0000
1001
0000
0110
0000
,
0001
0000
1000
0000
0010
0100
0010
0000
,
1000
0001
0220
0330
,
1000
1000
1000
0000
0001
0001
0001
0000
,
0100
0100
0100
0000
0010
1000
0010
0000
,
1000
1000
1000
0000
0001
0001
0001
0000
,
0100
0100
0100
0000
0010
0000
1010
0000
,
0001
0100
0001
0000
1000
0100
1000
0000
,
0001
1000
0001
0000
0100
0000
0100
0000
,
0010
1000
0001
0000
0001
1000
0100
0000
,
0100
1000
0001
0000
1000
0100
0010
0000
;

//---------------dance-single - ----------------
#NOTES:
     dance-single:
     :
     Easy:
     3:
     0.288,0.259,0.061,0.069,0.000:
0000
0000
0000
0000
,
0000
0000
0000
0000
,
0010
0010
0000
1000
,
0001
1000
0020
0030
,
0100
0100
0001
0001
,
1000
0010
0100
0100
,
0010
0010
1000
1000
,
0001
1000
0001
1000
,
0010
0010
0100
0100
,
0001
1000
0010
0100
,
0001
0001
1000
1000
,
0010
0100
0010
0100
,
0001
1000
0001
0001
,
0000
1000
0000
1010
,
0100
0100
0001
0001
,
1000
0000
1001
0000
,
0010
0010
1000
1000
,
0001
0100
0001
0100
,
0010
0010
1000
1000
,
0001
0001
1000
0010
,
0100
0100
0100
0100
,
0100
0100
0100
0101
,
0010
0010
0010
0010
,
0010
0010
0010
1000
,
0100
0100
0100
0100
,
0100
0100
0100
1001
,
0010
0010
0010
0010
,
0010
0010
0010
0010
,
1000
0001
0001
1000
,
0001
1000
0001
1000
,
0010
0100
0100
0010
,
0010
1000
1000
0001
,
0100
0001
0001
1000
,
0001
1000
0001
0100
,
0010
0100
0100
0010
,
1000
0001
0100
0010
,
2000
0000
0010
3010
,
0002
0000
0000
0103
,
0020
0000
0000
1030
,
0001
1000
0001
1000
,
0020
0000
0100
0130
,
2000
0000
0001
3001
,
0020
0000
0100
0130
,
0001
1000
0001
0001
,
1000
0010
1000
0010
,
1000
0010
0100
0100
,
0001
1000
0001
1000
,
0001
1000
0010
0010
,
0100
0001
0100
0001
,
0100
0001
0100
0010
,
1000
0010
1000
0010
,
0100
0001
2000
3000
,
0010
0010
0100
0100
,
0001
0001
0001
1001
,
1000
1000
0010
0010
,
0100
0100
0001
1000
,
0010
0010
1000
1000
,
0001
0001
0001
0101
,
0010
0010
1000
1000
,
0001
1000
0010
1010
;

//---------------dance-single - Copied from----------------
#NOTES:
     dance-single:
     Copied from:
     Beginner:
     1:
     0.079,0.128,0.000,0.035,0.000:
0000
0000
0000
0000
,
0000
0000
0000
0000
,
0010
0000
0000
0000
,
0010
0000
0000
0000
,
1000
0000
0000
0000
,
1000
0000
0000
0000
,
0001
0000
0000
0000
,
0001
0000
0000
0000
,
0100
0000
0000
0000
,
0100
0000
0000
0000
,
0010
0000
0000
0000
,
0010
0000
0000
0000
,
1000
0000
0001
0000
,
0000
0000
0000
0000
,
1000
0000
0001
0000
,
0000
0000
0000
0000
,
0100
0000
0010
0000
,
0000
0000
0000
0000
,
0100
0000
0010
0000
,
0000
0000
0000
0000
,
1000
0000
0000
0000
,
1000
0000
0000
0000
,
0001
0000
0000
0000
,
0001
0000
0000
0000
,
1000
0000
0000
1000
,
0000
0000
0000
0000
,
0001
0000
0000
0000
,
0001
0000
0000
0000
,
1000
0000
1000
0000
,
1000
0000
1000
0000
,
0010
0000
0010
0000
,
0010
0000
0000
0000
,
0100
0000
0100
0000
,
0100
0000
0001
0000
,
0001
0000
0001
0000
,
0001
0000
0000
0000
,
2000
0000
0000
0000
,
0000
0000
0000
3000
,
0020
0000
0000
0000
,
0000
0000
0000
0030
,
0200
0000
0000
0000
,
0000
0000
0000
0300
,
0002
0000
0000
0000
,
0003
0000
0000
0000
,
1000
0000
0000
0000
,
1000
0000
0000
0000
,
0001
0000
0000
0000
,
0001
0000
0000
0000
,
1000
0000
0000
0000
,
1000
0000
0000
0000
,
0001
0000
0000
0000
,
0001
0000
0000
0000
,
0100
0000
0000
0000
,
0010
0000
0000
0000
,
0100
0000
0000
0000
,
0010
0000
0000
0000
,
1000
0000
0000
0000
,
0001
0000
0000
0000
,
1000
0000
0000
0000
,
0001
0000
0000
0000
;
