#TITLE:Can't Stop;
#SUBTITLE:;
#ARTIST:KaSa;
#TITLETRANSLIT:Cant Stop;
#SUBTITLETRANSLIT:;
#ARTISTTRANSLIT:;
#GENRE:;
#CREDIT:SupremeX;
#BANNER:Cant Stop-bn.png;
#BACKGROUND:Cant Stop-bg.png;
#LYRICSPATH:;
#CDTITLE:;
#MUSIC:Cant Stop.ogg;
#OFFSET:-1.538775;
#SAMPLESTART:91.699997;
#SAMPLELENGTH:12.000000;
#SELECTABLE:YES;
#BPMS:0.000000=128.000000
;
#STOPS:
;
#BGCHANGES:;
#KEYSOUNDS:;
#ATTACKS:;

//---------------dance-single - ----------------
#NOTES:
     dance-single:
     :
     Hard:
     8:
     0.514570,0.527291,0.264146,0.056031,0.000000,450.000000,417.000000,33.000000,7.000000,0.000000,0.000000,0.514570,0.527291,0.264146,0.056031,0.000000,450.000000,417.000000,33.000000,7.000000,0.000000,0.000000:
0000
0000
0000
0000
,
0000
0000
0000
0000
,
0000
0000
0000
0000
,
0000
0000
0000
0000
,
0100
0010
1000
0010
0100
0001
0100
0010
,
1000
0010
0100
0001
1000
0001
0100
0010
,
0100
0001
0010
0100
1000
0010
0100
0010
,
1000
0001
0100
0001
1000
0010
1000
0001
,
1000
0010
0100
0010
1000
0001
1000
0010
,
0100
0001
1000
0001
1000
0010
0100
0000
,
0001
0100
0001
1000
0010
1000
0001
0100
,
0010
0100
0001
1000
0010
0100
0001
0100
,
0010
0010
1000
0001
1000
0100
1000
0001
,
0100
0010
0100
0001
1000
0001
1000
0100
,
1000
0001
1000
0010
0100
0010
1000
0100
,
0110
0011
1100
0010
,
0000
0001
0001
0000
0011
0000
0100
1000
,
0100
0010
0010
0000
1001
0000
1000
0100
,
1000
0100
0100
0000
0110
0010
0001
1000
,
0010
0100
0010
1000
1001
0000
1000
0010
,
0100
0001
0101
0000
0010
1000
0100
1000
,
0100
0010
0011
0000
1100
0000
0010
1000
,
0010
0100
0001
0000
1001
1000
0010
0100
,
0010
0100
0100
0001
1000
0010
0100
0010
,
1000
0000
0101
0000
1000
0001
0100
0001
,
1000
1000
1001
0000
0100
0010
0100
0001
,
1000
0001
0110
0000
1000
0100
0010
0001
,
1000
0010
0110
0100
0110
0001
0010
0100
,
1000
0010
1010
0000
1000
0100
0010
0001
,
0010
0100
1100
0000
1001
0000
0100
0010
,
0100
0010
0010
0000
1000
0100
1000
0001
,
0100
0001
1000
1000
0100
0010
0001
0010
,
0100
0000
1001
0000
1001
0000
0010
0010
,
0010
0100
0100
1000
0001
0000
1000
0100
,
0010
0100
0100
0001
1000
0000
0001
0001
,
1000
0010
0100
0001
1000
0000
0010
0010
,
0100
0001
0010
0100
1000
0000
0100
0100
,
0000
0010
0001
1000
1100
0000
0010
0010
,
0100
0001
0100
0001
1000
0000
0100
0100
,
0010
1000
0001
1000
0010
0000
0100
0100
,
0001
0010
0100
1000
0010
0100
0001
0100
,
0010
1000
0100
0010
0001
1000
0100
1000
,
0001
1000
0100
1000
0001
0010
0100
1000
,
0100
0010
0100
1000
0001
0010
0100
0010
,
0001
1000
0100
1000
0100
0010
0001
1000
,
0010
1000
0010
0100
0010
1000
0010
0100
,
0001
0100
0010
1000
0010
0100
0001
0100
,
0101
1010
1100
1001
,
0000
0100
0100
0000
0100
0000
0001
1000
,
0010
1000
0001
0000
0110
0000
1000
0100
,
0010
0001
0001
0000
0011
0000
1000
0100
,
1000
0001
0001
0001
0110
0000
0100
0010
,
1000
0001
0100
0000
1001
0000
0010
0010
,
0010
1000
1000
0000
0101
0000
0010
1000
,
0001
1000
0001
0000
0110
0000
1000
0100
,
0010
0001
1000
0100
1000
0001
0010
0100
,
1000
0001
0001
0000
2000
0000
3010
0100
,
0001
1000
1000
0000
0200
0000
0310
0001
,
0010
0100
0100
0000
2000
0000
3010
1000
,
0010
0100
0001
0100
0002
0000
1003
0100
,
0010
0001
0001
0000
2000
0000
3100
0100
,
0010
0001
0001
0000
1000
0100
0010
0001
,
1000
0010
0010
0000
1000
0001
1000
0100
,
0010
0001
1000
1000
0001
0010
0100
1000
,
2002
0000
0000
0000
,
0000
0000
0000
0000
0000
0000
0000
3003
;

//---------------dance-single - ----------------
#NOTES:
     dance-single:
     :
     Medium:
     5:
     0.355625,0.369104,0.184102,0.016009,0.000000,311.000000,288.000000,23.000000,2.000000,0.000000,0.000000,0.355625,0.369104,0.184102,0.016009,0.000000,311.000000,288.000000,23.000000,2.000000,0.000000,0.000000:
0000
0000
0000
0000
,
0000
0000
0000
0000
,
0000
0000
0000
0000
,
0000
0000
0000
0000
,
1000
0000
0010
0000
0100
0001
0100
0000
,
0010
0000
1000
0000
0001
1000
0001
0000
,
0100
0000
0010
0000
1000
0001
0100
0000
,
0100
0000
0001
0000
1000
0100
0010
0000
,
0010
0000
0001
0000
1000
0100
1000
0000
,
0010
0000
0010
0000
0100
0001
0100
0000
,
0010
0000
1000
0000
0001
0010
0100
0000
,
1000
0000
0100
0000
1000
0100
0010
0000
,
0011
0000
1001
0000
0010
0100
0010
0000
,
1000
0001
1000
0000
0010
0000
0010
0000
,
0100
0001
0010
0000
0010
1000
0001
0000
,
0100
0010
1000
0000
0110
0000
1001
0000
,
0010
0100
0001
1000
,
0010
0100
0010
0000
1000
0000
0001
0000
,
0100
0000
0001
1000
0001
0000
0100
0000
,
0100
0000
1000
0010
0100
0000
0100
0000
,
0001
0000
0001
0000
1000
0000
0010
0100
,
0010
0000
1000
0000
0001
0000
0010
0100
,
1000
0000
0010
0000
0100
0000
0001
1000
,
0010
0010
1001
1100
,
0010
0001
0010
0100
,
1000
0000
0010
0100
0010
0000
1000
0000
,
0100
0010
1001
0100
,
0100
0000
0001
1000
0010
0000
0010
0000
,
1000
0100
0011
0100
,
1000
0000
0010
0000
0100
0000
0001
1000
,
0001
0000
1000
0000
1100
0000
0001
1000
,
0001
0110
1001
0100
,
0010
0100
0010
1000
,
0001
0001
0100
0100
,
0010
0000
1000
0001
1000
0000
0010
0000
,
0100
0010
1000
0001
,
1000
0010
0100
0010
,
1000
0000
0001
0010
0100
0000
1000
0000
,
0010
0000
0100
0001
1000
0000
1000
0000
,
0010
1001
0100
0010
,
0100
0001
1000
1000
,
0001
0100
0010
0000
0010
1000
0001
0000
,
0001
0000
0100
0000
0010
1000
0010
0000
,
1000
0001
1000
0000
0010
0000
0100
0000
,
1001
0110
0001
0100
,
0010
1000
0010
0000
1000
0001
1000
0000
,
0010
0100
0010
0000
1000
0001
0100
0000
,
0100
0110
1001
1100
,
0001
0000
0100
0000
0001
0000
1000
0100
,
1000
0000
0001
0000
0100
0000
0010
1000
,
0010
0100
0110
0001
,
1000
0000
0010
0100
0010
0000
1000
0000
,
0001
0100
0101
0010
,
1000
0000
0010
0000
1010
0000
0001
0010
,
0100
0000
1000
0000
0010
0000
1000
0100
,
0010
0001
1000
0001
,
0100
0000
0010
0000
0010
0000
1000
0001
,
1000
0000
0010
0000
0010
0000
0100
0001
,
0100
0000
0010
0000
1000
0000
0001
0100
,
0010
0000
0110
0000
1001
0000
0100
0010
,
0100
0000
0001
0000
1000
0000
0010
0100
,
0010
0000
1000
0000
0001
0000
0100
0001
,
1000
0000
1000
0000
0001
0000
0100
0010
,
0100
0000
0001
0000
1000
0000
0010
1000
,
2002
0000
0000
0000
,
0000
0000
0000
0000
0000
0000
0000
3003
;

//---------------dance-single - ----------------
#NOTES:
     dance-single:
     :
     Easy:
     3:
     0.285872,0.342739,0.072040,0.008004,0.000000,250.000000,241.000000,9.000000,1.000000,0.000000,0.000000,0.285872,0.342739,0.072040,0.008004,0.000000,250.000000,241.000000,9.000000,1.000000,0.000000,0.000000:
0000
0000
0000
0000
,
0000
0000
0000
0000
,
0000
0000
0000
0000
,
0000
0000
0000
0000
,
0010
0010
0010
0010
,
0010
1000
1000
1000
,
1000
0001
0001
0001
,
0001
0100
0100
0100
,
0010
1000
0001
1000
,
0010
0100
0001
0100
,
0001
1000
0010
1000
,
0010
0100
0001
1000
,
0001
1000
0001
0100
,
0010
1000
0001
0100
,
0010
1000
0010
0100
,
1001
1001
1001
1001
,
0010
0010
0100
0100
,
0100
0001
0001
0001
,
1000
1000
1000
0010
,
0010
0100
0001
0100
,
0010
1000
0001
0001
,
0100
0100
0010
0010
,
1000
1000
0001
0001
,
0100
0010
1000
0010
,
0100
0001
1000
0001
,
0001
0001
0100
0010
,
1000
1000
0001
0100
,
0010
0010
0010
1000
,
0001
1000
0001
0100
,
0100
0010
1000
0001
,
0100
0010
0010
1000
,
0001
0100
0001
1000
,
0001
1000
1000
1000
,
0010
0010
0100
0100
,
0100
0100
0001
0001
,
0001
0001
1000
1000
,
1000
1000
0010
0100
,
0001
0100
0010
1000
,
0001
1000
0010
0100
,
0100
0100
0001
1000
,
0001
1000
0100
0010
,
0001
1000
0100
0010
,
0001
1000
0010
1000
,
0001
0100
0001
1000
,
0010
0010
1000
1000
,
0001
0001
0100
0010
,
0100
0001
1000
0001
,
1001
1001
1001
1001
,
0010
0100
0001
0001
,
0001
1000
0010
1000
,
1000
0001
0100
0010
,
0010
1000
0001
1000
,
1000
0010
0100
0001
,
0001
0100
0010
1000
,
1000
0010
0100
0001
,
1000
0010
0010
0100
,
0001
1000
1000
0010
,
0100
0100
0001
1000
,
0010
0100
0001
1000
,
1000
0010
0110
0001
,
0001
0001
1000
1000
,
0010
0100
0001
1000
,
0010
0100
0100
0001
,
1000
0010
0010
1000
,
0002
0000
0000
0000
,
0000
0000
0000
0000
0000
0000
0000
0003
;

//---------------dance-single - Copied from----------------
#NOTES:
     dance-single:
     Copied from:
     Beginner:
     1:
     0.069753,0.076842,0.000000,0.000000,0.000000,61.000000,61.000000,0.000000,0.000000,0.000000,0.000000,0.069753,0.076842,0.000000,0.000000,0.000000,61.000000,61.000000,0.000000,0.000000,0.000000,0.000000:
0000
0000
0000
0000
,
0000
0000
0000
0000
,
0000
0000
0000
0000
,
0000
0000
0000
0000
,
0001
0000
0000
0000
,
0001
0000
0000
0000
,
0001
0000
0000
0000
,
0001
0000
0000
0000
,
0100
0000
0000
0000
,
0100
0000
0000
0000
,
0100
0000
0000
0000
,
0100
0000
0000
0000
,
0010
0000
0000
0000
,
0010
0000
0000
0000
,
0010
0000
0000
0000
,
1000
0000
0000
0000
,
0010
0000
0000
0000
,
1000
0000
0000
0000
,
0010
0000
0000
0000
,
1000
0000
0000
0000
,
0001
0000
0000
0000
,
0100
0000
0000
0000
,
0001
0000
0000
0000
,
0100
0000
0000
0000
,
0010
0000
0000
0000
,
0010
0000
0000
0000
,
0010
0000
0000
0000
,
0010
0000
0000
0000
,
1000
0000
0000
0000
,
1000
0000
0000
0000
,
1000
0000
0000
0000
,
1000
0000
0000
0000
,
0001
0000
0000
0000
,
0100
0000
0000
0000
,
0010
0000
0000
0000
,
1000
0000
0000
0000
,
0010
0000
0000
0000
,
0100
0000
0000
0000
,
0001
0000
0000
0000
,
0100
0000
0000
0000
,
0010
0000
0000
0000
,
1000
0000
0000
0000
,
1000
0000
0000
0000
,
1000
0000
0000
0000
,
0001
0000
0000
0000
,
0001
0000
0000
0000
,
0001
0000
0000
0000
,
0100
0000
0000
0000
,
0010
0000
0000
0000
,
0010
0000
0000
0000
,
0010
0000
0000
0000
,
0010
0000
0000
0000
,
1000
0000
0000
0000
,
1000
0000
0000
0000
,
1000
0000
0000
0000
,
0001
0000
0000
0000
,
0001
0000
0000
0000
,
0100
0000
0000
0000
,
0100
0000
0000
0000
,
0100
0000
0000
0000
,
0100
0000
0000
0000
,
0010
0000
0000
0000
,
0010
0000
0000
0000
,
0010
0000
0000
0000
,
0010
0000
0000
0000
;
