#TITLE:CYBER GANG;
#SUBTITLE:;
#ARTIST:ヒゲドライVAN;
#TITLETRANSLIT:;
#SUBTITLETRANSLIT:;
#ARTISTTRANSLIT:Hige DriVAN;
#GENRE:;
#CREDIT:SupremeX;
#BANNER:CYBER GANG-bn.png;
#BACKGROUND:CYBER GANG-bg.png;
#LYRICSPATH:;
#CDTITLE:;
#MUSIC:CYBER GANG.ogg;
#OFFSET:-1.067389;
#SAMPLESTART:36.500000;
#SAMPLELENGTH:12.000000;
#SELECTABLE:YES;
#BPMS:0.000000=175.000000
;
#STOPS:
;
#BGCHANGES:;
#KEYSOUNDS:;
#ATTACKS:;

//---------------dance-single - ----------------
#NOTES:
     dance-single:
     :
     Hard:
     9:
     0.625206,0.609400,0.427387,0.162407,0.132490,512.000000,462.000000,50.000000,19.000000,0.000000,0.000000,0.625206,0.609400,0.427387,0.162407,0.132490,512.000000,462.000000,50.000000,19.000000,0.000000,0.000000:
0000
0000
0000
0000
,
0000
0000
0000
0000
0000
0000
0000
1000
,
0000
0100
0000
0000
0010
0000
0000
0000
0001
0000
1000
0000
0001
0000
0100
0000
,
0000
0010
0000
0000
1000
0000
0000
0000
0001
0000
0100
0000
0010
0000
1000
0000
,
0000
0001
0000
0000
1000
0000
0000
0000
0010
0000
0100
0000
0010
0000
1000
0000
,
0000
0001
0000
0000
1000
0000
0000
0000
0001
0000
0010
0000
0100
0000
1000
0000
,
0000
0100
0000
0000
1000
0000
0000
0000
0001
0000
0100
0000
0010
0000
1000
0000
,
0000
0010
0000
0000
0100
0000
0000
0000
0001
0000
1000
0000
0100
0000
0010
0000
,
0000
0011
0000
0110
0000
1001
0000
0010
,
0000
0100
0000
0000
0001
0000
1000
0000
0000
0000
0000
0000
0000
0000
0100
0000
,
0000
0100
1000
0001
0010
0100
1000
0001
,
0000
0100
0000
2010
0000
3001
0000
1001
,
0000
0100
0001
1000
0001
0100
0010
1000
,
0000
0001
0000
0200
0000
0310
0000
0110
,
0000
0001
1000
0100
0010
0001
1000
0100
,
0000
1100
0000
0020
0000
0031
0000
0101
,
0000
1000
0000
0010
0000
1000
0000
0110
,
0000
0011
0000
1001
0000
0110
0000
0001
,
0010
0100
1000
0100
1000
0010
0100
0001
,
0100
0010
1000
0001
0100
0010
1000
0001
,
0100
0001
0100
0010
1000
0010
0100
0001
,
1000
0100
0010
0001
1000
0100
1000
0001
,
0100
0010
1000
0010
0100
0001
1000
0010
,
0100
0010
1000
0001
0100
0010
0000
0100
,
0100
0100
0100
0100
0100
0100
0100
0001
,
0000
1001
0000
1100
0000
0011
0000
0100
,
0000
1000
0000
0000
0100
0000
0000
0000
0010
0000
0001
0000
0010
0000
0100
0000
,
0000
1000
0000
0000
0010
0000
0000
0000
0100
0000
0001
0000
0000
0000
0000
0000
,
1000
0010
0100
0001
0100
0010
1000
0010
,
0000
1001
0000
2200
0000
3300
0000
0010
,
0000
0001
0000
0000
0010
0000
0000
0000
1000
0000
0010
0000
0100
0000
0001
0000
,
0000
1000
0000
0000
0001
0000
0000
0000
0100
0000
0001
0000
0000
0000
0000
0000
,
1000
0010
0100
0010
1000
0001
0000
0110
,
0000
1100
0000
1001
0000
0000
0000
0010
,
0000
0110
0000
0000
0101
0000
0000
0000
1000
0000
0100
0000
0010
0000
0001
0000
,
0000
0110
0000
0000
1100
0000
0000
0000
0001
0000
1000
0000
0000
0000
0000
0000
,
0010
0000
0100
0000
0010
0000
1000
0000
0000
0001
0000
0000
1000
0000
0020
0000
,
0000
0230
0000
0302
0000
0103
0000
0020
,
0000
1000
0000
1000
0000
1000
0000
1030
,
0000
0001
0000
0100
0010
0010
0010
0000
,
1000
0001
1000
0010
0100
0001
0000
1100
,
0000
1001
0000
0110
0000
0000
0000
1100
,
0000
1001
0000
0110
0000
1000
0001
0000
,
0100
0000
0100
0010
0000
0000
0000
1001
,
0000
1100
0000
1001
0000
0100
0010
0000
,
0100
0000
0001
1000
0000
0110
0000
0001
,
0100
0001
0100
0010
1000
0010
1000
0001
,
0100
0010
1000
0001
0100
0010
1000
0001
,
0100
0010
0100
0001
1000
0010
0100
0010
,
1000
0100
0010
0001
1000
0010
0100
0001
,
0000
1000
0000
0000
0010
0000
1000
0000
0000
0100
0000
0000
0010
0000
0001
0000
,
0000
1000
0000
0000
0001
0000
0100
0000
0000
0010
0000
0000
1000
0000
0001
0000
,
0000
0100
0000
0000
0100
0000
0010
0000
0000
1000
0000
0000
1000
0000
0100
0000
,
0000
0010
0000
0000
0010
0000
0001
0000
0000
0100
0000
0000
0100
0000
0010
0000
,
1000
0001
1000
0010
0100
0001
1000
0010
,
0100
0010
1000
0001
0100
0010
0000
1001
,
0000
0100
0010
0100
0010
1000
0001
0100
,
0001
1000
0010
0100
0010
1000
0000
0110
,
0000
0001
1000
0100
1000
0100
0010
0001
,
0010
0001
1000
0010
1000
0001
0100
0010
,
1000
0010
0100
0001
1000
0010
0100
0001
,
0000
1100
0000
1001
0000
0110
0000
0000
,
0000
0000
0000
0000
0000
0000
0000
0001
,
0000
0010
0000
0000
0100
0000
0000
0000
1000
0000
0100
0000
1000
0000
0001
0000
,
0000
0010
0000
0000
0100
0000
0000
0000
1000
0000
0010
0000
0000
0000
0000
0000
,
0100
0000
0001
0000
1000
0000
0010
0000
0000
0010
0000
0000
1000
0000
0200
0000
,
0000
0320
0000
0032
0000
1003
0000
0010
,
0000
0100
0000
0000
0010
0000
0000
0000
1000
0000
0100
0000
0010
0000
0001
0000
,
0000
0100
0000
0000
0001
0000
0000
0000
0001
0000
0100
0000
0000
0000
0000
0000
,
0010
0000
1000
0000
0010
0000
0100
0000
0000
0100
0000
0000
0001
0000
0020
0000
,
0000
0230
0000
2300
0000
3100
0000
1000
,
0000
0100
0000
0000
0010
0000
0000
0000
0001
0000
0010
0000
0100
0000
1000
0000
,
0000
0100
0000
0000
1000
0000
0000
0000
0001
0000
0100
0000
0000
0000
0000
0000
,
0001
0000
0010
0000
0100
0000
1000
0000
0000
0001
0000
0000
1000
0000
0020
0000
,
0000
0230
0000
0302
0000
1003
0000
0200
,
0000
1000
0000
1000
0000
1000
0000
1300
,
0000
0001
0000
0100
0001
0001
0001
0000
,
0010
0100
1000
0001
0100
0001
0000
0110
,
0000
1100
0000
1001
0000
0000
0000
0110
,
0000
0101
0000
1010
0000
0001
0100
0000
,
0100
0000
0010
1000
0000
0000
0000
1001
,
0000
0110
0000
1001
0000
0010
0100
0000
,
0100
0000
0001
1000
0000
0110
0000
0001
,
1000
0100
0010
0001
1000
0100
1000
1001
;

//---------------dance-single - ----------------
#NOTES:
     dance-single:
     :
     Medium:
     6:
     0.510422,0.537706,0.264980,0.059834,0.000000,418.000000,387.000000,31.000000,7.000000,0.000000,0.000000,0.510422,0.537706,0.264980,0.059834,0.000000,418.000000,387.000000,31.000000,7.000000,0.000000,0.000000:
0000
0000
0000
0000
,
0000
0000
0000
0000
0000
0000
0000
1000
,
0000
0010
0000
0100
0010
1000
0000
0001
,
0000
0100
0000
0001
1000
0001
0000
0100
,
0000
0010
0000
1000
0001
0100
0000
0100
,
0000
0001
0000
1000
0100
1000
0000
0001
,
0000
1000
0000
0010
0100
0010
0000
1000
,
0000
0001
0000
1000
0100
0010
0000
0001
,
0000
1000
0000
0010
0000
0100
0000
0001
,
0000
1010
0000
0101
0000
0000
0000
0010
,
0000
1000
0000
0001
0000
0100
0000
0010
,
1000
0100
0010
0001
1000
0100
0000
1000
,
0000
0001
0000
0010
0000
0100
0000
1000
,
0000
0001
0000
1000
0010
0100
0010
0100
,
0000
0001
0000
0001
0000
1000
0000
0010
,
0000
1000
0000
0001
0100
0010
1000
0001
,
0000
1000
0000
0010
0000
0100
0000
0101
,
0000
1010
0000
1001
0000
0110
0000
0001
,
0000
0010
0000
0100
1000
0100
0000
0010
,
0000
0001
0000
1000
0000
0100
0000
0020
,
0000
0001
0000
0001
0000
0031
0000
1000
,
0000
0001
0000
0100
0000
0010
0000
2000
,
0000
0100
0000
0100
0000
3100
0000
1000
,
0000
0001
0000
0100
0000
0001
0000
1000
,
0000
0010
0000
0110
0000
0001
0000
1001
,
0000
0110
0000
1001
0000
0010
0000
0200
,
0000
0010
0000
0010
0000
0310
0000
0002
,
0000
1000
0000
1000
0000
1003
0000
0010
,
0000
0100
0000
0001
1000
0100
0000
0100
,
1000
0010
0000
0100
1000
0001
0000
0200
,
0000
0001
0000
0001
0000
0301
0000
0020
,
0000
1000
0000
1000
0000
1030
0000
0000
,
0001
0010
0100
1000
0000
0010
0000
1000
,
0000
0001
0000
1001
0000
0000
0000
0100
,
0010
0100
0000
0001
1000
0001
0000
1000
,
0100
0010
0000
0001
0010
0100
0000
1000
,
0000
1100
0000
0010
0000
0011
0000
1000
,
0000
0010
0000
0110
0000
0001
0000
1000
,
0000
0010
0100
0010
0000
1000
0001
0100
,
0000
0100
0000
0010
0000
1000
0000
1000
,
0010
0100
0000
0001
0000
1000
0000
0001
,
0100
0010
0000
1000
0000
0001
0000
1100
,
0000
0010
0000
0011
0000
1000
0000
0101
,
0000
1010
0000
0101
0000
0000
0000
1000
,
0000
0100
0000
1001
0000
0010
0000
0100
,
0000
1001
0000
0110
0000
0000
0000
0001
,
0100
0010
0000
0010
1000
0001
0000
0100
,
0001
1000
0000
0010
0100
0010
0000
1000
,
0001
0100
0000
0100
0001
1000
0000
0010
,
0100
0001
0000
1000
0100
0010
0000
0001
,
0100
0001
0010
0100
1000
0010
0000
1000
,
0100
0010
0001
0100
0001
0100
0000
0010
,
1000
0001
0100
0010
1000
0001
0000
1000
,
0100
0010
0001
0010
0001
0000
1000
0000
,
1000
0000
0000
0010
0000
0100
0000
0001
,
0000
1000
0000
0001
0100
0010
0100
0001
,
0000
1000
0000
0010
0000
0100
0000
0001
,
0000
1000
0000
0010
0100
0001
1000
0010
,
0000
1000
0000
0100
0000
0010
0000
0001
,
0000
1000
0000
0100
0000
1000
0000
0001
,
0010
0100
0000
1000
0001
1000
0000
0010
,
0100
0010
0000
0100
0000
0100
0000
0001
,
0000
0000
0000
0000
0000
0000
0000
1000
,
0000
0010
0000
1000
0000
0001
0000
0100
,
0010
0100
0000
0001
0000
1000
0000
0000
,
0000
0100
0000
0010
0000
0100
0000
0001
,
1000
0001
0000
1000
0100
1000
0000
0100
,
0000
0011
0000
1000
0000
1100
0000
0001
,
0000
1001
0000
0010
0000
0110
0000
1000
,
0000
0100
0000
0010
0001
0010
0000
0100
,
0000
1000
0000
0101
0000
0000
0000
0010
,
0000
1010
0000
0100
0000
1001
0000
0010
,
0000
0110
0000
1000
0000
0101
0000
0000
,
0000
1000
0000
0100
0000
0010
0000
0001
,
0100
0001
1000
0010
1000
0001
0000
0100
,
0000
0010
0000
0100
0000
0001
0000
1000
,
0000
0001
0000
1000
0100
1000
0000
0001
,
0100
0001
0000
1000
0000
0010
0000
0100
,
0001
1000
0010
0100
0000
0001
0000
1000
,
0000
0010
0000
0100
0000
0001
0000
1000
,
0010
0100
0010
0100
0000
0001
0000
1000
,
0000
0001
0000
0100
0000
0001
1000
0001
,
0100
0010
0100
0001
0000
1000
0000
0020
,
0000
0100
0000
0100
0000
0100
0000
0130
;

//---------------dance-single - ----------------
#NOTES:
     dance-single:
     :
     Easy:
     3:
     0.383427,0.394318,0.188050,0.034191,0.000000,314.000000,292.000000,22.000000,4.000000,0.000000,0.000000,0.383427,0.394318,0.188050,0.034191,0.000000,314.000000,292.000000,22.000000,4.000000,0.000000,0.000000:
0000
0000
0000
0000
,
0000
0000
0000
0000
0000
0000
0000
1000
,
0000
0010
0000
1000
0000
0001
0000
0100
,
0000
0010
0000
1000
0000
0001
0000
1000
,
0000
0010
0000
0100
0000
0001
0000
1000
,
0000
0001
0000
1000
0000
1000
0000
0010
,
0000
0100
0000
0001
0000
1000
0000
0010
,
0000
0100
0000
0001
0000
0010
0000
0100
,
0000
1000
0000
0010
0000
0100
0000
0001
,
0000
1000
0000
1001
0000
0000
0000
1000
,
0000
1000
0000
1000
0000
1000
0000
0010
,
0000
0100
0000
0001
0000
1000
0000
1001
,
0000
0001
0000
0001
0000
0001
0000
0001
,
0000
0001
0000
0100
0000
0010
0000
0110
,
0000
1000
0000
0010
0000
0100
0000
0010
,
0000
1000
0000
0001
0000
0100
0000
0101
,
0000
0010
0000
1000
0000
0001
0000
0100
,
0000
0010
0000
1000
0000
0001
0000
1000
,
0000
0010
0000
1000
0000
0001
0000
0100
,
0000
0001
0000
1000
0000
0020
0000
0100
,
0000
0100
0000
0100
0000
0130
0000
0001
,
0000
1000
0000
0010
0000
0100
0000
0002
,
0000
0100
0000
0100
0000
0103
0000
0010
,
0000
1000
0000
0010
0000
0100
0000
0001
,
0000
0000
0000
1001
0000
0000
0000
1010
,
0000
0000
0000
0101
0000
0000
0000
1000
,
0000
0010
0000
1000
0000
0001
0000
0100
,
0000
0001
0000
1000
0000
0010
0000
0100
,
0000
0001
0000
0001
0000
0001
0000
0001
,
0000
1000
0000
0010
0000
1000
0000
0001
,
0000
0100
0000
0010
0000
1000
0000
0001
,
0000
1000
0000
0010
0000
0100
0000
0001
,
0000
0100
0000
0100
0000
0100
0000
0010
,
0000
1000
0000
0010
0000
0000
0000
1000
,
0000
0100
0000
0010
0000
0001
0000
1000
,
0000
0010
0000
0100
0000
0001
0000
1000
,
0000
1000
0000
1000
0000
1000
0000
1000
,
0000
0010
0000
0110
0000
0001
0000
0002
,
0000
0000
0000
0003
,
0000
1000
0000
0010
0000
0100
0000
0001
,
0000
1000
0000
0010
0000
0100
0000
0001
,
0000
1000
0000
1010
0000
0000
0000
0101
,
0000
0000
0000
1010
0000
0000
0001
0000
,
1000
0000
0000
0010
0000
0000
0000
0110
,
0000
0000
0000
1001
0000
0000
0001
0000
,
0100
0000
0000
0010
0000
0000
0000
1000
,
0000
0010
0000
0100
0000
0001
0000
1000
,
0000
0010
0000
1000
0000
0010
0000
0100
,
0000
0001
0000
0010
0000
0100
0000
1000
,
0000
0010
0000
1000
0000
0010
0000
0100
,
0000
0001
0000
0001
0000
0001
0000
0010
,
0000
0010
0000
0100
0000
0100
0000
1000
,
0000
1000
0000
0010
0000
0010
0000
0100
,
0000
0100
0000
0001
0000
0001
0000
1000
,
0000
0010
0000
1000
0000
0010
0000
0100
,
0000
0001
0000
0100
0000
0001
0000
1000
,
0000
0100
0000
0010
0000
0001
0000
1000
,
0000
0100
0000
1000
0000
0010
0000
0100
,
0000
0001
0000
1000
0000
0001
0000
1000
,
0000
0001
0000
1000
0000
0001
0000
0100
,
0000
0010
0000
0100
0000
0010
0000
0100
,
0000
0001
0000
1000
0000
0001
0000
1000
,
0000
0000
0000
0000
0000
0000
0000
0010
,
0000
0010
0000
0010
0000
0100
0000
0100
,
0000
0100
0000
0001
0000
0001
0000
0000
,
0000
1000
0000
0010
0000
0100
0000
0010
,
0000
1000
0000
0001
0000
0100
0000
0010
,
0000
0010
0000
0010
0000
1000
0000
0001
,
0000
0001
0000
0001
0000
1000
0000
0000
,
0000
0010
0000
0100
0000
0001
0000
1000
,
0000
0010
0000
1000
0000
0000
0000
0001
,
0000
0001
0000
0001
0000
0100
0000
0010
,
0000
0010
0000
0010
0000
1000
0000
0001
,
0000
1000
0000
0010
0000
0100
0000
0001
,
0000
1000
0000
0010
0000
0100
0000
2000
,
0000
0000
0000
3000
,
0000
0000
0000
0000
0000
0001
0000
0100
,
0000
0010
0000
1000
0000
0010
0000
0100
,
0000
0001
0000
1000
0000
0000
0000
1001
,
0000
0000
0000
0110
0000
0000
0000
1001
,
0000
0000
0000
1001
0000
0000
0000
0110
,
0000
0000
0000
1001
0000
0000
1001
0000
,
0000
0000
0110
0000
0000
1001
0000
1000
,
0000
0100
0000
0010
0000
0001
0000
1000
;

//---------------dance-single - Copied from----------------
#NOTES:
     dance-single:
     Copied from:
     Beginner:
     2:
     0.092804,0.107541,0.000000,0.059834,0.000000,76.000000,76.000000,0.000000,7.000000,0.000000,0.000000,0.092804,0.107541,0.000000,0.059834,0.000000,76.000000,76.000000,0.000000,7.000000,0.000000,0.000000:
0000
0000
0000
0000
,
0000
0000
0000
0000
0000
0000
0000
0010
,
0000
0000
0000
0000
0000
0000
0000
0100
,
0000
0000
0000
0000
0000
0000
0000
0001
,
0000
0000
0000
0000
0000
0000
0000
1000
,
0000
0000
0000
0000
0000
0000
0000
0010
,
0000
0000
0000
0000
0000
0000
0000
0100
,
0000
0000
0000
0000
0000
0000
0000
0001
,
0000
0000
0000
0000
0000
0000
0000
1000
,
0000
0000
0000
0000
0000
0000
0000
0010
,
0000
0000
0000
0000
0000
0000
0000
0010
,
0000
0000
0000
0000
0000
0000
0000
0100
,
0000
0000
0000
0000
0000
0000
0000
0100
,
0000
0000
0000
0000
0000
0000
0000
0001
,
0000
0000
0000
0000
0000
0000
0000
0001
,
0000
0000
0000
0000
0000
0000
0000
1000
,
0000
0000
0000
0000
0000
0000
0000
1000
,
0000
0000
0000
0000
0000
0000
0000
0010
,
0000
0000
0000
0000
0000
0000
0000
0010
,
0000
0000
0000
0000
0000
0000
0000
0010
,
0000
0000
0000
0000
0000
0000
0000
0100
,
0000
0000
0000
0000
0000
0000
0000
0100
,
0000
0000
0000
0000
0000
0000
0000
0100
,
0000
0000
0000
0000
0000
0000
0000
0001
,
0000
0000
0000
0000
0000
0000
0000
0001
,
0000
0000
0000
0000
0000
0000
0000
1000
,
0000
0000
0000
0000
0000
0000
0000
0001
,
0000
0000
0000
0000
0000
0000
0000
1000
,
0000
0000
0000
0000
0000
0000
0000
0010
,
0000
0000
0000
0000
0000
0000
0000
1000
,
0000
0000
0000
0000
0000
0000
0000
0001
,
0000
0000
0000
0000
0000
0000
0000
1000
,
0000
0000
0000
0000
0000
0000
0000
0010
,
0000
0000
0000
0000
0000
0000
0000
0100
,
0000
0000
0000
0000
0000
0000
0000
0001
,
0000
0000
0000
0000
0000
0000
0000
0100
,
0000
0000
0000
0000
0000
0000
0000
0010
,
0000
0000
0000
0000
0000
0000
0000
0200
,
0000
0000
0000
0300
,
0000
0000
0000
0001
,
0000
0000
0000
0000
0000
0000
0000
1000
,
0000
0000
0000
0000
0000
0000
0000
0001
,
0000
0000
0000
0000
0000
0000
0000
1000
,
0000
0000
0000
0000
0000
0000
0000
0001
,
0000
0000
0000
0000
0000
0000
0000
1000
,
0000
0000
0000
0000
0000
0000
0000
0020
,
0000
0000
0000
0000
,
0000
0000
0000
0000
0030
0000
0000
0200
,
0000
0000
0000
0000
,
0000
0000
0000
0000
0300
0000
0000
0002
,
0000
0000
0000
0000
,
0000
0000
0000
0000
0000
0003
0000
2000
,
0000
0000
0000
0000
,
0000
0000
0000
0000
0000
3000
0000
0010
,
0000
0000
0000
0000
,
0000
0100
0000
0000
,
0000
0001
0000
0000
0000
0000
0000
0000
,
0000
0000
1000
0000
0000
0000
0000
0010
,
0000
0000
0000
0000
0000
0000
0000
0010
,
0000
0000
0000
0000
0000
0000
0000
0010
,
0000
0000
0000
0000
0000
0000
0000
0010
,
0000
0000
0000
0000
,
0000
0000
0000
0000
0000
0000
0000
0100
,
0000
0000
0000
0000
0000
0000
0000
0100
,
0000
0000
0000
0000
0000
0000
0000
0001
,
0000
0000
0000
0000
0000
0000
0000
0001
,
0000
0000
0000
0000
0000
0000
0000
1000
,
0000
0000
0000
0000
0000
0000
0000
1000
,
0000
0000
0000
0000
0000
0000
0000
0010
,
0000
0000
0000
0000
0000
0000
0000
0010
,
0000
0000
0000
0000
0000
0000
0000
0100
,
0000
0000
0000
0000
0000
0000
0000
0100
,
0000
0000
0000
0000
0000
0000
0000
0001
,
0000
0000
0000
0000
0000
0000
0000
0001
,
0000
0000
0000
0000
0000
0000
0000
2000
,
0000
0000
0000
3000
,
0000
0000
0000
0000
0000
0010
0000
0000
,
0000
0000
0000
0000
0000
0000
0000
0100
,
0000
0000
0000
0000
0000
0000
0000
0001
,
0000
0000
0000
1000
,
0000
0000
0000
0000
0000
0000
0000
0001
,
0000
0000
0000
1000
,
0000
0000
0000
0000
0000
0000
0000
0020
,
0000
0000
0000
0000
0000
0000
0000
0130
;
