#TITLE:Butterfly;
#SUBTITLE:;
#ARTIST:Kors K feat. Starbitz;
#TITLETRANSLIT:;
#SUBTITLETRANSLIT:;
#ARTISTTRANSLIT:;
#CREDIT:SupremeX;
#BANNER:Butterfly-bn.png;
#BACKGROUND:Butterfly-bg.png;
#LYRICSPATH:;
#CDTITLE:;
#MUSIC:Butterfly.ogg;
#OFFSET:-1.790;
#SAMPLESTART:3.509;
#SAMPLELENGTH:20.000;
#SELECTABLE:YES;
#BPMS:0.000=135.000;
#STOPS:;
#BGCHANGES:;

//---------------dance-single - ----------------
#NOTES:
     dance-single:
     :
     Easy:
     3:
     0.242,0.265,0.027,0.018,0.000:
0000
0000
0000
0000
,
0000
0000
0000
0000
,
0000
0000
0000
0000
,
0000
0000
0000
0000
,
0000
0000
0000
0000
,
1000
0010
1000
0001
,
0001
0001
0001
0000
,
1000
0010
0100
0001
,
0001
0001
0001
0000
,
1000
1000
1000
0000
,
0010
0010
0010
0000
,
0100
0001
1000
0010
,
0100
0100
0100
0000
,
0010
0010
0010
0000
,
0100
0100
0100
0000
,
0001
1000
0010
0100
,
0001
1000
0010
0000
,
1000
1000
1000
0001
,
0100
0001
0100
0000
,
0010
0010
0010
1000
,
0001
1000
0001
0000
,
0100
0100
0100
0001
,
1000
0010
0100
0000
,
0001
0001
0001
1000
,
0010
0100
0001
0000
,
1000
0010
1000
1000
,
0000
0001
0100
0001
,
0000
1000
0010
1000
,
0001
0100
0110
0000
,
1000
0001
1000
1000
,
0010
0100
0001
0001
,
0000
1000
0010
0010
,
0100
0001
1000
1001
,
0010
0010
0100
0100
,
0001
0001
0001
0000
,
1000
0010
1000
0001
,
1000
1000
1000
0000
,
0010
0100
0100
0001
,
1000
0010
0010
0000
,
1000
0001
1000
0010
,
1000
0001
0001
0000
,
1000
0100
1000
0010
,
0100
0010
0100
0000
,
0001
0100
0001
1000
,
0010
1000
1000
0000
,
0001
0100
0010
1000
,
0001
0001
0001
0000
,
1000
0010
0100
0001
,
1000
0001
1000
0010
,
0100
0001
0100
0100
,
0000
0010
1000
1000
,
0000
0001
0100
0100
,
0010
1000
0001
1000
,
0010
0100
0001
0001
,
1000
0010
0100
0100
,
0001
1000
0010
0010
,
1000
1000
1000
0001
,
2002
0000
0000
0000
,
0000
0000
0000
0000
,
0000
3003
0000
0000
;

//---------------dance-single - ----------------
#NOTES:
     dance-single:
     :
     Medium:
     5:
     0.319,0.346,0.143,0.018,0.000:
0000
0000
0000
0000
,
0000
0000
0000
0000
,
0000
0000
0000
0000
,
0000
0000
0000
0000
,
0000
0000
0000
0000
,
1000
0000
1000
0000
0010
0000
0100
0010
,
0100
0000
0001
0100
0001
0000
1000
0000
,
0010
0000
1000
0010
1000
0000
0001
0100
,
0001
0000
1000
1000
0001
0000
0000
0000
,
1000
0010
0110
0000
,
0001
0100
0101
0000
,
1010
0101
1010
0101
,
0010
0100
0010
0100
0010
0000
0000
0000
,
1000
0000
0001
0100
0001
0000
0000
0000
,
1000
0000
0010
0100
0010
0000
0000
0000
,
1000
0001
0101
1010
,
0001
0010
0100
0000
1000
0010
0100
0000
,
0001
0001
1000
1000
,
0010
0100
0010
0100
,
0001
0000
1000
0010
1000
0000
0001
0010
,
0100
0000
1000
0100
0010
0000
0000
0000
,
0001
0000
0001
0000
0001
0000
1000
0010
,
1000
0000
0010
0100
0010
0000
1000
0000
,
0001
0000
0100
0010
0100
0000
0001
0010
,
0100
0000
1000
0100
0010
0000
0001
0000
,
1000
0010
0110
0110
,
0000
0001
1001
1001
,
0000
1000
1100
1100
,
0001
0010
0100
0000
1000
0010
0100
0000
,
0001
0000
0100
0000
0010
1000
0010
0000
,
0100
0000
0001
0000
1000
0001
1000
0000
,
0010
0000
0100
0000
0001
0100
0001
0000
,
1000
0010
0110
0000
,
0001
0001
0001
0001
,
1000
0010
0100
0010
1000
0000
0000
0000
,
0001
0000
0100
0010
0100
0000
0001
0000
,
1000
0000
0010
1000
0010
0000
0100
0000
,
0001
0000
1000
1000
1000
0000
0010
0100
,
0010
0000
0100
0001
0100
0000
0000
0000
,
0010
0000
1000
0010
1000
0000
0001
0100
,
0001
0000
1000
0010
1000
0000
0000
0000
,
0001
0100
0010
1000
,
0001
0000
1000
1000
1000
0000
0000
0000
,
0010
0100
0001
1000
,
0010
0000
0100
0100
0100
0000
0000
0000
,
0001
0010
0100
1000
,
0100
0000
0010
0010
0010
0000
0000
0000
,
0001
0001
1000
0010
,
0100
0000
0001
0001
0001
0000
0000
0000
,
1000
0100
0010
0001
,
0000
1000
0100
0010
,
0000
0001
0010
0100
,
1000
0010
1000
0000
0001
0100
0001
0000
,
1000
0010
0100
0100
,
0000
0001
1000
1000
,
0001
0100
0010
0010
,
1000
0001
0100
0000
0010
1000
0010
0000
,
2002
0000
0000
0000
,
0000
0000
0000
0000
,
0000
0000
3003
0000
;

//---------------dance-single - ----------------
#NOTES:
     dance-single:
     :
     Hard:
     8:
     0.485,0.451,0.287,0.107,0.022: // measure 1
0000
0000
0000
0000
,  // measure 2
0000
0000
0000
0000
,  // measure 3
0000
0000
0000
0000
,  // measure 4
0000
0000
0000
0000
,  // measure 5
0000
0000
0000
0000
,  // measure 6
1000
0100
1000
0100
1000
0000
0001
0010
,  // measure 7
0100
1000
0100
1000
1100
0000
0000
0000
,  // measure 8
0010
0000
0001
0010
0001
0000
1000
0010
,  // measure 9
1000
0010
0100
0001
0100
0000
1010
0000
,  // measure 10
0001
0000
0000
1000
0100
0000
1000
0000
0100
0000
0000
0000
1001
0000
0000
0000
,  // measure 11
0100
0000
0000
0001
0100
0000
0001
0000
0100
0000
0000
0000
1010
0000
0000
0000
,  // measure 12
0001
0110
1001
1100
,  // measure 13
0010
0001
0010
0100
0010
0001
0010
0000
,  // measure 14
0100
0000
0000
1000
0100
0000
1000
0000
1000
0000
0000
0000
0010
0000
0000
0100
,  // measure 15
0010
0000
0000
0010
0100
0000
0010
0000
0100
0000
0000
0000
0101
0000
0000
0000
,  // measure 16
1010
1001
0110
1001
,  // measure 17
0010
0100
0001
1000
0100
0010
0011
0000
,  // measure 18
0001
0100
0010
1000
2000
0000
3100
0010
,  // measure 19
0001
0010
0100
0010
0020
0000
0130
0000
,  // measure 20
0001
0010
0100
1000
0200
0000
0310
0010
,  // measure 21
0001
1000
0001
0100
1001
0000
0000
0000
,  // measure 22
0010
1000
0001
1000
0010
0100
0001
1000
,  // measure 23
0100
0010
0100
1000
0002
0000
1003
0000
,  // measure 24
0100
1000
0100
0010
0200
0000
1300
1000
,  // measure 25
0100
0010
0001
0010
0011
0000
1100
0000
,  // measure 26
0010
0001
0010
0100
1000
0001
0101
0000
,  // measure 27
0010
1000
0001
0100
0010
1000
1010
0000
,  // measure 28
0100
0001
1000
0001
0100
0010
0110
0000
,  // measure 29
0001
0100
0001
1000
0010
0000
1001
0000
,  // measure 30
0010
0100
0010
1000
0010
0100
0110
0000
,  // measure 31
0001
0010
0100
1000
0100
1000
1100
0000
,  // measure 32
0010
0001
0010
0100
0010
0001
0011
0000
,  // measure 33
0100
1000
0100
0010
0001
0100
0110
0000
,  // measure 34
0001
0000
1000
0100
1000
0000
0001
0010
,  // measure 35
0100
0010
0001
0010
0100
1000
1000
0000
,  // measure 36
0100
0010
0001
0010
0010
0000
0100
1000
,  // measure 37
0001
1000
0100
1000
0010
0100
0100
0000
,  // measure 38
0001
1000
0100
0010
0010
0000
0001
1000
,  // measure 39
0100
1000
0001
1000
0010
0100
0100
0000
,  // measure 40
0001
0000
1000
0100
1000
0000
0001
0100
,  // measure 41
0001
1000
0100
0010
0010
0000
0001
0000
,  // measure 42
0101
0000
1001
0000
0110
0000
1000
0100
,  // measure 43
1000
0001
1000
0100
0010
0000
1001
0000
,  // measure 44
0001
0100
0010
1000
2000
0000
3100
0010
,  // measure 45
0100
0010
0001
0010
0100
0000
1100
0000
,  // measure 46
0010
0001
0010
0100
0020
0000
0031
0010
,  // measure 47
0100
1000
0100
0010
0200
0000
0300
0000
,  // measure 48
1000
0000
0010
0100
0002
0000
0013
0001
,  // measure 49
0010
0100
0010
0001
2000
0000
3100
0000
,  // measure 50
1000
0100
0010
0001
0010
0100
0010
0000
,  // measure 51
0001
1000
0001
1000
0100
1000
0001
0000
,  // measure 52
1000
0001
0100
0001
1000
0001
0100
0000
,  // measure 53
0001
1000
0100
1000
0001
0000
0110
0000
,  // measure 54
0001
0010
0100
0010
0001
0010
0100
0000
,  // measure 55
1000
0100
0010
0100
1000
0100
0010
0000
,  // measure 56
0001
0100
0010
1000
0001
0100
0010
0000
,  // measure 57
1000
0100
0010
0001
1000
0001
1001
0000
,  // measure 58
0220
0000
0000
0000
,  // measure 59
0000
0000
0000
0000
,  // measure 60
0000
0330
0000
0000
;

//---------------dance-single - ----------------
#NOTES:
     dance-single:
     :
     Beginner:
     1:
     0.068,0.077,0.000,0.000,0.000:
0000
0000
0000
0000
,
0000
0000
0000
0000
,
0000
0000
0000
0000
,
0000
0000
0000
0000
,
0000
0000
0000
0000
,
1000
0000
0000
0000
,
1000
0000
0000
0000
,
0001
0000
0000
0000
,
0001
0000
0000
0000
,
0100
0000
0000
0000
,
0010
0000
0000
0000
,
0100
0000
0000
0000
,
0010
0000
0000
0000
,
1000
0000
0000
0000
,
0001
0000
0000
0000
,
1000
0000
0000
0000
,
0001
0000
0000
0000
,
0100
0000
0000
0000
,
0100
0000
0000
0000
,
0010
0000
0000
0000
,
0010
0000
0000
0000
,
1000
0000
0000
0000
,
0001
0000
0000
0000
,
1000
0000
0000
0000
,
0001
0000
0000
0000
,
0100
0000
0000
0000
,
0100
0000
0000
0000
,
0100
0000
0000
0000
,
0010
0000
0000
0000
,
1000
0000
0000
0000
,
1000
0000
0000
0000
,
1000
0000
0000
0000
,
0001
0000
0000
0000
,
0010
0000
0000
0000
,
0100
0000
0000
0000
,
1000
0000
0000
0000
,
0001
0000
0000
0000
,
0010
0000
0000
0000
,
0100
0000
0000
0000
,
1000
0000
0000
0000
,
0001
0000
0000
0000
,
0100
0000
0000
0000
,
0010
0000
0000
0000
,
1000
0000
0000
0000
,
0001
0000
0000
0000
,
0100
0000
0000
0000
,
0010
0000
0000
0000
,
1000
0000
0000
0000
,
0001
0000
0000
0000
,
0010
0000
0000
0000
,
0010
0000
0000
0000
,
0100
0000
0000
0000
,
0100
0000
0000
0000
,
1000
0000
0000
0000
,
1000
0000
0000
0000
,
0001
0000
0000
0000
,
0001
0000
0000
0000
,
0100
0000
0000
0000
;
