#TITLE:Blue Destiny Blue;
#SUBTITLE:;
#ARTIST:NAOKI feat. Florence McNair;
#TITLETRANSLIT:;
#SUBTITLETRANSLIT:;
#ARTISTTRANSLIT:;
#CREDIT:SupremeX;
#BANNER:Blue Destiny Blue-bn.png;
#BACKGROUND:Blue Destiny Blue-bg.png;
#LYRICSPATH:;
#CDTITLE:;
#MUSIC:Blue Destiny Blue.ogg;
#OFFSET:-3.601;
#SAMPLESTART:50.420;
#SAMPLELENGTH:12.000;
#SELECTABLE:YES;
#BPMS:0.000=160.000;
#STOPS:;
#BGCHANGES:;

//---------------dance-single - ----------------
#NOTES:
     dance-single:
     :
     Hard:
     9:
     0.571,0.698,0.122,0.183,0.070: // measure 1
0000
0000
0000
0000
,  // measure 2
0000
0000
0000
0000
,  // measure 3
1000
0010
1000
0001
,  // measure 4
0100
0000
0000
0000
0010
0000
0000
0000
1000
0000
0100
1000
0100
1000
0100
1000
,  // measure 5
0100
0010
0001
0010
0100
1000
0100
1000
,  // measure 6
0001
0010
0100
1000
0100
1000
0100
0000
,  // measure 7
0010
0001
0010
0100
1000
0010
1000
0000
,  // measure 8
0010
0100
0001
0100
0001
0000
1000
0001
0100
0001
0100
0000
0010
1000
0001
1000
,  // measure 9
0001
0100
0010
0100
0010
1000
0001
1000
,  // measure 10
0001
0100
0010
1000
0001
1000
0010
0100
,  // measure 11
0010
0000
0000
1000
0001
1000
0100
1000
,  // measure 12
0001
1000
0100
1000
0100
0010
0001
0010
,  // measure 13
0100
0000
0000
1000
0100
1000
0100
0010
,  // measure 14
0001
0010
0001
1000
0100
0010
0100
0001
,  // measure 15
2000
0000
0000
0000
0000
3000
0101
0000
,  // measure 16
1001
0000
0010
0100
0001
1000
0001
0100
,  // measure 17
0010
0000
0000
1000
0001
0010
0100
1000
,  // measure 18
0001
0000
0100
0010
1000
0010
0100
0001
,  // measure 19
1000
0000
0000
0010
0100
0010
1000
0001
,  // measure 20
0100
0001
1000
0010
1000
0001
0100
0010
,  // measure 21
0100
0000
0000
0001
0010
0100
1000
0010
,  // measure 22
0100
0001
0100
0010
1000
0001
0010
0100
,  // measure 23
1000
0000
0000
1001
0000
0000
2200
0000
,  // measure 24
0000
3300
0000
0000
,  // measure 25
0010
0001
0010
0100
1000
0100
0010
0100
,  // measure 26
2000
0000
0000
3002
0000
0000
0003
0000
,  // measure 27
1000
0001
0010
0100
1000
0010
0100
0010
,  // measure 28
2002
0000
0000
0000
3003
0000
1000
0001
1000
0000
0000
0010
0000
0000
0100
0000
,  // measure 29
0010
1000
0100
0010
0001
1000
0010
1000
,  // measure 30
0001
0100
0010
0100
0001
1000
0001
0100
,  // measure 31
0200
0000
0000
0000
0320
0000
0000
0030
,  // measure 32
0000
1000
1000
1000
,  // measure 33
0001
0100
0001
1000
0010
0100
0010
1000
,  // measure 34
0001
0000
0100
0100
,  // measure 35
0010
1000
0001
1000
0100
1000
0001
0010
,  // measure 36
0100
0000
1000
0000
0010
0000
0010
0100
,  // measure 37
0000
0001
1000
0001
0000
1000
0010
0100
,  // measure 38
0000
0100
0001
1000
0000
0010
0100
0010
,  // measure 39
0000
1000
0001
1000
0000
0010
0000
0110
,  // measure 40
0001
0010
0100
1000
0001
1000
0010
0100
,  // measure 41
0001
1000
0010
0100
0001
1000
0100
1000
,  // measure 42
0001
0000
0100
0000
0010
1000
0001
1000
,  // measure 43
0010
0000
0100
0001
0100
0010
1000
0010
,  // measure 44
0100
0000
0100
0000
0001
0000
1000
0100
,  // measure 45
0010
0000
0001
0100
0010
0000
0010
1000
,  // measure 46
0001
0000
0001
0000
1000
0100
1000
0001
,  // measure 47
0100
0000
0000
0000
0000
0000
0100
0000
0010
0000
0000
1001
0000
0000
0010
0000
,  // measure 48
0100
0000
0000
0110
0000
0000
1000
0000
0100
0000
0000
0000
0010
0001
0010
0001
,  // measure 49
0010
0100
1000
0010
1000
0001
0100
0010
,  // measure 50
2000
0000
0001
0000
0001
0001
3001
0000
,  // measure 51
0010
0100
0001
1000
0001
0100
0010
0100
,  // measure 52
0002
0000
1000
0000
1000
1000
1003
0000
,  // measure 53
0010
0100
0001
0100
0010
1000
0010
0100
,  // measure 54
0020
0000
1000
0000
1000
1000
1030
0000
,  // measure 55
0001
0010
0100
1000
0100
0010
0010
0010
,  // measure 56
0000
0001
1000
0100
0010
0001
1000
0000
,  // measure 57
2000
0000
0000
0000
0010
0000
0000
0000
0000
0000
3010
0000
0000
1010
0000
0000
,  // measure 58
0001
0100
0010
1000
0001
0100
0010
0100
,  // measure 59
0001
0000
1000
0010
0100
0001
0100
0010
,  // measure 60
1000
0000
0001
0100
0010
0100
0001
1000
,  // measure 61
0001
0000
0100
0010
1000
0001
1000
0010
,  // measure 62
0100
0000
0001
0000
1000
0010
0100
0001
,  // measure 63
2000
0000
0000
3010
0200
0000
0000
0000
,  // measure 64
0000
0000
0301
1000
0100
0010
0001
0010
,  // measure 65
0002
1000
0010
1000
,  // measure 66
0010
1000
0010
1003
,  // measure 67
2000
0001
0100
0001
,  // measure 68
0100
0001
0100
3001
,  // measure 69
0200
1000
1000
1000
,  // measure 70
1000
1300
1001
0110
,  // measure 71
0002
0010
0010
0010
,  // measure 72
0010
0013
0110
1001
,  // measure 73
0220
0000
0000
0000
,  // measure 74
0330
0000
0000
0000
;

//---------------dance-single - ----------------
#NOTES:
     dance-single:
     :
     Medium:
     6:
     0.437,0.444,0.174,0.009,0.000:
0000
0000
0000
0000
,
0000
0000
0000
0000
,
0010
0100
0001
1000
,
0100
0010
0001
1000
,
0001
0100
0010
0100
,
0001
1000
0100
1000
,
0001
0010
0100
1000
,
0010
0100
0001
1000
,
0010
0000
1000
0000
0001
0100
0001
0000
,
1000
0000
1000
0000
0010
0100
0001
1000
,
0001
0100
0010
1000
,
0010
0000
0100
0000
0001
0100
0001
0100
,
0010
1000
0010
0100
,
0001
0000
1000
0000
0010
0100
0010
0100
,
0001
1000
0010
0100
,
1001
0010
0010
0010
,
1000
0000
0010
0000
0100
0010
1000
0001
,
0100
0010
1000
0010
,
0101
0000
0000
1000
0100
0010
0001
1000
,
1000
0000
0010
0000
0100
0000
0001
0100
,
0001
1000
0100
0010
,
0001
0010
0100
0010
0100
0000
1000
0000
,
1001
0000
0000
1100
0000
0000
0011
0000
,
1000
0100
0010
0001
,
1000
0100
1000
0010
0000
0010
1000
0000
,
0001
0010
0100
1000
,
0010
0100
0010
1000
0000
0001
1000
0000
,
0110
0000
0000
0001
1001
0000
0000
0000
,
0100
0001
0100
0010
,
1000
0010
0100
0001
,
1001
0000
0000
0110
0000
0000
1001
0000
,
0000
0100
0010
0000
0010
0000
1000
0000
,
0001
0000
1000
0000
0010
0000
0100
0001
,
0100
0010
1000
0010
,
0100
0000
0001
0000
1000
0000
0010
0100
,
0010
0000
1000
0000
0001
0100
0010
0100
,
0000
0001
0010
0100
0000
1000
0100
0010
,
0000
0001
0100
0010
0000
0010
1000
0100
,
0000
0100
1000
0001
0000
0100
0010
0100
,
0000
0001
0000
0001
0000
1000
0000
1000
,
0010
0010
0100
0001
,
0101
1000
0010
0100
,
1010
0001
0101
1000
,
1001
0001
0100
0010
,
1000
0010
0100
0001
,
0110
0000
0000
0000
1000
0000
0100
0010
,
0001
0000
0000
1000
0100
0000
0100
0000
,
0011
0000
1001
0000
,
1000
0000
0010
0000
1000
0001
1000
0000
,
0010
0100
0010
0000
1000
0000
0001
0000
,
1000
0010
0100
0000
0100
0001
0010
0000
,
0100
0000
1000
0000
0010
0100
0010
0100
,
0001
1000
0100
1000
,
1100
0000
0010
0000
0001
0000
0100
0010
,
0000
0010
1000
0100
0000
0100
1000
0100
,
0010
0001
0000
0100
0000
0010
0000
0100
,
0001
1000
0010
0100
,
1001
0100
0010
0001
,
1000
0000
1001
0000
0010
0100
0010
0000
,
1000
0001
1000
0000
0010
1000
0001
0100
,
0001
0000
1000
0000
0001
0000
1000
0010
,
0100
0000
0001
0000
1000
0000
0010
0100
,
0010
0000
0000
1000
0001
0000
0100
0000
,
0001
1000
0010
0100
,
0010
1000
0010
0000
0100
0001
0100
0000
,
0010
1000
0001
0100
0010
0100
0001
0000
,
1000
0010
0100
0001
,
1000
0000
0010
0000
0100
0001
0100
0010
,
1000
0001
0100
0010
,
1000
0000
0010
0000
0100
0001
1000
0001
,
1000
0010
0100
0001
,
1000
0000
0001
0000
0010
0100
1000
0001
,
2000
0000
0000
0000
,
3000
0000
0000
0000
;

//---------------dance-single - ----------------
#NOTES:
     dance-single:
     :
     Easy:
     3:
     0.329,0.344,0.139,0.035,0.000:
0000
0000
0000
0000
,
0000
0000
0000
0000
,
0010
0010
0010
0010
,
0010
0010
0010
0010
,
1000
1000
1000
1000
,
1000
1000
1000
1000
,
0001
0100
0001
0100
,
0010
1000
0001
1000
,
0001
0100
0010
0100
,
0010
1000
0001
1000
,
0001
0100
0010
1000
,
0001
1000
0010
0100
,
0001
0001
0001
0001
,
0001
0001
1000
1000
,
1000
0000
0000
0010
,
0100
0000
0000
0000
,
0001
1000
0010
0100
,
0001
0001
0001
0001
,
1000
0010
0100
0001
,
1000
1000
1000
1000
,
0010
0100
0001
1000
,
0001
0100
0010
1000
,
1001
0000
0000
0000
1001
0000
0000
1001
,
0000
0000
0000
0000
,
0100
0010
0100
0010
,
0200
0000
0000
0000
0000
0300
0000
0000
,
0001
1000
0001
1000
,
0002
0000
0000
0000
0000
0003
0000
0000
,
0100
0010
1000
0001
,
1000
0010
0100
0001
,
1000
0000
0000
0001
0000
0000
1001
0000
,
0000
1000
1000
1000
,
0010
0100
0010
0100
,
0200
0000
0000
0300
0000
0000
0000
0000
,
0001
0001
1000
0010
,
0020
0000
0000
0030
0000
0000
1000
0000
,
0010
0100
0001
1000
,
1000
0010
0010
0100
,
0001
1000
0010
0100
,
0000
1001
0000
1001
0000
1001
0000
0000
,
0010
0100
0010
0100
,
0100
0001
1000
0010
,
0100
0001
1000
1000
,
1000
0010
0100
0001
,
1000
0001
0100
0010
,
0010
0000
1000
0001
,
1001
0000
1010
0000
,
0101
0000
1010
0000
,
0001
0001
0100
0100
,
0010
0010
1000
0010
,
1000
0001
0100
0001
,
0100
0010
0010
1000
,
0001
1000
0010
1000
,
1000
0000
0000
0001
,
0100
0010
1000
0010
,
1000
1000
1000
1000
,
0001
0100
0010
0100
,
0010
0010
0010
0010
,
1000
0001
1000
0001
,
0100
0100
0100
0100
,
0001
1000
0010
0100
,
0001
0000
1000
0010
,
0101
0000
1010
0000
,
0101
0000
1010
0000
,
0001
0001
0001
0001
,
0001
0001
0001
0001
,
1000
1000
1000
1000
,
1000
1000
1000
1000
,
0010
0010
0010
0010
,
0010
0010
0010
0010
,
0100
0100
0100
0100
,
0100
0100
0100
0100
,
1001
0000
0000
0000
;

//---------------dance-single - Copied from----------------
#NOTES:
     dance-single:
     Copied from:
     Beginner:
     1:
     0.088,0.094,0.000,0.000,0.000:
0000
0000
0000
0000
,
0000
0000
0000
0000
,
0010
0000
0000
0000
,
0010
0000
0000
0000
,
0100
0000
0000
0000
,
0100
0000
0000
0000
,
0001
0000
0000
0000
,
0001
0000
0000
0000
,
1000
0000
0000
0000
,
1000
0000
0000
0000
,
0010
0000
0000
0000
,
0010
0000
0000
0000
,
1000
0000
0000
0000
,
1000
0000
0000
0000
,
0010
0000
0000
0000
,
0010
0000
0000
0000
,
0100
0000
0000
0000
,
0100
0000
0000
0000
,
0001
0000
0000
0000
,
0001
0000
0000
0000
,
1000
0000
0000
0000
,
1000
0000
0000
0000
,
0010
0000
0000
0000
,
0010
0000
0000
0000
,
0100
0000
0000
0000
,
0100
0000
0000
0000
,
0001
0000
0000
0000
,
0001
0000
0000
0000
,
1000
0000
0000
0000
,
1000
0000
0000
0000
,
0010
0000
0000
0000
,
0010
0000
0000
0000
,
0100
0000
0000
0000
,
0100
0000
0000
0000
,
0001
0000
0000
0000
,
0001
0000
0000
0000
0000
0000
0000
1000
,
0000
0000
0000
0000
0000
0000
0000
0010
,
0000
0000
0000
0000
0000
0000
0000
1000
,
0000
0000
0000
0000
0000
0000
0000
0010
,
0000
0000
0000
0000
,
0100
0000
0000
0000
,
0001
0000
0000
0000
,
0100
0000
0000
0000
,
0001
0000
0000
0000
,
1000
0000
0000
0000
,
0010
0000
0000
0000
,
1000
0000
0000
0000
,
0010
0000
0000
0000
,
0100
0000
0000
0000
,
0100
0000
0000
0000
,
0010
0000
0000
0000
,
0010
0000
0000
0000
,
0100
0000
0000
0000
,
0100
0000
0000
0000
,
0010
0000
0000
0000
,
0010
0000
0000
0000
,
1000
0000
0000
0000
,
1000
0000
0000
0000
,
0001
0000
0000
0000
,
0001
0000
0000
0000
,
1000
0000
0000
0000
,
0010
0000
0000
0000
,
0100
0000
0000
0000
,
0001
0000
0000
0000
,
1000
0000
0000
0000
,
0010
0000
0000
0000
,
0100
0000
0000
0000
,
0001
0000
0000
0000
,
1000
0000
0000
0000
,
0010
0000
0000
0000
,
0100
0000
0000
0000
,
0001
0000
0000
0000
,
1000
0000
0000
0000
;
