#TITLE:紅牡丹;
#SUBTITLE:;
#ARTIST:DJ NAGAI feat. a☆ru;
#TITLETRANSLIT:Benibotan;
#SUBTITLETRANSLIT:;
#ARTISTTRANSLIT:;
#CREDIT:SupremeX;
#BANNER:Benibotan-bn.png;
#BACKGROUND:Benibotan-bg.png;
#LYRICSPATH:;
#CDTITLE:cdtitle.png;
#MUSIC:Benibotan.ogg;
#OFFSET:-1.043;
#SAMPLESTART:38.220;
#SAMPLELENGTH:10.000;
#SELECTABLE:YES;
#BPMS:0.000=181.010;
#STOPS:;
#BGCHANGES:-4.000=Benibotan.avi=1.000=1=1=0,
311.000=Benibotan-bg.png=1.000=0=0=1,
99999=-nosongbg-=1.000=0=0=0 // don't automatically add -songbackground-
;

//---------------dance-single - ----------------
#NOTES:
     dance-single:
     :
     Challenge:
     9:
     0.808,0.879,0.495,0.504,0.279:
0000
0000
0000
0000
,
0000
0000
0000
0000
,
0000
0000
0000
0000
,
1000
1100
0001
0101
0100
0000
1001
0000
,
0010
0000
0100
0010
0100
0000
0010
0100
0010
0000
0000
0100
0010
0000
0010
0000
,
0000
0000
1000
0010
1000
0000
1000
0000
0100
0000
0010
0000
0001
0000
0000
0000
,
0001
0000
0100
0010
0100
0000
0010
0100
0010
0000
0000
0100
0010
0000
0010
0000
,
0000
0000
1000
0010
1000
0000
0100
0000
0100
0000
1000
0000
0001
0000
0001
0000
,
1000
0000
0100
1000
0100
0000
1000
0100
1000
0000
1000
0000
0100
0000
0010
0000
,
0000
0001
1000
0001
0200
0000
0301
0000
,
0010
1000
0010
1000
0010
0100
0001
0100
0001
1000
0010
1000
0010
0000
0000
0000
,
0100
0100
0001
0001
1000
0000
1010
0000
,
0210
0000
0300
0001
0102
0000
0003
1000
,
2100
0000
3100
0100
1000
0000
0110
0000
,
0021
0000
0031
0100
0001
1000
0100
1000
,
0001
0100
0010
1000
1001
0000
0110
0000
,
0012
0000
0003
1000
2100
0000
3000
0010
,
0120
0000
0030
0100
0201
0000
0301
0000
,
1020
0000
1030
0010
1000
0100
0010
0100
,
1000
1000
0100
0100
2000
0100
3100
0000
,
0010
0001
1000
0010
0210
0001
0301
0000
,
1000
0010
0100
0001
2001
0100
3100
0000
,
1000
0100
1000
0100
0010
0001
0010
0010
,
0000
0001
1000
0100
1100
0000
0110
0000
,
0001
0010
0100
0010
0002
0010
0013
0000
,
0100
1000
0100
0010
0002
0010
1003
1000
,
0200
0010
0010
0010
0310
0000
0100
0001
,
1000
0000
0000
1010
0000
0000
0100
0000
0101
0000
0000
0000
0000
0000
0000
0000
,
0001
0010
0100
1000
0200
0000
1300
0100
,
0010
0000
0001
0000
0100
0000
0001
0000
0020
0000
0000
0000
0031
0000
0000
1000
,
0200
0000
2300
0000
3100
0000
1000
0100
,
0000
1000
0010
0100
0220
0000
0330
0000
,
0001
0010
0100
1000
1200
0000
0300
0010
,
0001
0000
0010
0000
0100
0000
1000
0000
1020
0000
0000
0000
0030
0000
0000
0100
,
0002
0000
0103
0200
0000
0000
0320
0000
,
1030
1000
1100
0010
0011
0000
0110
0000
,
1000
0100
1000
0001
1000
0100
1000
0001
,
0100
0001
1000
0001
0100
0001
1000
0010
,
1000
0010
0100
0001
0100
0010
1000
0100
,
1100
0000
0000
0110
0000
0000
0011
0000
0000
0000
1000
0000
1000
0000
0000
0000
,
0001
0100
0001
1000
0001
0100
0001
1000
,
0010
0100
0010
0100
0010
0100
0001
0100
0001
0100
0010
1000
0010
1000
0010
0000
,
0220
0000
0330
0202
0000
0303
0000
0010
,
2020
0000
3030
0202
0000
0303
1001
0000
,
0100
0010
0100
0010
1000
0001
1000
0001
,
0100
0010
0010
1000
1000
0001
0101
0000
,
0010
0100
1000
0100
0010
0100
1000
0100
,
0010
0000
0000
0011
0000
0000
0110
0000
0000
0000
1100
0000
1100
0000
0000
0000
,
0010
0001
0010
0001
0100
1000
0100
1000
,
0010
0100
0010
0100
0010
0100
0010
1000
0001
1000
0001
1000
0001
1000
0001
1000
,
0020
0000
0130
0200
0000
0001
0301
1000
,
2100
0000
0000
3200
0000
0000
1300
0000
,
0001
0100
0001
0100
0001
0100
0001
0100
0001
0100
0001
0100
0001
0100
0001
0000
,
1020
0000
0100
0000
0230
0000
0000
0310
,
1000
0000
0010
0000
1000
0000
0100
0000
0020
0000
0000
0000
0000
0000
0030
0001
,
0020
0000
0230
0000
2300
0000
0100
3100
,
0000
1000
1200
0000
1300
0000
0000
0000
,
0010
0001
0010
0100
1000
0000
0000
1000
,
1000
0010
0100
0001
0001
0000
0000
1000
,
2000
0000
3010
0020
0000
0000
0130
0000
,
0001
0010
0100
1000
1100
0000
0110
0000
,
0001
0000
0100
0000
0001
0000
0100
0000
0002
0000
0000
0000
0003
0000
0100
0010
,
0100
0000
0010
0000
1000
0000
0001
0000
2000
0000
0000
0000
3100
0000
0000
1000
,
0100
0000
0011
0000
0101
0000
0010
1000
,
0000
1000
0010
0100
0010
0000
1001
0000
,
0100
0010
0100
0010
0020
0000
0130
0001
,
0001
0000
1000
0000
0100
0000
1000
0000
0200
0000
0000
0000
1300
0000
0000
0100
,
2000
0000
3100
0200
0000
0000
0310
0000
,
0010
0011
1000
1100
0001
0000
0101
0000
,
1000
0000
0100
1000
0100
0000
1000
0100
1000
0000
0100
1000
0100
0000
0100
0000
,
0000
0000
0010
0001
0010
0000
0100
0000
1000
0000
0100
0000
0010
0000
0000
0000
,
0001
0000
0010
0001
0010
0000
0001
0010
0001
0000
0100
1000
0100
0000
0100
0000
,
0000
0000
1000
0000
1000
0010
0100
0000
0100
0000
0001
0000
0001
0000
0000
0000
,
1000
0000
0010
0100
0010
0000
1000
0001
1000
0000
0010
0100
0010
0000
0010
0000
,
0100
0001
1000
0100
2100
0000
3100
0000
,
1000
0000
0100
1000
0100
0000
1000
0001
1000
0000
0010
0100
0010
0000
1000
0000
,
0010
1000
0001
0100
0001
0000
1001
0000
;

//---------------dance-single - ----------------
#NOTES:
     dance-single:
     :
     Hard:
     8:
     0.646,0.633,0.293,0.357,0.023:
0000
0000
0000
0000
,
0000
0000
0000
0000
,
0000
0000
0000
0000
,
1000
0010
0010
0100
0100
0000
1001
0000
,
1000
0100
0010
0100
1000
0100
0010
0100
,
0000
0001
0010
0001
1000
0010
1000
0000
,
0001
0010
0100
0010
0001
0010
0100
0010
,
0000
0001
0100
0001
1000
0100
1000
1000
,
0001
0010
0100
1000
0100
0010
0001
0010
,
0000
0100
1000
0100
0010
0001
0010
0000
,
1000
0100
1000
0100
0010
0000
0011
0000
,
1000
1000
0010
0010
0100
0000
1001
0000
,
0200
0000
0300
0010
0020
0000
0030
1000
,
2000
0000
3000
0010
0100
0000
0101
0000
,
0010
0000
0010
1000
0001
1000
0010
1000
,
0001
0100
0010
1000
0010
0000
1001
0000
,
0020
0000
0030
0100
0200
0000
0300
0001
,
0002
0000
0003
1000
0100
0000
0100
0000
,
1000
0000
0001
0100
0001
1000
0100
0010
,
0001
1000
0100
0000
2200
0000
3300
0000
,
0010
0001
0010
0100
2000
0000
3100
0000
,
1000
0100
0010
0001
0020
0000
0031
0000
,
0200
0000
0320
0000
2030
0000
3100
0100
,
0000
1000
0010
1000
0001
0000
0110
0000
,
1000
0100
0010
0100
2000
0000
3100
0000
,
0010
0001
0010
0100
0020
0000
0031
0001
,
0200
0000
0010
0000
0310
0000
1000
0001
,
0100
0000
0000
1010
0000
0000
0100
0000
0101
0000
0000
0000
0000
0000
0000
0000
,
1000
0100
0010
0001
2000
0000
3100
0000
,
0001
0000
0010
0000
0100
0000
1000
0000
0002
0000
0000
0000
1003
0000
0000
0100
,
0010
0000
0100
0000
1001
0000
1000
0010
,
0000
1000
0100
1000
0200
0000
0300
0000
,
1000
0001
0100
0001
2000
0000
3000
0010
,
0100
0000
0010
0000
1000
0000
0001
0000
0200
0000
0000
0000
0300
0000
0000
0100
,
0020
0000
0130
0200
0000
0000
0302
0000
,
1003
0001
0010
0100
1000
0000
0110
0000
,
0001
0100
0010
1000
0001
0000
0110
1000
,
0010
0100
0001
1000
0001
0000
0110
1000
,
0100
0010
0001
0000
0011
0100
1000
0100
,
0010
0000
0000
0011
0000
0000
0110
0000
0000
0000
1000
0000
1000
0000
0000
0000
,
0001
0010
0100
1000
0010
0100
0001
1000
,
0001
1000
0100
1000
0001
0010
0100
1000
,
0110
0000
0000
1001
0000
0000
0000
0100
,
1100
0000
0000
0011
0000
0000
1001
0000
,
0100
0010
0001
0010
0100
0010
0001
0010
,
0100
1000
1000
0001
0001
0000
1001
0000
,
1000
0100
0010
0100
1000
0100
0010
0100
,
1000
0001
0001
1000
1000
0000
1001
0000
,
0010
0100
0010
0100
0001
1000
0001
1000
,
0010
0100
0010
0100
0001
1000
0001
1000
,
0001
0000
0100
0100
0000
0010
0010
1000
,
1000
0000
0000
0110
0000
0000
1001
0000
,
0200
0000
0000
0000
,
0302
1000
2003
0000
,
3020
0230
0302
0000
,
2003
3200
2300
0100
,
3200
0320
0031
0000
,
1000
0010
1000
0001
,
0100
0000
0001
0000
1000
0000
0000
0010
,
0020
0000
0130
0200
0000
0000
0301
0000
,
1000
0100
0010
0001
0100
0000
1001
0000
,
1000
0010
1000
0001
0100
0000
0010
1000
,
0010
0000
0100
0000
0001
0000
1000
0000
1000
0000
0000
0000
0000
0000
0000
0100
,
0010
0000
0110
0000
1001
0000
1000
0100
,
0000
0100
1000
0100
0010
0000
0001
0000
,
1000
0010
0100
0001
0001
0000
0000
1000
,
1000
0001
0100
0010
1000
0000
0000
0100
,
0020
0000
1030
0200
0000
0000
1300
0000
,
0010
0001
0010
0100
1000
0000
1001
0000
,
0100
0010
0100
0010
1000
0010
1000
0001
,
0000
0010
0010
0100
0100
0010
0010
0000
,
1000
0100
0010
0100
1000
0100
0010
0100
,
0000
0001
0001
0100
0100
0001
0001
0000
,
1000
0100
0010
0001
0100
0010
1000
0010
,
0100
0001
1000
0001
1001
0000
0110
0000
,
1000
0100
0010
0100
1000
0001
0010
0100
,
0010
0001
1000
0100
1000
0000
1001
0000
;

//---------------dance-single----------------
#NOTES:
     dance-single:
     :
     Beginner:
     1:
     0.102,0.176,0.046,0.009,0.000: // measure 1
0000
0000
0000
0000
,  // measure 2
0000
0000
0000
0000
,  // measure 3
0000
0000
0000
0000
,  // measure 4
1000
0000
0000
0000
,  // measure 5
0001
0000
0000
0000
,  // measure 6
0000
0000
0000
0000
,  // measure 7
0100
0000
0000
0000
,  // measure 8
0000
0000
0000
0000
,  // measure 9
0010
0000
0000
0000
,  // measure 10
0000
0000
0000
0000
,  // measure 11
1000
0000
0000
0000
,  // measure 12
0001
0000
0000
0000
,  // measure 13
0100
0000
0000
0000
,  // measure 14
0100
0000
0000
0000
,  // measure 15
0100
0000
0000
0000
,  // measure 16
0100
0000
0000
0000
,  // measure 17
0010
0000
0000
0000
,  // measure 18
0010
0000
0000
0000
,  // measure 19
0010
0000
0000
0000
,  // measure 20
0010
0000
0000
0000
,  // measure 21
1000
0000
0000
0000
,  // measure 22
0100
0000
0000
0000
,  // measure 23
1000
0000
0000
0000
,  // measure 24
0001
0000
0000
0000
,  // measure 25
1000
0000
0000
0000
,  // measure 26
0100
0000
0000
0000
,  // measure 27
2000
0000
0000
0000
0000
3000
0000
0000
,  // measure 28
0010
0000
0000
0000
,  // measure 29
0100
0000
0000
0000
,  // measure 30
0100
0000
0000
0000
,  // measure 31
0001
0000
0000
0000
,  // measure 32
0001
0000
0000
0000
,  // measure 33
1000
0000
0000
0000
,  // measure 34
1000
0000
0000
0000
,  // measure 35
0001
0000
0000
0000
,  // measure 36
0001
0000
0000
0000
,  // measure 37
0100
0000
0000
0000
,  // measure 38
0010
0000
0000
0000
,  // measure 39
0100
0000
0000
0000
,  // measure 40
0010
0000
0000
0000
,  // measure 41
1000
0000
0000
0000
,  // measure 42
0001
0000
0000
0000
,  // measure 43
1001
0000
0000
0000
,  // measure 44
1001
0000
0000
0000
,  // measure 45
1000
0000
0000
0000
,  // measure 46
0010
0000
0000
0000
,  // measure 47
1000
0000
0000
0000
,  // measure 48
0010
0000
0000
0000
,  // measure 49
0100
0000
0000
0000
,  // measure 50
0001
0000
0000
0000
,  // measure 51
1001
0000
0000
0000
,  // measure 52
1001
0000
0000
0000
,  // measure 53
0100
0000
0000
0000
,  // measure 54
0010
0000
0000
0000
,  // measure 55
0100
0000
0000
0000
,  // measure 56
0010
0000
0000
0000
,  // measure 57
0100
0000
0000
0000
,  // measure 58
0001
0000
0000
0000
,  // measure 59
1000
0000
0000
0000
,  // measure 60
0001
0000
0000
0000
,  // measure 61
1000
0000
0000
0000
,  // measure 62
0010
0000
0000
0000
,  // measure 63
0010
0000
0000
0000
,  // measure 64
0010
0000
0000
0000
,  // measure 65
0010
0000
0000
0000
,  // measure 66
0100
0000
0000
0000
,  // measure 67
0100
0000
0000
0000
,  // measure 68
0100
0000
0000
0000
,  // measure 69
0100
0000
0000
0000
,  // measure 70
0001
0000
0000
0000
,  // measure 71
0001
0000
0000
0000
,  // measure 72
1000
0000
0000
0000
,  // measure 73
1000
0000
0000
0000
,  // measure 74
0001
0000
0000
0000
,  // measure 75
0001
0000
0000
0000
,  // measure 76
1000
0000
0000
0000
,  // measure 77
1000
0000
0000
1001
;

//---------------dance-single----------------
#NOTES:
     dance-single:
     :
     Easy:
     3:
     0.355,0.351,0.165,0.027,0.000:
0000
0000
0000
0000
,
0000
0000
0000
0000
,
0000
0000
0000
0000
,
1000
0010
1000
0000
,
0001
0001
0100
0100
,
0010
1000
0010
1000
,
0001
0001
0100
0100
,
0010
1000
0010
1000
,
0001
0001
0100
0100
,
0010
1000
0010
1000
,
0001
0100
0010
1000
,
0001
1000
0010
0110
,
0001
0000
0000
1000
0001
0000
0000
0000
,
1000
0001
0000
0000
0100
0000
0000
0000
,
0010
1000
0010
0100
,
0001
1000
1001
0000
,
0010
0000
0000
0100
0010
0000
0000
0100
,
0010
0000
1000
0001
,
0100
0010
1000
0001
,
1000
0110
0101
0000
,
0010
0010
1000
1000
,
0001
0001
0100
0100
,
0010
1000
0010
0100
,
0001
1000
1001
0000
,
0010
0010
0100
0100
,
0001
0001
1000
0010
,
0200
0000
0000
0000
0000
0300
0000
0000
,
0001
0000
1001
0000
,
0100
0010
0100
0001
,
1000
0001
1000
0010
,
0100
0010
1000
0001
,
0100
0010
0010
0000
,
1000
0001
1000
0010
,
0100
0010
0100
0000
,
0001
0000
0000
1001
0000
0000
0000
0000
,
1000
1000
1000
0000
,
0010
0100
0010
0100
,
0001
0100
0001
0100
,
0010
1000
0010
1000
,
0010
0100
0010
0100
,
0001
0001
1000
1000
,
0010
0010
0100
0100
,
1001
0000
0000
1001
0000
0000
0000
0000
,
0110
0000
0000
0110
0000
0000
0000
0000
,
1000
1000
1000
1000
,
0001
0001
0001
0001
,
0100
0100
0100
0100
,
0010
0010
0010
0010
,
1000
1000
1000
1000
,
0001
0001
0001
0001
,
0110
0000
0000
0110
0000
0000
0000
0000
,
1001
0000
0000
1001
0000
0000
0000
0000
,
0220
0000
0000
0330
,
1000
0000
0001
0000
,
1000
0010
1000
0000
,
0001
0000
0100
0000
,
0100
0000
0010
0000
,
1000
0000
0001
0000
,
1000
0001
1000
0000
,
0010
0100
0010
0000
,
1000
1000
0001
0000
,
0100
0010
1000
0001
,
0100
0010
0010
0000
,
1000
0001
1000
0010
,
0100
0001
0001
0000
,
1000
1000
0010
0010
,
0100
0001
0100
0000
,
0010
0000
0000
0110
0000
0000
0000
0000
,
1000
1000
1000
0000
,
0001
0100
0001
1000
,
0010
0100
0001
0001
,
1000
0010
0100
0100
,
0001
0010
0100
1000
,
0010
0100
0001
0001
,
1000
0010
0100
0001
,
1000
1000
0010
0010
,
0100
0001
1000
1001
;

//---------------dance-single----------------
#NOTES:
     dance-single:
     :
     Medium:
     6:
     0.496,0.527,0.412,0.092,0.000:
0000
0000
0000
0000
,
0000
0000
0000
0000
,
0000
0000
0000
0000
,
1000
0100
1000
0100
1000
0000
0000
0000
,
0010
0110
0001
1001
,
0000
1000
0100
1000
,
0010
1001
0010
0110
,
0001
0000
1000
0000
0100
1000
0100
0000
,
0010
0011
0100
1100
,
0000
0010
0001
0010
0001
0000
1000
0000
,
0100
1000
0001
1000
,
0010
0100
0010
0100
0010
0000
1000
0000
,
0002
0000
0203
0000
,
0320
0000
2030
0000
,
3100
1000
0100
0010
,
0001
0101
1010
0000
,
0200
0000
0000
0300
0020
0000
0000
0000
,
2030
0000
3002
0000
,
0203
0000
0301
0000
,
1000
1100
0110
0000
,
0001
0010
0001
0010
0100
0000
0000
0000
,
1000
0100
1000
0000
0010
0000
0000
0000
,
0100
0000
0001
0000
1000
0000
0100
1000
,
0000
0100
1000
0100
0010
0000
0000
0000
,
0001
0010
0100
1000
0100
0000
0100
0000
,
0010
0001
0010
0100
0010
0000
1000
0000
,
1000
0001
0001
0100
,
0010
0000
1001
0000
,
1000
0100
1000
0100
1000
0000
0000
0001
,
0100
0001
0100
0001
0100
0000
0000
0000
,
0010
0000
1000
0000
0010
0000
0100
0001
,
0000
0001
0100
0000
1010
0000
0000
0000
,
0001
0100
0001
0100
0001
0000
0000
1000
,
0100
1000
0100
1000
0100
0000
0000
0010
,
0001
0000
1000
0100
0000
0000
1001
0000
,
0010
0100
0001
1000
0010
0000
0100
0000
,
0001
1000
0010
0100
,
0001
1000
0010
0100
,
1001
0010
1001
0010
,
0100
0010
1000
0001
,
0101
0010
1010
0001
,
0101
1000
1010
0000
,
0101
0000
0000
1010
0000
0000
1001
0000
,
0110
0000
0000
1001
0000
0000
0110
0000
,
1000
0010
1000
0001
,
1000
0100
0010
0001
1000
0100
1000
0000
,
0001
0100
0001
0100
,
0010
1000
0010
1000
0010
0100
0001
0000
,
1000
0100
1000
0001
,
1000
0010
0100
0010
0100
0001
1000
0000
,
0110
0000
0000
1001
0000
0000
0101
0000
,
1010
0000
0000
1001
0000
0000
0200
0000
,
0000
0000
0000
0300
,
0010
1000
0001
0000
,
0100
0010
0100
0010
0100
0000
0000
0000
,
0001
0000
1000
0000
0001
0000
1000
0010
,
0000
0100
0001
0100
0001
0000
0000
0000
,
0010
1000
1000
0001
,
0100
0000
0010
0000
0010
0000
0000
1000
,
0001
0000
0100
0010
0000
0000
1001
0000
,
0100
0010
0100
0001
1000
0000
0110
0000
,
0001
1000
0001
1000
0001
0000
0000
1000
,
0100
1000
0100
1000
0100
0000
0000
0010
,
0001
0000
0001
0000
0110
0000
1000
0100
,
0000
0100
1000
0001
1000
0000
0000
0000
,
0010
0100
0001
0100
0010
0000
0000
1000
,
0100
1000
0001
1000
0100
0000
0000
0010
,
1000
0000
0001
0100
0000
0000
1010
0000
,
0100
0001
1000
0001
0100
0000
1001
0000
,
0100
0010
0110
1001
,
0010
0100
0001
1000
,
0101
1010
1001
0110
,
0001
0000
1000
0000
0010
0100
0001
1000
,
0001
1100
0010
0011
,
0100
1000
0100
0010
0001
0000
0110
0000
,
1000
0100
0010
0100
1000
0100
0010
0000
,
0001
0100
0001
0100
0001
0000
1100
0000
;
