#TITLE:BEYOND THE EARTH (STARDOM Remix);
#SUBTITLE:;
#ARTIST:BEMANI Sound Team "Sota F.";
#TITLETRANSLIT:;
#SUBTITLETRANSLIT:;
#ARTISTTRANSLIT:;
#GENRE:;
#CREDIT:SupremeX;
#BANNER:BEYOND THE EARTH (STARDOM Remix)-bn.png;
#BACKGROUND:BEYOND THE EARTH (STARDOM Remix)-bg.png;
#LYRICSPATH:;
#CDTITLE:;
#MUSIC:BEYOND THE EARTH (STARDOM Remix).ogg;
#OFFSET:-0.931732;
#SAMPLESTART:4.560000;
#SAMPLELENGTH:12.000000;
#SELECTABLE:YES;
#BPMS:0.000000=133.009995
;
#STOPS:
;
#BGCHANGES:;
#KEYSOUNDS:;
#ATTACKS:;

//---------------dance-single - ----------------
#NOTES:
     dance-single:
     :
     Hard:
     9:
     0.520092,0.515113,0.240128,0.278858,0.131683,470.000000,439.000000,31.000000,36.000000,0.000000,0.000000,0.520092,0.515113,0.240128,0.278858,0.131683,470.000000,439.000000,31.000000,36.000000,0.000000,0.000000:
0000
0000
0000
0000
,
0000
0000
0000
0000
,
1000
0100
0010
0100
1000
0100
0010
0001
,
0010
0000
1000
0100
2000
0000
3001
0100
,
0002
0000
0013
0100
1000
0000
0010
1000
,
1100
0000
0000
0110
0000
0000
0101
0000
0100
0000
0000
0000
0110
0000
0001
0000
,
0010
0100
0010
0001
0010
0100
0010
0001
,
0010
0000
1000
0100
1000
0000
0001
1000
,
0002
0000
0103
0010
0200
0000
0310
1000
,
1010
0000
0000
0110
0000
0000
0101
0000
0000
0000
0010
0000
1000
0000
0000
0000
,
2100
0000
3001
1000
0001
0100
0010
1000
,
0001
0000
1000
0010
1000
0000
0010
0100
,
0020
0000
0130
0001
0200
0000
0301
1000
,
1100
0000
0000
0110
0000
0000
0011
0000
0002
0000
0000
0000
2003
0000
0100
0000
,
3100
1000
0100
0010
0100
1000
0001
0100
,
0001
0000
1000
0010
0200
0000
0301
1000
,
0002
0000
0103
0010
2000
0000
3100
1000
,
0110
0000
0000
0110
0000
0000
0110
0000
0000
0000
0001
0000
0001
0000
0000
0000
,
1000
0100
0010
0001
1000
0100
1000
0000
,
0010
0100
0001
1000
0010
0100
0010
0000
,
1000
0100
0010
0001
0100
0100
0100
0000
,
0001
0010
0100
1000
0010
0010
0010
0000
,
1000
0100
1000
0100
0010
0001
0010
0000
,
0001
0010
0001
0010
0100
1000
0100
0000
,
1000
0001
1000
0001
0100
0010
0100
0000
,
0001
1000
0001
1000
0010
0100
0010
0000
,
1000
0001
1000
0010
1000
1000
1000
0000
,
0001
0010
0100
0010
0001
1000
0100
0010
,
0001
1000
0100
1000
0001
1000
0100
0000
,
0010
0001
0010
0100
0010
0100
1000
0100
,
0010
0010
0001
0010
0100
0010
0001
0000
,
1000
0100
1000
0001
1000
0100
1000
0001
,
0010
0100
0010
0001
0010
0100
0010
0001
,
1000
1010
0100
0101
,
1001
0110
1000
0110
,
0001
0000
0000
1000
0000
0100
1000
0000
0100
0000
0000
0000
0110
0000
0000
0000
,
0001
0000
0000
0100
0000
0010
0100
0000
0001
0000
0000
0000
0101
0000
0000
0000
,
1000
0000
0000
0100
0000
1000
0100
0000
0010
0000
0000
0000
0110
0000
0000
0000
,
0001
0000
0010
0000
0100
0000
1000
0000
0100
0010
0000
0100
0000
0000
0001
0000
,
1000
0010
0100
0010
1000
0010
0100
0000
,
0001
0100
0000
0001
0000
0000
1000
0000
0100
0000
1000
0000
0001
0000
1000
0000
,
0100
1000
0000
0100
1000
0000
0100
0000
0010
0000
0001
0000
1000
0000
0000
0000
,
2002
0000
0000
0000
0000
0000
0000
0000
0000
0000
0000
0000
0000
3003
0000
0000
,
0101
0000
0000
0000
0010
0000
0000
0100
0001
0000
0000
0000
1000
0000
0000
0100
,
1000
0000
0000
0000
1100
0000
0010
0000
0001
0000
0010
0000
0100
0000
1000
0100
,
1000
0000
0001
1000
0001
0000
0100
0010
,
0100
0000
0000
0000
0001
0000
1000
0000
0100
0000
1000
0000
0001
0000
0100
0001
,
0100
0000
0000
0000
0010
0000
1000
0100
1000
0000
0000
0000
0001
0000
0100
0001
,
0100
0000
0010
0100
1000
0100
0010
0100
,
1000
0000
0000
0000
0001
0000
0100
0000
0001
0000
0000
0000
0100
0000
0010
0100
,
0010
0000
0000
0000
1000
0000
0001
0000
0010
0000
0100
0000
0010
0000
0001
0100
,
0002
0000
0000
0000
1003
0000
0010
0100
0020
0000
0000
0000
1030
0000
0001
1000
,
0200
0000
0000
0000
1300
0000
0100
0000
0010
0000
0001
0000
1000
0000
0100
1000
,
0200
0000
1300
0010
0100
0001
1000
0010
,
2000
0000
0000
0000
3001
0000
0010
0000
0100
0000
1000
0000
0001
0000
0010
0100
,
2000
0000
0000
0000
3000
0000
0100
1000
0002
0000
0000
0000
1003
0000
0001
0100
,
0020
0000
0000
0000
1030
0000
0100
0000
0010
0000
0001
0000
1000
0000
0001
1000
,
0200
0000
0000
0000
0310
0000
0100
0000
0010
0000
0000
0000
1000
0000
0001
0010
,
0002
0000
1003
0100
0010
0001
1000
0001
,
2002
0000
0000
0000
0000
0000
0000
3003
,
0010
0100
0010
1000
0001
0100
0010
0100
,
0010
0000
1000
0001
0200
0000
0310
0100
,
0020
0000
0130
0001
2000
0000
3100
1000
,
1100
0000
0000
1100
0000
0000
0010
0000
0200
0000
0000
0000
0320
0000
0100
0000
,
0130
0001
1000
0100
1000
0000
0001
1000
,
0100
0010
0001
1000
0200
0000
1300
0001
,
2000
0000
3001
1000
0020
0000
1030
0001
,
0001
0000
0000
0110
0000
0000
0110
0000
1000
0000
1000
0000
2002
0000
0000
0000
,
0000
0000
0000
0000
,
0000
0000
0000
0000
,
3003
0000
0000
0000
;

//---------------dance-single - ----------------
#NOTES:
     dance-single:
     :
     Medium:
     6:
     0.377343,0.406668,0.193651,0.077461,0.030984,341.000000,316.000000,25.000000,10.000000,0.000000,0.000000,0.377343,0.406668,0.193651,0.077461,0.030984,341.000000,316.000000,25.000000,10.000000,0.000000,0.000000:
0000
0000
0000
0000
,
0000
0000
0000
0000
,
1000
0000
0000
0000
1000
0000
0000
0000
0001
0000
0000
0000
0100
0010
0000
0000
,
0100
0000
0000
0000
0001
0000
1000
0000
0100
0000
0000
0000
1000
0100
0000
0000
,
0100
0000
1000
0001
1000
0000
0010
0100
,
0001
0000
0000
1001
0000
0000
0010
0000
0100
0000
0000
0000
0001
0000
1000
0000
,
0010
0100
0010
0000
1000
0001
1000
0000
,
0010
0100
0010
0000
1000
0000
0001
0100
,
0010
0000
1000
0001
0100
0000
0001
0000
,
1000
0000
0000
1100
0000
0000
0100
0000
0000
0000
0000
0000
0011
0000
0000
0000
,
0100
0000
1000
0100
1000
0000
0001
0100
,
0001
0000
1000
0010
0100
0000
0001
1000
,
0010
1000
0001
1000
,
0010
0000
0000
0110
0000
0000
0100
0000
0100
0000
0000
0000
0001
0000
0000
0000
,
0010
0000
0100
0000
1000
0000
0001
0100
,
0001
0000
1000
0001
0100
0000
0001
0010
,
0100
1000
0110
0001
,
1000
0000
0000
0110
0000
0000
0001
0000
0000
0000
0000
0000
1100
0000
0000
0000
,
0010
0001
0010
0100
,
1000
0100
1000
0100
1000
0000
0001
0000
,
1000
0100
1000
0001
,
0100
0010
0100
0010
0100
0000
0001
0000
,
0100
0001
1000
1000
,
0010
0110
0001
0101
,
1000
0000
1000
0000
0010
0100
0010
0000
,
0100
0001
0100
0100
,
1010
0000
0001
0000
1000
0001
0100
0000
,
0001
1000
0001
0100
,
1001
0000
0010
0000
0100
1000
0100
0000
,
0010
0011
0100
1100
,
0010
0000
0110
0000
0010
0001
0010
0000
,
0100
1000
0001
0000
1000
0001
0100
0000
,
0001
0010
0100
0000
1000
0100
0010
0000
,
0001
0010
0100
1000
0010
0100
0010
0000
,
2000
0000
0000
0000
0000
0000
0000
0000
0000
0000
0000
0000
0000
3000
0000
0000
,
0002
0000
0000
0000
0000
0000
0000
0000
0000
0000
0000
0000
0000
0003
0000
0000
,
0220
0000
0000
0000
0000
0000
0000
0000
0000
0000
0000
0000
0000
0330
0000
0000
,
2002
0000
0000
3003
,
0100
0100
0010
0010
,
1000
1000
0001
0001
,
1000
0001
0100
0000
0001
1000
0010
0000
,
1000
0001
1000
0000
0001
0100
0001
0000
,
2000
0000
0000
3000
,
0110
0000
0001
1000
0010
0000
0100
0001
,
1000
0000
0010
0000
1000
0100
1000
0000
,
0110
0000
0001
1000
0001
0000
0100
0010
,
0100
0000
0001
1000
0001
0000
0110
0000
,
1000
0100
1000
0000
0001
0100
0010
0000
,
1000
0001
0100
0000
0001
0010
0100
1000
,
0100
1000
1000
1000
,
0001
0001
0001
0001
,
0100
0010
0100
0000
0001
1000
0001
0000
,
1000
0100
1000
0000
0001
0100
0010
0000
,
0101
0000
1000
0000
0010
0100
0010
0000
,
1000
0100
0010
0001
,
1000
0010
1000
0000
0001
0100
0001
0000
,
1000
0010
0100
0000
0001
0010
0100
0000
,
1000
0010
0100
0000
0001
0010
0100
0000
,
0010
1000
0001
1000
0001
1000
0010
0000
,
0200
0000
0000
0000
0000
0000
0000
0300
,
0001
0001
1000
1000
,
0010
0000
0100
0001
0100
0000
0010
0000
,
0110
1000
1001
0010
,
0100
0000
0000
0110
0000
0000
0010
0000
0010
0000
0000
0000
1000
0000
0000
0000
,
0001
0000
1000
0000
0010
0000
0100
0010
,
0100
0000
0001
1000
0010
0000
1000
0001
,
0100
0000
0001
1000
0010
0000
1000
0000
,
0001
0000
0000
0101
0000
0000
0010
0000
0000
0000
0000
0000
2002
0000
0000
0000
,
0000
0000
0000
0000
,
0000
0000
0000
0000
,
3003
0000
0000
0000
;

//---------------dance-single - ----------------
#NOTES:
     dance-single:
     :
     Easy:
     4:
     0.267792,0.298223,0.100699,0.085207,0.000000,242.000000,229.000000,13.000000,11.000000,0.000000,0.000000,0.267792,0.298223,0.100699,0.085207,0.000000,242.000000,229.000000,13.000000,11.000000,0.000000,0.000000:
0000
0000
0000
0000
,
0000
0000
0000
0000
,
1000
1000
0010
0010
,
0100
0100
0001
1000
,
0001
0001
1000
1000
,
0010
0000
0110
0001
,
0010
0100
1000
0010
,
1000
0010
0100
0001
,
1000
0000
0110
0000
,
0001
0001
0001
0000
,
1000
0010
0100
0001
,
1000
0010
0100
0001
,
1000
1000
0010
0010
,
0100
0000
0101
0000
,
0010
0010
1000
1000
,
0001
0100
0010
1000
,
0002
0000
0000
0003
,
1000
0000
0000
1001
0000
0000
0000
0000
,
0010
0100
0010
0100
,
0010
0100
0010
0100
,
0001
1000
0001
1000
,
0001
0100
0010
1000
,
1001
0010
0100
0100
,
0010
0100
0010
0010
,
1000
0001
1000
1000
,
0001
1000
0001
0001
,
1001
0010
0100
0010
,
1000
0010
0100
0001
,
0101
0010
1000
0010
,
0100
0001
0010
0100
,
1100
0010
0001
0010
,
0100
1000
0010
0100
,
1010
0001
0100
0010
,
1000
1000
1000
1000
,
0002
0000
0000
0000
,
0203
0000
0000
0000
,
0320
0000
0000
0000
,
2030
0000
0000
0000
,
3001
0001
0001
0001
,
0100
0100
0100
0100
,
0010
0010
0010
0010
,
1000
1000
1000
1000
,
0002
0000
0000
0000
,
1003
0000
0010
1000
,
0001
0100
0010
1000
,
0001
0001
0001
0001
,
0001
0001
0001
0001
,
1000
0010
0100
0001
,
1000
0010
0100
0001
,
1000
1000
1000
1000
,
0010
0010
0010
0010
,
0100
0001
1000
0010
,
0100
0001
1000
0001
,
0100
0100
0100
0100
,
0100
0100
0100
0100
,
0010
1000
0001
0100
,
0010
1000
0001
0001
,
1000
1000
1000
1000
,
0010
0010
0010
0010
,
0200
0000
0000
0300
,
0001
1000
0001
1000
,
0010
0100
0010
0100
,
0010
0100
0001
1000
,
1001
0000
1001
0000
,
0010
0100
0010
0100
,
0010
1000
0001
1000
,
0020
0000
0000
0000
0230
0000
0000
0300
,
0001
0000
0000
1001
0000
0000
2002
0000
,
0000
0000
0000
0000
,
0000
0000
0000
0000
,
3003
0000
0000
0000
;

//---------------dance-single - Copied from----------------
#NOTES:
     dance-single:
     Copied from:
     Beginner:
     2:
     0.073034,0.104959,0.007746,0.023238,0.000000,66.000000,65.000000,1.000000,3.000000,0.000000,0.000000,0.073034,0.104959,0.007746,0.023238,0.000000,66.000000,65.000000,1.000000,3.000000,0.000000,0.000000:
0000
0000
0000
0000
,
0000
0000
0000
0000
,
1000
0000
0000
0000
,
1000
0000
0000
0000
,
0001
0000
0000
0000
,
0100
0000
0000
0000
,
0100
0000
0000
0000
,
0100
0000
0000
0000
,
0010
0000
0000
0000
,
0010
0000
0000
0000
,
1000
0000
0000
0000
,
1000
0000
0000
0000
,
0001
0000
0000
0000
,
0001
0000
0000
0000
,
1000
0000
0000
0000
,
1000
0000
0000
0000
,
0010
0000
0000
0000
,
0100
0000
0000
0000
,
1000
0000
0000
0000
,
0001
0000
0000
0000
,
1000
0000
0000
0000
,
0001
0000
0000
0000
,
1000
0000
0000
0000
,
0001
0000
0000
0000
,
0100
0000
0000
0000
,
0010
0000
0000
0000
,
1000
0000
0000
0000
,
0001
0000
0000
0000
,
1000
0000
0000
0000
,
0001
0000
0000
0000
,
1000
0000
0000
0000
,
0010
0000
0000
0000
,
0100
0000
0000
0000
,
0001
0000
0000
0000
,
2000
0000
0000
3000
,
0000
0000
0000
0000
,
0002
0000
0000
0003
,
0000
0000
0000
0000
,
0100
0000
0000
0000
,
0010
0000
0000
0000
,
0100
0000
0000
0000
,
0010
0000
0000
0000
,
0200
0000
0000
0000
0000
0000
0000
0300
,
0001
0000
0000
0000
,
0001
0000
0000
0000
,
1000
0000
0000
0000
,
1000
0000
0000
0000
,
0010
0000
0000
0000
,
0010
0000
0000
0000
,
0100
0000
0000
0000
,
0100
0000
0000
0000
,
0001
0000
0000
0000
,
0001
0000
0000
0000
,
1000
0000
0000
0000
,
1000
0000
0000
0000
,
0010
0000
0000
0000
,
0010
0000
0000
0000
,
0100
0000
0000
0000
,
0100
0000
0000
0000
,
1001
0000
0000
0000
,
0010
0000
0000
0000
,
0100
0000
0000
0000
,
0010
0000
0000
0000
,
0100
0000
0000
0000
,
0001
0000
0000
0000
,
1000
0000
0000
0000
,
0001
0000
0000
0000
,
1000
0000
0000
0001
;
