#TITLE:Anomie (Axiom Style);
#SUBTITLE:;
#ARTIST:D-Fener;
#TITLETRANSLIT:;
#SUBTITLETRANSLIT:;
#ARTISTTRANSLIT:;
#CREDIT:SupremeX;
#BANNER:Anomie (Axiom Style)-bn.png;
#BACKGROUND:Anomie (Axiom Style)-bg.png;
#LYRICSPATH:;
#CDTITLE:;
#MUSIC:Anomie (Axiom Style).ogg;
#OFFSET:-0.153;
#SAMPLESTART:106.780;
#SAMPLELENGTH:12.000;
#SELECTABLE:YES;
#BPMS:0.000=144.000;
#STOPS:;
#BGCHANGES:0.000=Anomie (Axiom Style).avi=1.000=0=0=1,
99999=-nosongbg-=1.000=0=0=0 // don't automatically add -songbackground-
;

//---------------dance-single - ----------------
#NOTES:
     dance-single:
     :
     Hard:
     9:
     0.670,0.771,0.288,0.192,0.417: // measure 1
0000
0000
0000
0000
,  // measure 2
0000
0000
0000
0000
,  // measure 3
0000
0000
0000
0000
,  // measure 4
0000
0000
0000
0000
,  // measure 5
1000
0100
1000
0100
0020
0000
0031
0000
,  // measure 6
0001
0010
0100
1000
0200
0000
1300
0000
,  // measure 7
1000
0100
0010
0001
0020
0000
0031
0000
,  // measure 8
0100
1000
0100
0010
0200
0000
1300
0000
,  // measure 9
0100
0000
0010
0100
0000
0010
0001
0000
0001
0000
0000
0000
0110
0000
0000
0000
,  // measure 10
1000
0000
0100
1000
0000
0100
1000
0000
1000
0000
0010
0100
0000
0010
0100
0000
,  // measure 11
0001
0000
0100
0001
0000
1000
0010
0000
1000
0000
0000
0000
1001
0000
0000
0000
,  // measure 12
0010
0000
0100
0010
0000
0100
0010
0000
0100
0000
0001
1000
0000
0010
0100
0000
,  // measure 13
0010
0000
1000
0001
0000
0010
0100
0000
0010
0000
0000
0000
0110
0000
0000
0000
,  // measure 14
0001
0000
0100
0001
0000
0001
0100
0000
0010
0000
1000
0010
0000
0010
1000
0000
,  // measure 15
0100
0000
0010
0001
0000
0010
0001
0000
0010
0000
0000
0000
1100
0000
0000
0000
,  // measure 16
0100
0000
1000
0100
0000
1000
0100
0000
0010
0000
0001
0010
0000
0001
1000
0000
,  // measure 17
0100
1000
0100
1000
0100
1000
0100
1000
0100
1000
0100
0000
0000
0000
0000
0000
,  // measure 18
0010
0001
0010
0001
0010
0001
0010
0001
0010
0001
0010
0000
0000
0000
0000
0000
,  // measure 19
0001
0100
0010
1000
0001
0100
0010
1000
0001
0100
0010
0000
0000
0000
0000
0000
,  // measure 20
1000
0010
0100
0001
1000
0010
0100
0001
1000
0010
0100
0000
0000
0000
0000
0000
,  // measure 21
0001
1000
0010
0100
0001
1000
0010
0100
0001
1000
0010
0000
0000
0000
0000
0000
,  // measure 22
1000
0100
0010
0001
1000
0100
0010
0001
1000
0100
0010
0000
0000
0000
0000
0000
,  // measure 23
0001
0010
0100
1000
0001
0010
0100
1000
0001
0010
0100
0000
0000
0000
0000
0000
,  // measure 24
1000
0010
1000
0010
1000
0010
1000
0010
1000
0010
1000
0010
0000
0000
0000
0000
,  // measure 25
0100
0001
0100
0001
0100
0001
0100
0001
0100
0001
0100
0000
0000
0000
0000
0000
,  // measure 26
0010
1000
0001
0100
0001
1000
0001
0100
0001
1000
0001
0100
0000
0000
0000
0000
,  // measure 27
0010
1000
0001
0100
0001
1000
0001
0100
0001
1000
0001
0000
0000
0000
0000
0000
,  // measure 28
1000
0100
1000
0001
1000
0100
1000
0001
1000
0100
1000
0001
0000
0000
0000
0000
,  // measure 29
1000
0100
1000
0100
1000
0100
1000
0100
1000
0100
2000
0000
0000
0000
3000
0000
,  // measure 30
0001
0100
0001
0100
0001
0100
0001
0100
0001
0100
0001
0200
0000
0000
0300
0000
,  // measure 31
0010
1000
0010
1000
0010
1000
0010
1000
0010
1000
0010
0000
0110
0000
0000
0000
,  // measure 32
0001
0100
0010
1000
0200
0000
1300
0000
,  // measure 33
0010
0001
0010
0100
2000
0000
3100
0000
,  // measure 34
1000
0010
0100
0001
0020
0000
0130
1000
,  // measure 35
0100
0010
0001
1000
0002
0000
1003
0000
,  // measure 36
1000
0100
0010
0001
0020
0000
0031
0000
,  // measure 37
0001
0010
0100
1000
0200
0000
1300
0000
,  // measure 38
0100
1000
0100
1000
0200
0000
1300
0100
,  // measure 39
0100
0010
0001
1000
2000
0000
3100
0000
,  // measure 40
0010
0001
0010
0010
0100
1000
1000
0000
,  // measure 41
0100
0010
0100
0010
0001
1000
0001
1000
,  // measure 42
0010
0000
0101
0101
0000
1010
1010
0000
,  // measure 43
0001
1000
0100
1000
0000
0001
0100
0010
,  // measure 44
0010
0000
1000
1000
0000
0001
1000
0001
,  // measure 45
0100
0000
0110
0110
0000
0001
0010
0100
,  // measure 46
1000
0000
1100
1100
0000
0011
0011
0000
,  // measure 47
0100
1000
0100
0100
0000
0010
0001
0010
,  // measure 48
0010
0000
0100
0100
0000
1000
0100
0000
,  // measure 49
0100
1000
0010
1000
0001
0100
0010
0100
,  // measure 50
0001
0000
1001
1001
0000
0100
0100
0000
,  // measure 51
0010
1000
0010
0100
0010
1000
0001
1000
,  // measure 52
0010
0000
0000
0000
1001
0000
1001
0000
0000
0100
0010
0000
0100
0000
0100
0000
,  // measure 53
0001
1000
0010
0010
0000
1000
0100
1000
,  // measure 54
1100
0000
0011
0011
0000
1001
1001
0000
,  // measure 55
0100
0000
0110
0110
0000
0001
0010
0100
,  // measure 56
1100
0000
1001
1001
0000
0110
0110
0000
,  // measure 57
0001
0010
0001
1000
0001
0010
0010
0100
,  // measure 58
0010
0001
0010
0100
1000
0100
0100
0010
,  // measure 59
0001
0010
0100
0010
0001
1000
1000
0100
,  // measure 60
0010
0100
1000
0100
0010
0100
1000
1000
,  // measure 61
0100
0010
0001
0010
0100
0010
0001
0001
,  // measure 62
0010
0100
1000
0100
0010
0001
0100
0100
,  // measure 63
0010
1000
0001
1000
0001
0010
0010
0000
,  // measure 64
2002
0000
0000
3003
,  // measure 65
1000
0100
1000
0100
0010
0000
0011
0000
,  // measure 66
0100
1000
0100
1000
0020
0000
0130
0000
,  // measure 67
0001
0010
0100
1000
0002
0000
0103
0000
,  // measure 68
0010
1000
0001
1000
0200
0000
1300
0100
,  // measure 69
1000
0100
0010
0001
0020
0000
0130
0000
,  // measure 70
1000
0100
0010
0001
2000
0000
3100
0000
,  // measure 71
1000
0100
1000
0010
0200
0000
0310
0000
,  // measure 72
0001
0010
0100
1000
0110
0000
1001
0000
,  // measure 73
0220
0000
0000
0000
,  // measure 74
0000
0000
0000
0000
,  // measure 75
0330
0000
0000
0000
;

//---------------dance-single - ----------------
#NOTES:
     dance-single:
     :
     Medium:
     6:
     0.454,0.442,0.128,0.032,0.000:
0000
0000
0000
0000
,
0000
0000
0000
0000
,
0000
0000
0000
0000
,
0000
0000
0000
0000
,
1000
0100
1000
0000
0101
0000
1010
0000
,
0001
0100
0010
0000
0110
0000
1001
0000
,
1000
0010
0100
0000
0110
0000
0101
0000
,
0010
1000
0100
0000
1100
0000
1001
0000
,
0010
0100
0010
0100
0010
0000
0000
0000
,
1000
0010
0100
0000
0100
0010
1000
0000
,
0001
1000
0100
1000
0001
0000
0001
0000
,
1000
0100
1000
0000
0100
1000
0100
0000
,
0010
0001
0010
0001
0010
0000
0100
0000
,
1000
0001
1000
0000
0010
0100
0010
0000
,
1000
0100
0010
0001
0100
0000
0100
0000
,
0001
1000
0001
0000
1000
0100
1000
0000
,
0001
0000
0001
0000
0100
0010
1000
0000
,
0100
0000
0100
0000
0010
0001
0010
0000
,
0100
0000
0100
0000
1000
0100
1000
0000
,
0001
0000
0001
0000
1000
0001
0100
0000
,
0100
0001
1000
0000
0001
0100
0010
0000
,
0010
0100
0001
0000
1000
0100
0010
0000
,
0001
1000
0001
0000
1000
0100
1000
0000
,
0001
0010
0100
1000
0001
0100
0001
0000
,
1000
0100
0010
0001
0010
0100
0000
0000
,
1000
0010
0100
0001
1000
0010
0000
0000
,
1000
0001
0100
0001
0100
0001
0000
0000
,
1000
0100
1000
0100
1000
0100
0000
0000
,
0001
1000
0100
0010
0100
1000
0100
0000
,
0010
0001
0010
0100
0010
0001
0010
0000
,
0100
1000
0100
0010
0100
1000
0001
0000
,
0100
0100
0100
0100
,
0001
1000
0100
1000
0100
0000
1000
0000
,
0001
0100
0001
0100
0001
0000
0001
0000
,
1000
0100
0010
0001
0100
0000
0100
0000
,
0001
1000
0100
1000
0001
0000
0001
0000
,
1000
0010
0100
0001
1000
0000
0010
0000
,
0010
0100
0010
0000
1000
0000
1001
0000
,
0010
0100
0010
0000
1001
0000
0110
0000
,
0001
1000
0010
0100
0000
0001
0001
0000
,
1000
0000
0100
0100
0000
1000
1000
0000
,
0001
0000
0100
0001
0000
0100
0001
0000
,
1000
0000
0010
0010
0000
1000
1000
0010
,
0100
0000
0100
0010
0000
1000
0001
0000
,
0001
0000
1000
1000
0000
0100
0100
0010
,
0010
0000
0001
0001
0000
1000
0010
0000
,
0010
0000
0100
0100
0000
0001
1000
0010
,
0100
0000
0100
0010
0000
1000
0010
0000
,
0010
0000
0100
0000
0001
0000
1000
0100
,
1000
1100
0110
0011
,
0100
0000
1000
0100
0000
0100
1000
0100
,
0010
0000
0001
0001
0000
0010
0010
0000
,
0100
0000
1000
0100
0000
0100
1000
0001
,
1000
0000
0010
0010
0000
0100
0100
0000
,
1000
0000
1000
0010
0000
0010
0100
0001
,
0100
0000
0010
1000
0000
1000
0010
0000
,
0100
0001
0100
0001
0000
1000
0010
0000
,
0010
1000
0100
0100
0000
0010
0001
0010
,
0100
0010
0001
0001
0000
1000
0100
0000
,
0100
0000
0010
0001
0000
1000
0010
0000
,
0010
0000
0100
0001
0000
0001
0100
0000
,
0010
1000
0001
1000
0000
0010
0100
0000
,
0001
0000
1000
0001
0000
1000
0001
0000
,
0220
0000
0000
0330
,
1000
0000
1000
0000
0100
1000
0100
0000
,
0010
0000
0001
0000
0010
0100
1000
0000
,
0100
0000
0100
0000
0010
0001
0010
0000
,
0100
0000
1000
0000
0001
0010
0100
0000
,
1000
0000
1000
0000
0100
1000
0100
0000
,
0010
0000
0010
0000
0001
1000
0001
0000
,
1000
0010
0100
0000
0100
0010
1000
0000
,
0001
0010
0100
1000
0010
0100
0010
0000
,
2002
0000
0000
0000
,
0000
0000
3003
0000
;

//---------------dance-single - ----------------
#NOTES:
     dance-single:
     :
     Easy:
     3:
     0.305,0.294,0.032,0.016,0.000:
0000
0000
0000
0000
,
0000
0000
0000
0000
,
0000
0000
0000
0000
,
0000
0000
0000
0000
,
0001
0100
0010
0010
,
1000
0001
0100
0100
,
0001
1000
0001
0001
,
1000
0001
1000
1000
,
0010
0100
0010
0100
,
0001
1000
0001
1000
,
0010
0100
0001
1000
,
0010
0100
0001
1000
,
0010
1000
0010
0110
,
0001
0100
0001
0100
,
0010
1000
0010
0101
,
1000
0010
1000
0010
,
0100
0001
1000
0001
,
1000
0010
0100
0100
,
0001
1000
0010
0010
,
1000
0001
0100
0100
,
0001
1000
0001
0001
,
1000
0001
1000
1000
,
0010
0100
0001
0001
,
1000
0010
0100
0100
,
0001
0010
0100
1000
,
0001
0010
0100
1000
,
0010
0100
0010
0100
,
0001
1000
0010
0100
,
0001
1000
0010
1000
,
0001
0100
0001
1000
,
0010
0100
0001
1000
,
0001
0001
0001
0001
,
1000
1000
1000
1000
,
0010
0010
0010
0010
,
0100
0100
0100
0100
,
0001
0001
0001
0001
,
1000
1000
1000
1000
,
0010
0010
0010
0010
,
0100
0100
0100
0100
,
0001
0000
0000
1000
0000
1000
1000
0000
,
0001
0000
0100
0100
0000
0000
0010
0000
,
1000
0010
0100
0001
,
1000
0000
0001
0001
0000
0000
1000
0000
,
0010
0000
0100
0100
0000
0000
0001
0000
,
1000
0000
0010
0010
0000
0000
0100
0000
,
0001
0000
1000
1000
0000
0000
0010
0000
,
0100
0000
0001
0001
0000
0000
1000
0000
,
0010
0000
1000
1000
0000
0000
0000
0000
,
0001
0001
0001
0001
,
0001
0001
0001
0001
,
1000
1000
1000
1000
,
1000
1000
1000
1000
,
0010
0010
0010
0010
,
0010
0010
0010
0010
,
0100
0100
0100
0100
,
0100
0100
0000
0001
,
1000
0000
0000
0001
0000
0000
0000
0000
,
1000
0000
0000
0001
0000
0000
0000
0000
,
1000
0000
0000
0110
0000
0000
0000
0000
,
0001
0000
0000
0110
0000
0000
0000
0000
,
1000
1000
1000
1000
,
0001
0001
0001
0001
,
0100
0100
0100
0100
,
0020
0000
0000
0030
,
1000
0010
1000
1000
,
0001
0100
0001
0001
,
1000
0010
0100
0100
,
0001
0100
0010
0010
,
1000
0010
0100
0100
,
0001
1000
0010
0010
,
1000
0100
1000
1000
,
0001
0100
0001
0001
,
0020
0000
0000
0000
,
0000
0000
0000
0030
0000
0000
0000
0000
;

//---------------dance-single - Copied from----------------
#NOTES:
     dance-single:
     Copied from:
     Beginner:
     2:
     0.097,0.171,0.064,0.072,0.000:
0000
0000
0000
0000
,
0000
0000
0000
0000
,
0000
0000
0000
0000
,
0000
0000
0000
0000
,
0010
0000
0000
0000
,
1000
0000
0000
0000
,
0010
0000
0000
0000
,
1000
0000
0000
0000
,
0001
0000
0000
0000
,
0001
0000
0000
0000
,
0100
0000
0000
0000
,
0100
0000
0000
0000
,
0010
0000
0000
0000
,
1000
0000
0000
0000
,
0010
0000
0000
0000
,
1000
0000
0000
0000
,
0001
0000
0000
0000
,
0100
0000
0000
0000
,
0001
0000
0000
0000
,
0100
0000
0000
0000
,
0010
0000
0000
0000
,
1000
0000
0000
0000
,
0010
0000
0000
0000
,
1000
0000
0000
0000
,
0001
0000
0000
0000
,
0100
0000
0000
0000
,
0001
0000
0000
0000
,
0100
0000
0000
0000
,
0010
0000
0000
0000
,
0010
0000
0000
0000
,
1000
0000
0000
0000
,
2000
0000
0000
3000
,
0002
0000
0000
0003
,
2000
0000
0000
3000
,
0002
0000
0000
0003
,
2000
0000
0000
3000
,
0002
0000
0000
0003
,
2000
0000
0000
3000
,
0002
0000
0000
0003
,
2000
0000
0000
3000
,
0010
0000
0000
0000
,
0010
0000
0000
0000
,
0100
0000
0000
0000
,
0100
0000
0000
0000
,
0010
0000
0000
0000
,
0010
0000
0000
0000
,
0100
0000
0000
0000
,
0100
0000
0000
0000
,
0001
0000
0000
0000
,
1000
0000
0000
0000
,
0001
0000
0000
0000
,
1000
0000
0000
0000
,
0010
0000
0000
0000
,
0100
0000
0000
0000
,
0010
0000
0000
0000
,
0100
0000
0000
0000
,
1001
0000
0000
0000
,
1001
0000
0000
0000
,
1001
0000
0000
0000
,
1001
0000
0000
0000
,
0110
0000
0000
0000
,
0110
0000
0000
0000
,
0110
0000
0000
0000
,
0110
0000
0000
0000
,
0001
0000
0000
0000
,
0100
0000
0000
0000
,
0001
0000
0000
0000
,
0100
0000
0000
0000
,
0010
0000
0000
0000
,
1000
0000
0000
0000
,
0010
0000
0000
0000
,
1000
0000
0000
0000
;
