#TITLE:悪魔のハニープリン;
#SUBTITLE:;
#ARTIST:ひまわりxパンチ;
#TITLETRANSLIT:Akuma no Honey Pudding;
#SUBTITLETRANSLIT:;
#ARTISTTRANSLIT:Himawari∗punch;
#GENRE:;
#CREDIT:SupremeX;
#BANNER:Akuma no Honey Pudding-bn.png;
#BACKGROUND:Akuma no Honey Pudding-bg.png;
#LYRICSPATH:;
#CDTITLE:;
#MUSIC:Akuma no Honey Pudding.ogg;
#OFFSET:-2.140926;
#SAMPLESTART:54.639999;
#SAMPLELENGTH:12.000000;
#SELECTABLE:YES;
#BPMS:0.000000=210.000000
;
#STOPS:
;
#BGCHANGES:;
#KEYSOUNDS:;
#ATTACKS:;

//---------------dance-single - ----------------
#NOTES:
     dance-single:
     :
     Hard:
     10:
     0.667390,0.962993,0.271783,0.183637,0.106510,636.000000,599.000000,37.000000,25.000000,0.000000,0.000000,0.667390,0.962993,0.271783,0.183637,0.106510,636.000000,599.000000,37.000000,25.000000,0.000000,0.000000:
1000
1100
0100
0110
,
0001
0000
0110
0000
1000
0000
0010
1000
,
0010
0000
1000
0000
0001
0000
0001
1000
,
0200
0000
0000
0000
0300
0000
1000
0001
,
1000
0000
0010
0100
0010
0000
1000
0010
,
1000
0000
0001
1000
0001
0000
0000
0100
,
0010
0100
0010
0100
0000
0020
0200
0000
,
0000
0000
0000
0330
0000
0000
0000
0000
,
0001
1001
0100
0110
,
0101
0000
0010
0000
1010
0000
1000
0001
,
0100
0000
0010
0000
1000
0000
0001
1000
,
0002
0000
0000
0000
0003
0000
1000
0001
,
1000
0000
0010
0100
0001
0000
1000
0010
,
0100
0000
0001
1000
0001
0000
0100
0000
,
0100
0010
1000
0010
,
0110
0101
1010
1001
,
1000
0000
0001
0010
0100
1000
0010
0100
,
0001
1000
0001
0010
0100
1000
0010
0100
,
0001
1000
0010
0100
0001
1000
0020
0000
,
0000
1030
1000
0000
0100
0000
0100
0000
,
1000
0001
0010
0100
0010
0001
0010
0100
,
0010
1000
0001
1000
0010
0100
0010
0000
,
1000
0100
0010
0001
0010
0100
1000
0100
,
1000
0100
2000
0000
3200
0000
1300
0000
,
1000
0000
0010
1000
0010
1000
0100
0010
,
0001
0000
0010
0010
0000
0000
0100
1000
,
0100
0000
0010
0001
0010
0000
0100
0000
,
1100
0110
0011
0000
,
1000
0100
0010
0002
0100
0000
0103
0000
,
0001
1000
0000
0010
0010
0000
1000
0001
,
0000
1000
1000
0001
0010
0100
0010
0001
,
0010
0000
0000
0100
0100
0000
1000
0001
,
0000
1000
1000
0010
0100
0010
0100
0001
,
1000
0001
1000
0100
0010
0100
1000
0100
,
2000
0000
3000
0100
1000
0000
0001
0000
,
0010
0001
0010
0100
0010
0001
1000
0100
,
0010
0100
1000
0100
0010
0001
0100
0001
,
0200
0000
0301
0101
,
0010
1000
0010
0100
0010
0100
0010
0100
,
0010
0010
1000
0001
1000
0001
1000
0001
,
0001
0010
0100
1000
0002
0000
0000
0000
,
0103
0000
1001
0000
0100
0010
1000
0001
,
1000
0000
0100
0100
0000
0000
1000
0001
,
0100
0010
1000
0001
0100
0000
0010
0000
,
0101
1010
0101
0000
,
1000
0100
0010
0001
0020
0000
0030
0000
,
0100
1000
0000
0100
0100
0000
0010
0001
,
0000
0010
0010
0001
0010
0100
1000
0010
,
1000
0100
0000
1000
1000
0000
0010
0100
,
0000
0010
0010
1000
0001
0100
0001
1000
,
0001
0000
0100
0100
0000
0000
0001
1000
,
0000
0010
0010
0000
1001
0000
1001
0000
,
0100
0010
0000
0100
0100
0000
0010
0100
,
0000
0010
0010
0000
1000
0000
1000
0000
,
0002
0000
0103
0001
0100
0001
1000
0100
,
0100
1000
0010
0100
0001
0100
0010
1000
,
0001
0001
1000
0100
1000
0001
0100
0001
,
1000
1000
0100
1000
0100
0010
0000
0000
,
0001
0010
0100
1000
0200
0000
0300
0000
,
1000
0001
1000
0002
0000
0003
1000
0100
,
1000
0100
0010
0001
0020
0000
0030
0001
,
0010
0110
1100
0000
,
0100
0010
0100
0001
0100
0010
1000
0001
,
1000
0010
0100
0001
0001
0000
0000
0000
,
1000
0100
0010
0100
1000
0100
0010
0100
,
1000
0100
0010
0100
0100
0000
0000
0000
,
0001
0100
0001
0100
0001
0100
0001
0100
,
0010
1000
0010
1000
0010
1000
0010
1000
,
0100
0010
0100
0010
0100
0010
0100
0010
,
1000
0001
1000
0001
1000
0001
1000
0001
,
1000
0100
1000
0100
1000
0100
1000
0100
,
0010
0001
0010
0001
0010
0001
0010
0001
,
0100
0001
0100
0010
1000
0010
1000
0010
,
1000
0001
0010
0100
1000
0010
0000
0000
,
1000
0010
0100
0010
0100
0010
1000
0001
,
0100
0001
1000
0100
0010
0000
0000
0000
,
0001
0010
0100
1000
0001
0100
0001
1000
,
0100
0010
0001
1000
0100
0000
0000
0000
,
2000
0000
0000
0000
,
3001
1000
0001
1000
0001
1000
0001
1000
0001
1000
0001
1000
0001
1000
0001
1000
,
0000
0000
0010
0000
0000
0100
0000
0010
0000
0000
1000
0000
0000
0001
0000
0000
,
0201
0000
0000
0000
,
0310
0000
0000
0000
,
1000
0000
0000
0000
,
0001
0000
0000
0000
0000
0000
0000
0000
0100
0010
0100
0010
0100
0010
0100
0010
,
0100
0001
0101
0010
,
1010
0000
0110
0000
1001
0000
0001
0100
,
0001
0000
1000
0000
0110
0000
0010
0100
,
0002
0000
0100
0000
0103
0000
0010
1000
,
0010
0000
1000
0100
1000
0000
0100
1000
,
0100
0000
0010
0001
1000
0000
0000
0000
,
0200
0000
0000
1000
1300
0000
0100
0000
,
1001
1010
0110
0101
,
1000
0010
0000
0100
0100
0000
0001
1000
,
0000
0010
0010
1000
0001
0100
0001
1000
,
0100
0000
0000
0010
0010
0000
0001
0010
,
0000
0001
0001
0100
0010
1000
0010
0100
,
0002
0000
0000
0000
,
1003
0000
0000
0000
,
0010
0000
0000
0000
0000
0101
0000
0000
,
0000
0000
1000
0000
,
0000
0000
0000
0000
0000
0000
0000
0000
0010
0000
0000
0010
0000
0000
0000
0000
,
0000
0000
0000
0000
0000
0000
0000
1000
0000
0000
1000
0000
0000
0000
0000
0000
,
0000
0000
0000
0000
0000
0000
0000
0000
0001
0000
0000
0001
0000
0000
0000
0000
,
0000
0000
0000
0000
0000
0000
0000
0000
0100
0000
0000
0100
0000
0000
0001
0000
,
0000
0010
0000
0000
0100
0000
0000
1000
0000
0000
0100
0000
0020
0000
0000
0000
,
0000
0000
0000
0032
0000
0000
0000
0000
,
0103
0000
2020
0000
,
3030
0000
0110
0110
,
0000
0000
0000
0001
0000
0000
0000
0000
,
1000
0000
0000
0000
,
0000
0000
0000
0000
,
0000
0000
0000
0000
,
1000
0001
1000
0001
1000
0001
1000
0001
1000
0001
1000
0001
1000
0001
1000
0001
,
1000
0000
0000
0000
;

//---------------dance-single - ----------------
#NOTES:
     dance-single:
     :
     Medium:
     8:
     0.528875,0.711778,0.374620,0.176292,0.033055,504.000000,453.000000,51.000000,24.000000,0.000000,0.000000,0.528875,0.711778,0.374620,0.176292,0.033055,504.000000,453.000000,51.000000,24.000000,0.000000,0.000000:
1000
1000
0010
0010
,
1001
0000
1001
0000
1001
0000
0010
0100
,
0010
0000
1000
0000
0001
0000
0001
1000
,
0200
0000
0300
1000
,
1000
0001
0001
0100
,
0100
0000
0010
0000
0010
0000
0000
1000
,
0010
1000
0010
1000
0000
0001
0002
0000
,
0000
0000
0000
0003
0000
0000
0000
0000
,
0100
0100
0010
0010
,
1001
0000
0110
0000
1001
0000
1000
0100
,
1000
0000
0100
0000
0100
0000
1000
0010
,
2000
0000
3000
0001
,
0001
0100
0010
1000
,
0100
0010
0010
0001
,
0001
1000
0100
1000
,
0110
0001
0110
1000
,
0001
0000
1000
0000
0010
0000
0100
0010
,
1000
0000
0001
1000
0001
0000
1000
0000
,
0010
1000
0010
0100
0001
0000
0120
0000
,
0000
0130
0100
0000
0001
0000
0001
0000
,
1000
0100
0100
0100
,
0100
1000
0001
1000
0010
0000
0010
0000
,
1000
0100
0010
0001
0100
0000
0010
0000
,
0100
0002
0203
0300
,
0010
0000
1000
0000
1000
0000
0001
0100
,
0001
0000
0100
0100
0000
0000
0010
1000
,
0010
1000
1000
1000
,
0001
0110
1001
0000
,
1000
0100
2200
3300
,
0010
0001
0000
1000
0001
0000
0100
0010
,
0000
1000
0100
0000
1100
0000
0110
0000
,
0011
0000
0000
1000
1000
0000
0010
0010
,
0000
0100
0100
0001
0010
0100
1000
0000
,
0010
0000
1000
0000
0100
0010
0001
1000
,
0002
0003
1000
0100
,
0010
0001
0010
0100
0010
0001
1000
0000
,
0001
1000
0010
1000
,
0201
0000
0310
0110
,
0001
0000
1001
0000
0100
0010
0100
0010
,
0100
0000
0001
0000
1000
0001
1000
0000
,
0001
1000
0020
0000
,
0130
0000
0010
0000
1000
0100
1000
0001
,
1000
0000
0100
0100
0000
0000
1000
0001
,
0100
0000
1000
0010
0100
0000
0001
0000
,
0110
1001
0110
0000
,
1000
0001
2200
3300
,
0010
0001
0000
0010
0010
0000
0100
1000
,
0000
0100
0100
0000
0011
0000
0011
0000
,
0100
1000
0000
0001
1000
0000
0010
0100
,
0000
0001
1000
0000
0001
0100
0001
1000
,
0001
0000
1000
1000
0000
0000
0001
0100
,
0000
0001
0001
0000
1100
0000
1100
0000
,
0010
0001
0000
1000
0100
0000
0010
0001
,
0000
1000
0100
0000
1000
0000
1000
0000
,
0001
0010
0010
0001
,
1000
0000
0010
0100
0001
0100
0010
1000
,
0001
1000
1000
0100
,
0010
0001
0010
0100
1000
0100
0000
0000
,
0010
0001
0010
0100
1000
0000
0000
0000
,
0010
0100
0010
0100
0000
0000
0001
0000
,
0001
0000
1000
0100
2000
0000
3000
0000
,
0010
0110
0110
0000
,
0001
0000
0001
0000
0001
0000
1000
0010
,
1000
0010
1000
0010
0010
0000
0000
0000
,
0100
0000
0001
0000
0100
0000
0010
1000
,
0001
1000
0100
1000
1000
0000
0000
0000
,
0001
0001
0001
0001
,
0110
0110
0110
0110
,
1000
1000
1000
1000
,
0101
0101
0101
0101
,
0010
0010
0010
0010
,
1010
1010
1010
1010
,
0100
0001
0100
0010
1000
0010
1000
0010
,
1000
0002
0000
0000
1003
0000
0000
0000
,
0010
1000
1000
0001
,
0100
0001
1000
0100
1000
0000
0000
0000
,
0001
0000
0100
0000
0001
0000
0001
1000
,
0100
0010
0001
1000
0001
0000
0000
0000
,
2000
0000
0000
0000
,
3010
0100
0010
0100
0010
0100
0010
0100
,
0000
0000
0001
0000
0000
0100
0000
0001
0000
0000
1000
0000
0000
0010
0000
0000
,
0200
0000
0000
0000
,
0310
0000
0000
0000
,
0010
0000
0000
0000
,
1000
0000
0000
0000
0000
0000
0000
0000
0220
0000
0000
0000
0000
0330
0000
0000
,
0001
0001
0110
1000
,
0100
0000
0100
0000
1100
0000
0010
0001
,
0010
0100
1100
0100
,
0020
0001
0031
0100
,
0100
0000
1000
0000
1000
0000
0100
0010
,
0100
0000
0001
1000
0001
0000
0000
0000
,
2000
0000
3100
1000
,
0110
1001
0110
0001
,
1000
0100
0000
1000
1000
0000
0001
0100
,
0000
0001
0001
0000
0110
0000
0110
0000
,
1000
0100
0000
1000
1000
0000
0001
0100
,
0000
0001
0001
0000
0010
0000
0010
0000
,
0002
0000
0000
0000
,
1003
0000
0000
0000
,
1000
0000
0000
0000
0000
0100
0000
0000
,
0000
0000
1000
0000
,
0000
0000
0000
0000
0000
0000
0000
0000
0010
0000
0000
0010
0000
0000
0000
0000
,
0000
0000
0000
0000
0000
0000
0000
0100
0000
0000
0100
0000
0000
0000
0000
0000
,
0000
0000
0000
0000
0000
0000
0000
0000
0001
0000
0000
0001
0000
0000
0000
0000
,
0000
0000
0000
0000
0000
0000
0000
0000
1000
0000
0000
1000
0000
0000
0001
0000
,
0000
0010
0000
0000
0100
0000
0000
1000
0000
0000
0100
0000
0010
0000
0000
0000
,
0000
0000
0000
0001
0000
0000
0000
0000
,
1000
0000
1100
0000
,
0000
0000
0010
0001
,
0000
0000
0000
1000
0000
0000
0000
0000
,
0001
0000
0000
0000
,
0000
0000
0000
0000
,
0000
0000
0000
0000
,
2002
0000
0000
0000
,
3003
0000
0000
0000
;

//---------------dance-single - ----------------
#NOTES:
     dance-single:
     :
     Easy:
     5:
     0.475358,0.711778,0.727203,0.080800,0.000000,453.000000,354.000000,99.000000,11.000000,0.000000,0.000000,0.475358,0.711778,0.727203,0.080800,0.000000,453.000000,354.000000,99.000000,11.000000,0.000000,0.000000:
1000
0100
1000
0001
,
1000
0110
0110
0001
,
0010
0100
1000
0100
,
0010
0010
0010
0001
,
0101
0010
1010
0100
,
1001
0010
0110
0000
,
1000
0100
1000
0010
,
0110
0000
0000
0000
,
0001
1000
0001
1000
,
0110
0110
0110
0001
,
0100
0010
1000
0010
,
1010
1010
1010
0100
,
0101
0010
1010
0100
,
1001
0010
0110
0000
,
0001
1000
0001
1000
,
1100
1100
1100
0000
,
0010
0001
0010
0100
,
0010
0001
1000
0001
,
0100
0001
1000
0001
,
0011
0011
0011
0100
,
1000
0100
1000
0010
,
0100
0010
1000
0010
,
0100
0001
0100
0010
,
1000
0001
0001
0000
,
0110
0110
1100
1100
,
0011
0011
0110
1000
,
0100
0010
0001
0010
,
0100
0100
0100
0000
,
1000
0100
1000
0000
,
0110
0000
1001
1001
,
0000
0110
0000
0000
,
1010
0000
0101
0101
,
0000
1010
0000
0100
,
0010
0110
1000
0001
,
1000
0010
0100
0010
,
1000
0001
0100
0001
,
1000
0010
1000
0010
,
0101
0010
1000
0010
,
1000
0010
0100
0100
,
0010
1000
0010
0100
,
0001
0100
0010
1000
,
0001
0001
1000
1000
,
0110
0110
0110
0001
,
0010
0100
1000
0001
,
1001
1001
1001
0000
,
0220
0000
0330
0000
,
0100
0101
0101
0010
,
1010
1010
1010
1010
,
0100
0110
0110
1001
,
1001
0110
0110
0110
,
0001
0100
0001
1000
,
0010
1000
0101
0101
,
0101
0010
1000
0010
,
1000
0001
1001
1001
,
0100
0001
1000
0010
,
0100
0001
1000
0010
,
0100
0001
1000
0010
,
1000
0010
0100
0010
,
1000
1000
1000
1000
,
0001
0001
0001
0001
,
1000
0010
0100
0010
,
1000
0001
0100
0000
,
0010
0010
0010
1000
,
0101
0101
0101
0000
,
0010
0100
0010
0100
,
1010
1010
1010
0000
,
0001
0010
0100
1000
,
0010
0010
0010
0010
,
1000
0001
1000
0010
,
0100
0100
0100
0100
,
0010
1000
0010
1000
,
0001
0001
0001
0001
,
1000
0010
0100
0001
,
1000
1000
1000
1000
,
0010
0100
0010
1000
,
0001
1001
1001
0000
,
0010
0100
0010
1000
,
1100
1100
1100
0000
,
0020
0000
0000
0000
0000
0000
0000
0030
,
0022
0000
0000
0000
0000
0000
0000
0033
,
0100
0000
1100
0000
,
2002
0000
0000
3003
,
1001
0000
0000
0000
,
0100
0000
0000
0000
,
0000
0000
0000
0000
,
1000
0001
0100
0001
,
0110
0110
0110
1000
,
0100
0010
0001
1000
,
0011
0011
0011
0100
,
1000
0100
1000
0010
,
0100
0010
0100
0000
,
1001
1001
0110
0110
,
1001
0110
1001
0000
,
0010
0100
0001
1000
,
0010
0100
1010
1010
,
0100
0001
1000
0100
,
1000
0001
0110
0110
,
2000
0000
0000
0000
,
3000
0000
0000
0000
,
0001
0000
0000
0000
0000
0001
0000
0000
,
0000
0000
0000
1000
,
0000
0000
0000
0000
0000
1000
0000
0000
,
0000
0000
0000
0000
0000
0010
0000
0000
,
0000
0000
0000
0000
0000
0100
0000
0000
,
0000
0000
0100
0000
,
0000
0000
0001
0000
,
0000
0000
0000
0000
,
1000
0000
1001
0000
,
0000
0000
0000
0000
,
2000
0000
0000
3000
0000
0000
0000
0000
,
0001
0000
0000
0000
,
0000
0000
0000
0000
,
0000
0000
0000
0000
,
2002
0000
0000
0000
,
3003
0000
0000
0000
;

//---------------dance-single - Copied from----------------
#NOTES:
     dance-single:
     Copied from:
     Beginner:
     3:
     0.154255,0.209346,0.014691,0.066109,0.000000,147.000000,145.000000,2.000000,9.000000,0.000000,0.000000,0.154255,0.209346,0.014691,0.066109,0.000000,147.000000,145.000000,2.000000,9.000000,0.000000,0.000000:
1000
0000
0000
0000
,
0010
0000
0000
0000
,
1000
0000
0000
0000
,
0001
0000
0000
0000
,
0100
0000
0100
0000
,
0100
0000
0100
0000
,
0010
0000
0000
0000
0000
0000
0000
0010
,
0000
0000
0000
0000
,
1000
0000
0000
0000
,
0001
0000
0000
0000
,
1000
0000
0001
0000
,
1000
0000
0000
0000
,
0100
0000
0010
0000
,
0100
0000
0010
0000
,
0100
0000
0000
0000
,
0001
0000
0000
0000
,
1000
0000
0000
0000
,
0010
0000
0000
0000
,
1000
0000
0000
0000
,
0001
0000
0000
0000
,
0100
0000
0000
0000
,
0001
0000
0000
0000
,
1000
0000
0000
0000
,
0010
0000
0000
0000
,
1000
0000
1000
0000
,
1000
0000
1000
0000
,
0010
0000
0010
0000
,
0010
0000
0000
0000
,
0100
0000
0000
0000
,
0001
0000
0001
0000
,
0001
0000
0001
0000
,
1000
0000
1000
0000
,
1000
0000
1000
0000
,
0020
0000
0000
0000
,
0000
0000
0030
0000
,
0200
0000
0000
0000
,
0000
0000
0300
0000
,
0001
0000
0000
0000
,
1000
0000
0000
0000
,
0001
0000
0000
0000
,
1000
0000
0000
0000
,
0001
0000
0100
0000
,
0010
0000
1000
0000
,
0001
0000
0100
0000
,
0010
0000
0000
0000
,
2000
0000
3000
0000
,
0001
0000
0100
0000
,
0010
0000
0000
0000
,
1000
0000
0001
0000
,
0100
0000
0000
0000
,
1000
0000
0010
0000
,
0100
0000
0000
0000
,
0001
0000
0100
0000
,
0010
0000
0000
0000
,
1000
0000
1000
0000
,
1000
0000
1000
0000
,
0001
0000
0001
0000
,
0001
0000
0001
0000
,
0100
0000
0100
0000
,
0100
0000
0100
0000
,
0010
0000
0010
0000
,
0010
0000
0010
0000
,
1000
0000
0001
0000
,
1000
0000
0001
0000
,
1000
0000
0010
0000
,
1000
0000
0010
0000
,
0100
0000
0000
0000
,
0100
0000
0000
0000
,
0100
0000
0000
0000
,
0100
0000
0000
0000
,
0001
0000
0000
0000
,
0001
0000
0000
0000
,
0001
0000
0000
0000
,
0001
0000
0000
0000
,
1000
0000
0010
0000
,
0100
0000
0001
0000
,
1000
0000
0010
0000
,
0100
0000
0001
0000
,
2000
0000
0000
0000
,
3002
0000
0000
0000
,
0003
0000
0000
0000
,
2002
0000
0000
3003
,
0000
0000
0000
0000
,
0000
0000
0000
0000
,
0000
0000
0000
0000
,
1000
0000
0010
0000
,
1000
0000
0001
0000
,
1000
0000
0010
0000
,
0100
0000
0000
0000
,
0001
0000
0001
0000
,
0001
0000
0001
0000
,
1000
0000
0010
0000
,
1000
0000
1000
0000
,
0010
0000
0100
0000
,
0010
0000
0000
0000
,
0100
0000
0010
0000
,
0100
0000
0000
0000
,
0001
0000
1000
0000
,
0001
0000
0000
0000
,
1000
0000
0000
0000
0000
1000
0000
0000
,
0000
0000
0000
0000
,
0000
0000
0000
0000
,
0000
0000
0000
0000
,
0000
0000
0000
0000
,
0000
0000
0000
0010
,
0000
0000
0000
0000
,
0000
0000
0000
0000
,
0100
0000
0000
0000
0000
0100
0000
0000
,
0000
0000
0000
0000
,
0001
0000
0000
0000
,
0000
0000
0000
0000
,
0000
0000
0000
0000
,
0000
0000
0000
0000
,
2002
0000
0000
0000
,
3003
0000
0000
0000
;
