#TITLE:Airport Terminal;
#SUBTITLE:;
#ARTIST:N.M.R.;
#TITLETRANSLIT:;
#SUBTITLETRANSLIT:;
#ARTISTTRANSLIT:;
#CREDIT:SupremeX;
#BANNER:Airport Terminal-bn.png;
#BACKGROUND:Airport Terminal-bg.png;
#LYRICSPATH:;
#CDTITLE:;
#MUSIC:Airport Terminal.ogg;
#OFFSET:-1.553;
#SAMPLESTART:54.800;
#SAMPLELENGTH:12.000;
#SELECTABLE:YES;
#BPMS:0.000=126.080;
#STOPS:;
#BGCHANGES:0.000=Airport Terminal.avi=1.000=1=1=0,
189.500=Airport Terminal-bg.png=1.000=0=0=1,
99999=-nosongbg-=1.000=0=0=0 // don't automatically add -songbackground-
;

//---------------dance-single - ----------------
#NOTES:
     dance-single:
     :
     Hard:
     7:
     0.479,0.503,0.117,0.085,0.000: // measure 1
0000
0000
0000
0000
,  // measure 2
0000
0000
0000
0000
,  // measure 3
0000
0000
0000
0000
,  // measure 4
0000
0000
0000
0000
,  // measure 5
1000
0100
1000
0001
1000
0100
0010
0000
,  // measure 6
0001
0010
0100
1000
0010
0100
0010
0000
,  // measure 7
1000
0001
0100
0010
1000
0001
0100
0000
,  // measure 8
0001
0100
0001
1000
0001
0100
0001
1000
,  // measure 9
0001
0100
0010
0110
,  // measure 10
0001
0010
0100
1000
0100
0010
0001
0100
,  // measure 11
0001
0000
1001
0000
0100
1000
0001
1000
,  // measure 12
0100
1000
0010
0000
0100
0001
0100
0000
,  // measure 13
0010
1010
0001
0101
,  // measure 14
0010
1000
0100
1000
0001
1000
0010
0100
,  // measure 15
0010
0000
0101
0000
0010
1000
1010
0000
,  // measure 16
0001
1000
0100
1000
0001
0100
0100
0100
,  // measure 17
0001
1000
0100
1000
0100
1000
1000
0001
,  // measure 18
0010
0100
1000
0100
0010
0010
0010
0001
,  // measure 19
0010
0100
0010
0001
0010
0100
0100
1000
,  // measure 20
0100
0010
0100
1000
0100
0100
0100
0000
,  // measure 21
0010
0001
0010
0100
1000
0100
0010
0100
,  // measure 22
1000
0001
0001
0010
0100
1000
0100
0000
,  // measure 23
0010
0001
1000
0001
0010
0100
0010
0100
,  // measure 24
1000
1000
0001
0001
0100
0100
0010
0010
,  // measure 25
1000
0100
0010
0100
1000
0100
0010
0000
,  // measure 26
0001
0010
0001
1000
0001
0010
0001
0000
,  // measure 27
1000
0100
1000
0100
0010
0100
0001
0000
,  // measure 28
1000
0010
0100
0010
0100
0001
1000
0000
,  // measure 29
1001
0100
0010
0100
0001
0010
0100
0010
,  // measure 30
0110
0100
0010
0100
0001
1000
0100
0010
,  // measure 31
0011
0001
0010
0100
1000
0100
1000
0100
,  // measure 32
0110
0001
0100
0010
1000
0010
0100
0001
,  // measure 33
2000
0000
0000
3020
0000
0000
0000
0000
,  // measure 34
0230
0000
0000
0301
0000
1000
1001
0000
,  // measure 35
0020
0000
0000
2030
0000
0100
3100
0000
,  // measure 36
0002
1000
1003
0200
0000
1000
1300
0000
,  // measure 37
0001
0100
0010
0000
1000
0001
0100
0000
,  // measure 38
0010
1000
0001
1000
0100
1000
1000
0000
,  // measure 39
0001
0010
0100
1000
0001
0100
0001
0000
,  // measure 40
1000
0001
0100
0010
1000
0001
1000
0000
,  // measure 41
0010
0100
0010
1000
0010
0100
0010
1000
,  // measure 42
0001
0100
0001
1000
0001
0100
0001
0000
,  // measure 43
1000
0100
1000
0010
1000
0100
1000
0000
,  // measure 44
0001
0100
0001
0100
0001
1000
1000
1000
,  // measure 45
0010
0100
0001
0100
0010
0100
0001
0000
,  // measure 46
1000
0010
0100
0010
1000
0010
0100
0000
,  // measure 47
0001
0010
0100
1000
0001
0010
0100
1000
,  // measure 48
0002
0003
0000
0000
;

//---------------dance-single - ----------------
#NOTES:
     dance-single:
     :
     Medium:
     5:
     0.331,0.328,0.053,0.096,0.000:
0000
0000
0000
0000
,
0000
0000
0000
0000
,
0000
0000
0000
0000
,
0000
0000
0000
0000
,
1000
0000
0100
0000
1000
0100
1000
0000
,
0001
0000
0100
0000
0001
0100
0001
0000
,
1000
0000
0010
0000
1000
0001
0100
0000
,
0010
0000
0010
0000
1000
0001
1000
0000
,
0010
0110
0001
1000
,
0100
0000
1000
0000
0001
1000
0001
0000
,
1000
1100
0010
0001
,
0100
0010
0100
0000
0010
0100
0010
0000
,
1000
0000
1001
0000
0001
1000
0001
0000
,
1000
0100
0010
0100
,
1000
0000
1100
0000
0010
0001
0010
0000
,
0100
1000
0100
1000
,
0010
0000
0010
0000
0100
0001
0100
0000
,
0010
0000
0010
0000
1000
0001
1000
0000
,
0100
0000
0100
0000
1000
0001
1000
0000
,
0010
0000
0010
0000
1000
0001
0100
0000
,
0001
0000
1000
0000
0001
1000
0001
0000
,
0100
0000
0001
0000
1000
0100
1000
0000
,
0001
0000
0101
0000
0010
1000
0010
0000
,
1000
0001
1000
0100
,
1000
0000
1000
0000
0100
1000
0100
0000
,
0010
0000
0010
0000
0001
1000
0010
0000
,
0100
0000
0100
0000
0010
0100
0010
0000
,
1000
0000
1000
0000
0001
1000
0001
0000
,
1000
0100
0010
0100
,
1000
0100
0010
0100
,
1000
0100
1000
0000
0001
1000
0001
0000
,
1000
0001
0100
0000
0100
0010
1000
0000
,
0002
0100
0100
0103
,
0020
1000
1000
1030
,
2000
0100
0100
3100
,
0002
0010
0010
0013
,
2000
0100
0100
3100
,
0002
1000
1000
1003
,
0200
0010
0010
0310
,
0020
1000
1000
1030
,
0001
0000
1000
0000
0010
0100
0010
0000
,
1000
0000
0001
0000
1000
0010
0100
0000
,
0001
0000
1000
0000
0001
0100
0001
0000
,
1000
0000
0001
0000
1000
0001
1000
0000
,
0010
0000
0100
0000
0001
0010
0100
0000
,
1000
0000
0100
0000
0010
0001
0010
0000
,
0100
0000
1000
0000
0001
1000
0100
0000
,
2000
0000
0000
3000
0000
0000
0000
0000
;

//---------------dance-single - ----------------
#NOTES:
     dance-single:
     :
     Easy:
     3:
     0.239,0.225,0.011,0.043,0.000:
0000
0000
0000
0000
,
0000
0000
0000
0000
,
0000
0000
0000
0000
,
0000
0000
0000
0000
,
0010
0000
0000
0000
,
0010
0000
0000
0000
,
1000
0000
0000
0000
,
1000
0000
0000
0000
,
0001
0100
0001
0100
,
0001
0100
0001
0100
,
0010
1000
0010
1000
,
0010
1000
0010
1000
,
0001
0100
0001
0100
,
0001
0100
0001
0100
,
0010
1000
0010
1000
,
0010
1000
0010
1000
,
0001
0100
0010
1000
,
0001
0001
1000
1000
,
0010
0100
0001
1000
,
0001
0100
0100
0010
,
1000
0001
0100
0001
,
1000
1000
0001
0001
,
0100
0010
1000
0001
,
0100
0100
0010
0010
,
2000
0000
3000
0001
,
0002
0000
0000
0000
0000
0003
0100
0000
,
0200
0000
0300
0010
,
0020
0000
0000
0000
0000
0030
0000
0000
,
0100
0010
0010
0100
,
0010
0100
0100
0001
,
1000
0001
0001
1000
,
0001
1000
1000
1000
,
0010
0100
0010
0100
,
0001
1000
0001
1000
,
0010
0100
0010
0100
,
0001
1000
0001
1000
,
0010
0010
0100
0100
,
0001
0001
1000
1000
,
0001
0001
0100
0100
,
0010
0010
1000
1000
,
0001
1000
0001
0001
,
1000
0001
1000
1000
,
0010
0100
0010
0010
,
0100
0010
0100
0100
,
0001
0100
0010
0010
,
1000
0001
0100
0100
,
0010
1000
0001
0001
,
1001
0000
0000
0000
;

//---------------dance-single - Copied from----------------
#NOTES:
     dance-single:
     Copied from:
     Beginner:
     1:
     0.067,0.075,0.000,0.043,0.000:
0000
0000
0000
0000
,
0000
0000
0000
0000
,
0000
0000
0000
0000
,
0000
0000
0000
0000
,
1000
0000
0000
0000
,
0001
0000
0000
0000
,
1000
0000
0000
0000
,
0001
0000
0000
0000
,
1000
0000
0000
0000
,
1000
0000
0000
0000
,
0010
0000
0000
0000
,
0010
0000
0000
0000
,
0100
0000
0000
0000
,
0100
0000
0000
0000
,
0010
0000
0000
0000
,
0010
0000
0000
0000
,
1000
0000
0000
0000
0000
0000
0000
0001
,
0000
0000
0000
0000
,
1000
0000
0000
0000
0000
0000
0000
0001
,
0000
0000
0000
0000
,
0100
0000
0000
0000
0000
0000
0000
0010
,
0000
0000
0000
0000
,
0100
0000
0000
0000
0000
0000
0000
0010
,
0000
0000
0000
0000
,
1000
0000
0000
0000
,
1000
0000
0000
0000
,
0010
0000
0000
0000
,
0010
0000
0000
0000
,
0100
0000
0000
0000
,
0001
0000
0000
0000
,
0100
0000
0000
0000
,
0001
0000
0000
0000
,
2000
0000
0000
3000
,
0000
0000
0000
0000
,
0002
0000
0000
0003
,
0000
0000
0000
0000
,
0200
0000
0000
0300
,
0000
0000
0000
0000
,
0020
0000
0000
0030
,
0000
0000
0000
0000
,
1000
0000
0000
0000
,
0001
0000
0000
0000
,
0100
0000
0000
0000
,
0010
0000
0000
0000
,
1000
0000
0000
0000
,
0001
0000
0000
0000
,
0100
0000
0000
0000
,
0010
0000
0000
0000
;
