#TITLE:automaton;
#SUBTITLE:;
#ARTIST:Jamiroquai;
#TITLETRANSLIT:;
#SUBTITLETRANSLIT:;
#ARTISTTRANSLIT:;
#CREDIT:SupremeX;
#BANNER:Automaton-bn.png;
#BACKGROUND:Automaton-bg.png;
#LYRICSPATH:;
#CDTITLE:;
#MUSIC:automaton.ogg;
#OFFSET:-1.453;
#SAMPLESTART:36.700;
#SAMPLELENGTH:12.000;
#SELECTABLE:YES;
#BPMS:0.000=108.030;
#STOPS:;
#BGCHANGES:-1.453=automaton.avi=1.000=1=1=0,
99999=-nosongbg-=1.000=0=0=0 // don't automatically add -songbackground-
;

//---------------dance-single - ----------------
#NOTES:
     dance-single:
     :
     Hard:
     8:
     0.434,0.397,0.033,0.152,0.287: // measure 1
0000
0000
0000
0000
,  // measure 2
0000
0000
0000
0000
,  // measure 3
1000
0000
0100
1000
0000
0000
1000
0000
0010
0000
0100
0010
0000
0000
0010
0000
,  // measure 4
0100
0000
0001
0100
0000
0000
0100
0000
0001
0000
1000
0000
0100
0000
0000
0000
,  // measure 5
1000
0000
0100
1000
0000
0000
0010
0000
0100
0000
0010
0100
0000
0000
0001
0000
,  // measure 6
0100
0000
0001
0100
0000
0000
0010
0000
0100
0000
0010
0000
1000
0000
0100
0000
,  // measure 7
1000
0000
0100
0010
0000
0000
0100
0000
0001
0000
0010
0001
0000
0000
0010
0000
,  // measure 8
0001
0000
1000
0100
0000
0000
0100
0000
0010
0000
0001
0000
0010
0000
0000
0000
,  // measure 9
0100
0000
1000
0100
0000
0000
0010
0000
0001
0000
0010
0100
0000
0000
0100
0000
,  // measure 10
1000
0000
0100
0010
0000
0000
0010
0000
0001
0000
1000
0010
0100
0000
0001
0000
,  // measure 11
1000
0000
0010
0100
0000
0000
0001
0000
0100
0000
0001
0100
0000
0000
0010
0000
,  // measure 12
1000
0000
0001
1000
0000
0000
0001
0000
0100
0000
0010
0000
0100
0000
0000
0110
,  // measure 13
0000
0000
0001
1000
0000
0000
0001
0000
0100
0000
0010
0100
0000
0000
0010
0000
,  // measure 14
1000
0000
0010
0100
0000
0000
0100
0000
0001
0000
1000
0000
0001
0000
0000
1001
,  // measure 15
0000
0000
0100
0010
0000
0000
0100
0000
0001
0000
0100
0010
0000
0000
1000
0000
,  // measure 16
0001
0100
0020
0000
0100
0100
0130
0000
,  // measure 17
0001
0010
0100
1000
0010
0100
0010
1000
,  // measure 18
0002
0000
0013
0000
0110
0000
1000
0001
,  // measure 19
1000
0000
0010
0100
0000
0000
0100
0000
0001
0100
0000
0000
0020
0000
0000
0000
,  // measure 20
1030
0000
0100
0000
1000
0000
0100
1000
0100
1000
0100
0000
0000
0000
0010
0000
,  // measure 21
0001
0000
0010
0000
0100
0000
1000
0000
0010
0000
0100
0010
0100
0000
0000
0010
,  // measure 22
0000
0000
0100
0001
0100
0000
0000
0001
0000
0000
1000
0000
0001
0000
0010
0000
,  // measure 23
0100
2000
0100
3002
,  // measure 24
0103
0010
0100
0010
0100
0010
1000
0001
,  // measure 25
1000
0000
0100
1000
0000
0000
0000
0000
0000
0000
0100
0000
0200
0000
0000
0000
,  // measure 26
0310
0000
0001
0010
0100
1000
0001
0100
,  // measure 27
0010
0000
0100
0010
0000
0000
1000
0000
0100
0000
0100
0000
0100
0000
0000
0000
,  // measure 28
1000
0001
0100
0001
0010
0100
0010
0100
,  // measure 29
1000
0000
0100
1000
0000
0000
0000
0000
0000
0000
0001
0000
0001
0000
0100
0001
,  // measure 30
0000
0000
0000
0000
1000
0000
0100
0000
1000
0100
0000
0020
0001
0000
0000
0000
,  // measure 31
0031
0000
0000
0000
0100
0000
1000
0000
0100
0010
0000
0200
0000
0000
0000
0000
,  // measure 32
1300
0000
0000
0000
0001
0000
0100
0000
0001
0100
0000
0020
0000
0000
0000
0000
,  // measure 33
1030
0000
0000
0000
0100
0000
1000
0000
0100
1000
0000
0200
0000
0000
0000
0000
,  // measure 34
0310
0000
0000
0000
0001
0000
0010
0000
0001
0010
0000
0002
0000
0000
0000
0000
,  // measure 35
1003
0000
0000
0000
0100
0000
1000
0000
0100
1000
0000
0020
0000
0000
0000
0000
,  // measure 36
0130
0000
0000
0000
0100
0000
0001
0000
0100
0001
0000
2000
0000
0000
3010
0100
,  // measure 37
0010
0100
0010
0000
0001
0000
0010
0000
0100
0000
1000
0000
0100
0000
1000
0100
,  // measure 38
1000
0100
1000
0000
0001
0000
0100
0000
0010
0000
1000
0000
0020
0000
0000
0000
,  // measure 39
0100
0100
0130
0000
;

//---------------dance-single - ----------------
#NOTES:
     dance-single:
     :
     Medium:
     6:
     0.310,0.294,0.087,0.087,0.000:
0000
0000
0000
0000
,
0000
0000
0000
0000
,
1000
0000
0010
0100
0010
0000
1000
0001
,
1000
0000
0010
0100
0001
0000
1000
0000
,
0010
0000
1000
0001
0100
0000
0010
1000
,
0010
0000
0100
0001
1000
0000
0010
0000
,
0110
0000
1000
0001
1000
0000
0010
0100
,
0010
0000
1000
0001
0100
0000
0010
0000
,
1010
0000
0100
0001
0100
0000
0001
0010
,
0100
0000
1000
0100
0010
0000
0000
0001
,
0001
0000
1000
0010
0100
0000
0001
0010
,
0010
0000
1000
0010
0100
0001
0100
0000
,
0010
0000
1000
0010
1000
0000
0001
0100
,
0010
0000
1000
0100
0010
0001
0001
0000
,
1000
0000
0010
0100
0001
0000
1000
0010
,
0100
0001
0001
1000
,
1000
0010
0010
0100
,
0100
0001
0001
1000
,
1010
0001
0101
2000
,
0010
0010
3010
0001
,
0110
1000
0110
0001
,
0110
1000
0110
0002
,
0100
0100
0100
0103
,
0010
0000
1000
0010
0100
0000
0001
0000
,
0001
0000
1000
0010
0100
0000
0001
1000
,
0001
1000
0010
0100
,
0001
0000
1000
0010
0100
0000
0001
0000
,
1000
0000
0010
0100
0001
0000
1000
0000
,
1000
0000
0010
0100
0001
0000
1000
0000
,
0010
0100
0001
2000
,
3100
0010
0100
0002
,
0013
1000
0010
0200
,
0310
0001
1000
0020
,
0130
0000
0001
1000
0001
0000
1000
0010
,
1000
0000
0001
0100
0001
0000
1000
0010
,
0100
0000
0001
1000
0010
0000
0100
0010
,
0100
0000
0010
0100
0010
0000
1000
0001
,
1000
0020
0100
0230
,
0010
0010
0010
0310
;

//---------------dance-single - ----------------
#NOTES:
     dance-single:
     :
     Easy:
     3:
     0.195,0.189,0.108,0.076,0.000:
0000
0000
0000
0000
,
0000
0000
0000
0000
,
0010
0100
0001
1000
,
0010
0100
0001
0000
,
1000
1000
0010
0010
,
0100
0100
0001
0001
,
1000
0010
0100
0001
,
1000
0010
0100
0001
,
0000
1010
0000
0000
0000
0101
0000
0000
,
0000
1010
0000
0000
0000
0000
0100
0000
,
0001
1000
0010
0100
,
0001
1000
0010
0010
,
0000
0110
0000
0000
0000
1001
0000
0000
,
0000
0110
0000
0000
0000
0000
0001
0000
,
0100
0010
1000
0001
,
1000
0010
0100
0002
,
0000
0003
0000
1000
,
1000
1000
1000
0000
,
0020
0000
0000
0030
,
0100
0100
0100
0000
,
0001
1000
0010
1000
,
0001
1000
0100
0010
,
0010
0001
0001
1000
,
0000
0000
0000
0010
,
0100
0010
1000
0001
,
1000
0010
0010
0100
,
0001
1000
0010
0100
,
0000
0000
0000
0001
,
1000
0010
0100
0001
,
1000
0020
0000
0130
,
0000
2000
0000
3001
,
0000
0020
0000
0130
,
0000
0200
0000
0310
,
0000
0001
1000
1001
,
0000
0010
0100
0110
,
0000
1000
0100
1100
,
0000
0001
0010
0011
,
0000
1000
0010
0200
,
0000
0000
0000
0000
0000
0300
0000
0000
;

//---------------dance-single - Copied from----------------
#NOTES:
     dance-single:
     Copied from:
     Beginner:
     1:
     0.067,0.082,0.076,0.000,0.000:
0000
0000
0000
0000
,
0000
0000
0000
0000
,
1000
0000
0000
0000
,
1000
0000
0000
0000
,
0100
0000
0000
0000
,
0100
0000
0000
0000
,
0010
0000
0000
0000
,
0010
0000
0000
0000
,
0001
0000
0000
0000
,
0001
0000
0000
0000
,
1000
0000
0000
0000
,
1000
0000
0000
0000
,
0010
0000
0000
0000
,
0010
0000
0000
0000
,
0100
0000
0000
0000
,
0100
0000
0000
0001
,
0000
0000
0000
0001
,
0000
0000
0000
0100
,
0000
0000
0000
0010
,
0000
0000
0000
0000
,
1000
0000
0000
1000
,
0000
0000
0000
0010
,
0000
0000
0000
0100
,
0000
0000
0000
0001
,
0000
0000
0001
0000
,
0000
0000
0000
1000
,
0000
0000
1000
0000
,
0000
0000
0000
0010
,
0000
0000
0100
0000
,
0000
0000
0000
1001
,
0000
0000
0000
1001
,
0000
0000
0000
1001
,
0000
0000
0000
1001
,
0000
0000
0000
1001
,
0000
0000
0000
1001
,
0000
0000
0000
1001
,
0000
0000
0000
0000
,
0000
0000
0000
0100
;
