#TITLE:AI;
#SUBTITLE:;
#ARTIST:BEMANI Sound Team "Sota F.";
#TITLETRANSLIT:;
#SUBTITLETRANSLIT:;
#ARTISTTRANSLIT:;
#CREDIT:SupremeX;
#BANNER:AI-bn.png;
#BACKGROUND:AI-bg.png;
#LYRICSPATH:;
#CDTITLE:;
#MUSIC:AI.ogg;
#OFFSET:-1.778;
#SAMPLESTART:69.997;
#SAMPLELENGTH:12.000;
#SELECTABLE:YES;
#BPMS:0.000=190.000,165.500=95.000,181.500=190.000;
#STOPS:87.000=0.160
,94.500=0.160
,102.000=0.160
,118.500=0.160
,150.000=0.160
,247.500=0.315
;
#BGCHANGES:0.000=AI.avi=1.000=1=1=0,
99999=-nosongbg-=1.000=0=0=0 // don't automatically add -songbackground-
;

//---------------dance-single - ----------------
#NOTES:
     dance-single:
     :
     Hard:
     10:
     0.896,1.000,0.489,0.255,0.519: // measure 1
0000
0000
0000
0000
,  // measure 2
0000
0000
0000
0000
,  // measure 3
0000
0000
0010
0100
0010
1000
0001
0100
,  // measure 4
0010
0000
1000
0100
1000
0100
1000
0100
0010
0001
0010
0001
0010
0000
0100
0000
,  // measure 5
1000
0100
1000
0100
1000
0000
0000
0000
0010
0100
0010
0100
0010
0000
0000
0000
,  // measure 6
0001
0000
0000
0000
1000
0010
0100
0001
1000
0000
0000
0000
0210
0000
0000
0000
,  // measure 7
0302
0000
0103
0000
0010
1000
0200
0000
,  // measure 8
1300
0100
1000
0100
1000
0100
0010
0001
0010
0001
0010
0001
1000
0010
1000
0010
,  // measure 9
1000
0100
0010
0001
0010
0100
1000
0100
,  // measure 10
0010
0010
0010
0000
0011
0000
0110
0000
,  // measure 11
1100
0000
0010
0001
0010
0100
1000
0100
,  // measure 12
1000
0100
1000
0100
1000
0100
0010
0100
0010
0100
0010
0001
0010
0001
0010
0001
,  // measure 13
0010
0100
0000
0000
1000
0000
0000
0000
0100
1000
0100
1000
0100
0000
0000
0000
,  // measure 14
1000
0000
0010
0000
0100
0000
0100
0010
0100
0000
0000
0000
0101
0000
0000
0000
,  // measure 15
1010
0000
0001
0100
0010
1000
0100
0000
,  // measure 16
1000
0100
1000
0100
1000
0100
0010
0100
0010
0100
0010
0100
0001
0100
0001
0000
,  // measure 17
0010
0010
0100
0100
1000
1000
0100
0100
,  // measure 18
1000
1000
0100
0100
0010
0000
1001
0000
,  // measure 19
0010
0100
1000
0100
0010
0001
0010
0100
,  // measure 20
1000
0001
0100
0010
1000
0100
0110
0010
,  // measure 21
0001
0010
0100
1000
0100
0010
0100
1000
,  // measure 22
0001
0010
0100
0010
0001
0010
0100
1000
,  // measure 23
0100
0010
0001
1000
0100
1000
0001
1000
,  // measure 24
0100
1000
0001
0010
0100
1000
0010
0100
,  // measure 25
0010
1000
0010
0100
0001
1000
0001
0100
,  // measure 26
0010
1000
0020
0000
0130
0010
0100
0001
,  // measure 27
1000
0001
0100
0001
1000
0001
0100
0010
,  // measure 28
0100
0000
0010
0000
0100
0000
0001
0000
0000
0000
1001
0000
0000
1000
0100
0000
,  // measure 29
0000
0100
0010
0000
0000
0010
0001
0000
1000
0000
1000
0000
1000
0000
1000
0000
,  // measure 30
1000
1000
1000
1000
1000
0010
0100
0010
,  // measure 31
0100
0000
0001
0000
1000
0000
0100
0000
1000
0000
0000
1100
0000
0000
0010
0000
,  // measure 32
0000
0011
0000
0000
1001
0000
0010
0000
0100
0000
0010
0000
1000
0000
0001
0000
,  // measure 33
1000
0000
0100
0000
0010
0000
0001
0000
1000
0100
1000
0100
1000
0100
0010
0001
,  // measure 34
0010
0001
0010
0001
0100
0000
0000
0000
0210
0000
0000
0000
0320
0000
0000
0000
,  // measure 35
2030
0000
3100
0000
1000
0100
1000
0100
,  // measure 36
0010
0000
0001
0000
0010
0000
0001
0000
1000
0100
1000
0000
0100
1000
0100
0000
,  // measure 37
0010
0001
0010
0000
0110
0000
0000
0000
1000
0100
1000
0100
1000
0000
0000
0000
,  // measure 38
0001
0100
0001
0100
0001
0000
0000
0000
0110
0000
1000
0000
0100
0000
0010
0001
,  // measure 39
0010
0000
0011
0000
0000
0000
1100
0000
0000
0100
0000
0000
0110
0000
0000
0010
,  // measure 40
0000
0000
0001
0010
0001
0010
0001
0000
1000
0000
0100
0000
0010
0000
0001
0100
,  // measure 41
0001
0100
0001
0100
0001
1000
0100
2000
0000
0000
0000
0000
3000
0000
1001
0000
,  // measure 42
0000
0000
1001
0000
0000
0000
0010
0000
0100
0010
0200
0000
0310
0100
0001
1000
,  // measure 43
0001
0100
0110
0000
1010
0000
0100
0001
1000
0010
0200
0000
0310
0100
0010
1000
,  // measure 44
0001
1000
0110
0000
0101
0000
0010
1000
0001
0100
0110
0000
1200
0000
1300
0100
,  // measure 45
0010
0000
0001
0000
0011
0000
0000
0000
0110
0000
0000
0000
1000
0000
0100
0000
1000
0000
0010
0000
0110
0000
0000
0000
0011
0000
0100
0000
1000
0000
0000
0010
,  // measure 46
0100
0000
0000
0010
1000
0000
0000
0000
0101
0000
0000
0000
2010
0000
0000
0000
0000
0000
0000
0000
0000
0000
0000
0000
0000
0000
0000
0000
3020
0000
0000
0000
,  // measure 47
0000
0000
0000
0230
,  // measure 48
0000
0000
0000
0000
0300
0000
0001
0000
1000
0001
0100
0001
1000
0010
0200
0000
,  // measure 49
0000
0302
0000
0023
0000
0230
1000
2300
,  // measure 50
0000
3100
0000
0010
0001
0010
0100
0010
,  // measure 51
0200
0000
0310
0000
1000
0100
0010
0100
,  // measure 52
1000
0000
0100
0000
0010
0000
0001
0100
0001
0100
0001
1000
0010
1000
0010
1000
,  // measure 53
0001
0100
0010
0000
0100
0000
0001
0000
1000
0000
0010
0000
1000
0000
0100
0000
,  // measure 54
1000
0100
0100
0000
0010
0001
0010
0100
,  // measure 55
0010
0001
1000
0000
0110
0000
0101
0000
,  // measure 56
1010
0000
0100
0100
0001
1000
0010
0010
,  // measure 57
1000
1000
0100
0010
0001
0010
0100
1000
,  // measure 58
0100
0010
0100
1000
0100
0010
0100
0010
,  // measure 59
0002
0000
0000
0000
0013
0000
0011
0000
0000
0110
0000
0000
1100
0000
0000
0000
,  // measure 60
0100
0000
0100
0000
0000
0000
0010
0100
0010
0100
0010
0100
0010
0100
0010
0100
,  // measure 61
0010
0100
0010
0000
1000
0000
0100
0000
0010
0000
0001
0000
1000
0000
0100
0000
,  // measure 62
1000
0001
0100
0000
0010
1000
0001
1000
,  // measure 63
0110
0000
0101
0000
1010
0000
0100
0001
,  // measure 64
1000
0010
0010
0100
0100
0010
1000
0001
,  // measure 65
1000
0010
1000
0001
0100
0001
0000
0110
,  // measure 66
0000
1000
0100
1000
0000
0100
0010
0001
,  // measure 67
0000
0200
0000
0320
0000
0130
0000
1100
,  // measure 68
0000
0000
0011
0000
0011
0000
0011
0000
0000
0000
1000
0100
1000
0100
1000
0000
,  // measure 69
0000
0001
0010
0100
1000
1100
0000
0220
,  // measure 70
0000
0000
0000
0000
,  // measure 71
0000
0000
0330
0000
;

//---------------dance-single - ----------------
#NOTES:
     dance-single:
     :
     Challenge:
     12:
     1.000,1.000,0.967,0.519,0.738:
0000
0000
0000
0000
,
0000
0000
0000
0000
,
0000
0000
0000
0000
0001
0100
0010
1000
0001
0100
0010
1000
0100
0000
1100
0000
,
0100
0000
0010
0100
0001
0100
0010
0100
0010
1000
0010
1000
0010
0000
0100
0000
,
0001
0100
0010
1000
0001
0000
0000
0000
1000
0100
0010
0001
0010
0000
0000
0000
,
1200
0000
0000
0000
1300
0100
1000
0100
0020
0000
0000
0000
0032
0000
0000
0000
,
0203
0000
0310
0000
1100
0100
2000
0000
,
3010
0100
0001
1000
0010
0100
0001
0100
0010
1000
0001
0100
0010
0100
0010
0100
,
0010
1000
0100
1000
0001
1000
0100
1000
,
0101
0101
0101
0000
1010
0000
1001
0000
,
0220
0330
0001
0010
0100
1000
0100
1000
,
0010
0100
0010
0100
0010
0100
0001
1000
0001
1000
0100
0010
0001
1000
0010
0100
,
0001
1000
0000
0000
0110
0000
0000
0000
0001
0100
0001
0100
0001
0000
0000
0000
,
1000
0000
0010
0000
0100
0000
0100
0001
1000
0000
0000
0000
1100
0000
0000
0000
,
0022
0033
0100
1000
0100
1000
0200
0000
,
1300
0100
1000
0100
0010
0100
0010
0100
0001
0010
0001
0010
0100
1000
0100
0000
,
0010
0110
0001
0101
0010
1010
0100
0110
,
0010
1001
0100
1100
0010
0001
0110
0000
,
1000
0000
0100
0000
1000
0100
0010
0000
0001
0000
0010
0000
0100
0010
0001
0000
,
0010
0000
0100
0000
1000
0100
1000
0000
0100
0000
0010
0000
0011
0000
0001
0000
,
0010
0000
0100
1000
0010
0000
0001
0000
0010
0000
0100
0010
0001
0000
1000
0000
,
0010
0000
0100
0001
1000
0000
0100
0000
1000
0000
0100
0000
0010
0000
0001
0000
,
1000
1001
0010
0100
0001
0110
0001
0010
,
0100
1100
0010
0001
0010
0002
0103
0010
,
0110
1000
0100
0010
0011
1000
0010
0100
,
1010
0100
0002
0000
1003
0001
0010
0100
,
1000
0000
0010
0000
0100
0001
1000
0100
0010
0001
0100
0001
0100
0010
1000
0001
,
0010
0100
1000
0010
0100
0001
1000
0000
0000
0000
0110
0000
0000
0001
0100
0000
,
0000
0010
1000
0000
0000
0001
0100
0000
0010
0000
1010
0000
0001
0000
0101
0000
,
1000
1100
0010
0110
0001
0020
0031
0010
,
0100
0000
1000
0100
0010
0001
1000
0100
0011
0000
0000
0110
0000
0000
1100
0000
,
0000
1001
0000
0000
0110
0000
0001
0000
1000
0000
1100
0000
0010
0000
0011
0000
,
0100
0000
1100
0000
0100
0000
0110
0000
0001
0100
0010
1000
0001
0100
0010
1000
,
0100
0010
0001
0100
0010
0000
0000
0000
1200
0000
0000
0000
2300
0000
0000
0000
,
3002
0000
0103
0000
0010
0100
0010
0100
,
1000
0000
0100
0000
0010
0000
0100
0000
1000
0100
1000
0000
0001
0100
0010
0000
,
1000
0001
0100
0000
0110
0000
0000
0000
0001
0100
0001
0100
0101
0000
0000
0000
,
0010
1000
0010
1000
1010
0000
0000
0000
0110
0000
0001
0000
0010
0000
0100
1000
,
0100
0000
1100
0000
0000
0000
0110
0000
0000
0011
0000
0000
1001
0000
0000
0110
,
0000
0000
0001
0010
0100
1000
0100
0000
0010
0000
0001
0000
0010
0000
0100
1000
,
0100
0010
1000
0100
1000
0010
0100
0002
0000
0000
1003
0010
0100
0010
1000
0001
,
0100
0000
0010
0000
1000
0000
0000
0000
0000
0000
0000
0000
0001
0000
0000
0000
0100
0000
0010
0000
0210
0000
0000
0310
1000
0000
0100
0000
0010
0000
0001
0000
,
1000
0000
0100
0000
1200
0000
0000
0000
2300
0000
0100
0000
3100
0000
0010
0000
0001
0000
0010
0000
0210
0000
0000
0000
2300
0000
3100
0000
1000
0000
0100
0010
,
0100
0000
0010
0000
0021
0000
0000
0000
0032
0000
0000
0000
1003
0000
1100
0000
0100
0000
0010
0000
0210
0000
0000
0001
2300
0000
0000
0000
3100
0000
1000
0000
,
0100
0000
1100
0000
0110
0000
0000
0000
1001
0000
0000
0000
0100
0000
0010
0000
0100
0000
0001
0000
0101
0000
1000
0010
1000
0000
1001
0000
0010
0000
0000
0100
,
1000
0000
0000
0001
0100
0000
0000
0000
1010
0000
0000
0000
0201
0000
0000
0000
0000
0000
0000
0000
0000
0000
0000
0000
0000
0000
0000
0000
0320
0000
0000
0000
,
0000
0000
0000
0000
1000
1000
2030
0000
,
0000
0000
0000
0000
3000
0000
0001
0000
1000
0010
0100
0001
1000
0010
2000
0000
,
0000
3200
0000
0320
0001
2030
0100
3200
,
0000
1300
0000
0100
0010
0001
0010
0100
,
1200
0000
0310
0000
0001
0101
0010
1000
,
1010
0000
0100
0000
0110
0000
0001
0010
0100
1000
0100
0010
0001
0010
0100
1000
,
0100
0010
0100
0000
0001
0000
0100
0000
0001
0000
1000
0000
0010
0000
1000
0000
,
0110
0001
1001
0000
0100
0100
0010
1000
,
0101
0010
1000
0000
1010
0000
0110
0000
,
0101
0000
1000
1000
0010
0100
0010
0010
,
1000
0000
1000
0100
0010
0000
0010
0000
0001
0000
0010
0001
0100
0000
1000
0000
,
0100
0000
1000
0000
0010
0100
0001
0000
1000
0000
0100
0000
1000
0000
0100
0000
,
0021
0000
0000
0000
0031
0000
0110
0000
0000
1100
0000
0000
1001
0000
0000
0000
,
0110
0000
0110
0000
0000
0000
0001
0010
0100
1000
0100
0010
0001
1000
0010
0100
,
0001
1000
0010
0000
0100
0000
0001
0000
0100
0000
0001
0000
1100
0000
0100
0000
,
0110
0010
0011
0000
1000
0100
0010
0001
,
2020
3030
0201
0000
0320
0000
1030
0100
,
0010
0000
0001
0000
0001
0010
0100
0010
0100
1000
0010
0001
0100
1000
0010
0001
,
1000
0100
1000
0100
1000
0000
0001
0000
0100
0000
0002
0000
0000
0000
0013
0000
,
0000
0200
1300
1100
0000
0020
0031
0011
,
0000
2100
0000
3020
0000
0130
0000
0101
,
0000
0000
1010
0000
1010
0000
0120
0000
0000
0000
1030
0001
0010
0100
2000
0000
,
0000
3001
0011
0100
1010
2200
3300
0202
,
0000
0000
0000
0000
,
0000
0000
0303
0000
;

//---------------dance-single - ----------------
#NOTES:
     dance-single:
     :
     Medium:
     8:
     0.662,0.722,0.529,0.102,0.041:
0000
0000
0000
0000
,
0000
0000
0000
0000
,
0000
0000
1000
0001
0100
0010
1000
0000
,
0000
0001
1000
0010
0100
0010
1000
0000
,
0001
0101
0010
1010
,
0200
0302
0013
0110
,
1100
0000
1001
0010
0100
0010
0100
1000
,
0100
0010
0001
0100
0010
1000
0010
0100
,
0001
0110
1000
1001
,
0010
0010
0010
0000
1010
0000
0101
0000
,
0002
0000
0013
0000
0100
1000
0100
0010
,
0100
1000
0100
0010
0001
0010
0100
1000
,
0010
0100
0010
0000
1000
0000
0001
0000
,
0110
0000
1001
0000
0100
0010
1000
0000
,
0200
0000
1300
0000
0100
1000
0100
0010
,
0100
1000
0100
0010
0001
0100
0010
0000
,
1000
1000
0001
0001
0100
0100
0010
0010
,
1000
1000
0001
0001
1000
0000
0110
0000
,
0001
0010
0100
1000
0100
0000
1100
0000
,
0010
0001
0010
0100
0010
0000
0011
0000
,
1001
0000
0100
0010
0100
0001
0100
0010
,
0001
1000
0001
0000
1010
0000
0101
0010
,
1000
0100
0000
1000
0100
1000
0000
0001
,
0100
0001
1000
0010
0100
0010
1000
0001
,
1000
0010
0100
0010
0100
0000
0001
0010
,
0100
0000
1000
0100
0010
0000
0011
0000
,
0100
1000
0100
0010
0000
0001
1000
0010
,
0000
0000
1000
0000
0001
0000
0100
0000
0000
0000
0010
0000
0000
1000
0010
0000
,
0000
1000
0001
0000
0100
0000
0000
0000
0000
0000
0010
0000
0010
0000
0010
0000
,
0010
0000
1001
0000
1100
0200
0300
1000
,
0100
0000
0010
0000
0001
0000
0010
0000
0100
0000
0000
1100
0000
0000
0010
0000
,
0000
0011
0000
0000
1100
0000
0000
0000
0010
0000
0001
0000
0010
0000
0100
0000
,
0010
0001
0010
0000
0100
1000
0100
0010
,
0001
0010
0100
0000
1000
0000
0100
1000
,
0001
1000
0100
0000
0010
0001
0010
0000
,
0100
1000
0100
0000
0010
0001
0010
0100
,
1000
0001
1000
0000
0010
0000
0110
0000
,
0100
0000
1001
0000
0110
0001
1000
0001
,
0000
0000
1000
0000
0100
0000
1000
0000
0100
0000
0000
0010
0000
0000
0001
0000
,
0000
1000
0100
1000
0100
0000
0000
0000
0010
0000
0001
0000
0010
0000
0001
0000
,
1000
0100
1000
0001
0100
0001
0000
1010
,
0000
0101
0000
1100
0010
0001
0010
0100
,
0010
0001
0110
1000
0100
1000
0001
0100
,
0010
1010
0001
0100
0001
0110
1000
0100
,
0010
0001
1000
0010
0100
1010
0001
0100
,
0001
1000
1001
0100
0000
0000
0000
0020
,
0000
0000
0000
0000
0000
0000
0000
0230
,
0000
0000
0000
0310
1000
0010
0100
0002
,
0000
0000
0000
0103
0000
0010
0000
1010
,
0000
0100
0000
0001
1000
0100
1000
0100
,
1000
0000
0110
0000
0000
0001
0000
1001
,
0000
1000
0000
0001
0010
0100
1000
0100
,
0000
0010
0000
0001
1000
0100
1000
0100
,
0010
0100
0000
0001
0000
0101
0000
0010
,
1000
0001
0100
0000
0110
0000
1001
0000
,
0000
0000
0000
0010
0000
0100
0000
0001
,
1000
0001
0100
0001
1000
0100
1000
0001
,
0000
0110
0000
1000
0000
0001
0000
0100
,
0010
0000
0000
0000
1001
0000
0010
0000
0000
0100
0000
0000
0010
0000
0000
0000
,
1000
0000
0001
0000
0100
0010
0100
0001
,
0100
0010
0000
1000
0000
0010
0100
0001
,
0100
0010
1000
0000
0001
0100
0000
0010
,
1000
0110
1001
1100
,
0000
0010
0100
0001
0100
0010
1000
0001
,
0100
0001
1000
0010
0100
0010
1000
0010
,
0000
0110
0000
0001
0000
1001
0000
0100
,
0000
0101
0000
0110
0000
1010
0000
0101
,
0000
1000
0100
1000
0000
0100
1000
0100
,
0000
0010
0001
0010
0100
1000
0000
0220
,
0000
0000
0000
0000
,
0000
0000
0000
0000
0000
0000
0000
0330
;

//---------------dance-single - ----------------
#NOTES:
     dance-single:
     :
     Easy:
     5:
     0.442,0.541,0.377,0.041,0.000:
0000
0000
0000
0000
,
0000
0000
0000
0000
,
0000
1000
0100
1000
,
0001
0001
0100
0001
,
1000
1100
0010
0011
,
0100
1000
0100
0010
,
0001
1001
0010
0100
,
0010
0100
0001
1000
,
0010
0100
0001
0001
,
1000
0001
0110
1100
,
1001
0010
0100
0010
,
1000
0001
0010
0100
,
1000
0100
1000
0101
,
0010
1010
0001
0100
,
0100
0010
1000
0010
,
0100
0010
1000
0001
,
1000
0000
0000
0001
0000
0000
0100
0000
,
0000
0001
0000
0000
1000
0000
0010
0000
,
1100
0010
0001
0010
,
0100
1000
0100
0010
,
0001
0010
0100
0010
,
1000
0000
0001
0000
1000
0000
1100
0010
,
0000
0001
0000
1000
0000
0010
0000
0100
,
0000
0001
0000
1000
0000
0010
0100
0000
,
0100
0010
1010
0001
,
0101
0000
1010
0000
0101
0010
0000
1000
,
0000
0001
0000
1000
0000
0100
0000
1000
,
0000
0010
0000
0100
0000
0010
0000
1000
,
0000
0001
0000
0100
0000
0001
0000
1000
,
0000
0110
0000
1001
0000
0010
0000
0000
,
1000
0010
0100
0010
,
0000
0000
1000
0010
,
0100
0001
1000
0010
,
0100
1010
0001
0100
,
0001
0010
0100
1000
,
0100
0010
0011
1100
,
0011
1001
0100
0010
,
0100
0000
0010
0000
1010
0100
0000
0010
,
0000
1000
0000
0001
0000
0100
0000
0010
,
0000
0100
0000
0001
0000
1000
0000
0010
,
0000
0100
0000
0010
0000
1000
0000
0001
,
0000
0101
0000
1000
0010
0100
0010
1000
,
1000
1000
0000
0001
0010
0100
1000
0010
,
0100
0010
0000
1000
0010
0100
0001
0010
,
0100
1000
0000
0001
0100
0010
1000
0001
,
0010
0100
1000
0100
0000
0000
0000
0020
,
0000
0000
0000
0000
0000
0030
0000
0002
,
0000
0000
0000
0003
0000
0000
0000
1000
,
0000
0000
0000
0100
0000
1000
0000
0100
,
0000
1001
0000
0010
0000
0100
0000
0010
,
0000
0000
0110
0000
0000
0001
0000
0010
,
0000
0100
0000
1000
0000
0010
0000
0100
,
0000
0001
0000
1000
0000
0010
0000
0100
,
0000
0001
0000
1000
0000
0010
0000
0100
,
0000
0001
1000
0000
1000
0000
1000
0000
,
1000
0000
0000
0010
0000
0100
0000
0010
,
0000
1000
0000
0001
0000
0100
0000
0010
,
0000
1000
0000
0001
0000
0100
0000
0010
,
0000
0000
1001
0000
0000
0010
0000
0000
,
0000
0000
0000
0100
0000
0010
0000
1000
,
0000
0010
0000
0100
0000
0001
0000
1000
,
0000
0001
0000
0100
0000
0010
0000
0000
,
1000
0010
0100
0010
,
0000
1000
0000
0001
0000
0100
0000
0010
,
0000
1000
0000
0010
0000
0100
0000
0001
,
0000
1010
0000
0000
0000
0101
0000
0000
,
0000
1001
0000
1001
0000
1001
0000
1001
,
0000
0010
0000
0110
0000
0001
0000
1001
,
0000
0100
0000
0110
0000
1001
0000
0220
,
0000
0000
0000
0000
,
0000
0000
0000
0000
0000
0000
0000
0330
;

//---------------dance-single - Copied from----------------
#NOTES:
     dance-single:
     Copied from:
     Beginner:
     3:
     0.237,0.351,0.041,0.010,0.000:
0000
0000
0000
0000
,
0000
0000
0000
0000
,
0000
1000
0000
0010
,
0000
0100
0000
0001
,
0000
1000
0000
0010
,
0000
0100
0000
0010
,
0100
0001
0000
1000
,
0000
0010
0000
0100
,
0000
0001
1000
0001
,
1000
0000
0010
0000
,
0110
0000
0001
0000
,
1000
0000
0001
0000
,
1000
0000
0000
0000
0000
0010
0000
0000
,
0100
0000
0001
0000
,
0100
0000
0010
0000
,
1000
0000
0001
0000
,
0100
0000
0010
0000
,
1000
0000
0001
0001
,
0100
0000
0010
0000
,
1000
0000
1000
0000
,
0010
0000
0100
0000
,
0001
0000
0000
0000
1000
0000
0000
1000
,
0000
0000
0000
0010
0000
0000
0000
0100
,
0000
0000
0000
0001
0000
0000
1000
0000
,
0000
0010
0000
0100
,
0000
0000
0001
0000
0000
1000
0000
0000
,
0000
0010
0000
0000
0000
0100
0000
0000
,
0000
0010
0000
0000
0000
1000
0000
1000
,
0000
1000
0000
0000
0000
0010
0000
0000
,
0000
0100
0000
0000
0000
0001
0000
0000
,
1000
0000
0010
0000
,
0000
0000
0000
0100
0000
0000
0000
0000
,
0001
0000
1000
0000
,
0010
0000
0100
0000
,
0001
0000
1000
0000
,
0010
0000
0100
0001
,
1000
0010
0100
0000
,
0001
0000
0000
0000
0000
1000
0000
0000
,
0000
0010
0000
0000
0000
0100
0000
0000
,
0000
0000
0000
0001
0000
0000
0000
0000
,
1000
0000
0000
0000
0000
0010
0000
0100
,
0000
0010
0000
1000
0000
0001
0000
1000
,
0000
0110
0000
0001
0000
1000
0000
0001
,
0000
0110
0000
1000
0000
0001
0000
1000
,
0000
0110
0000
0001
0000
1000
0000
0001
,
0000
0100
0000
0010
0000
0000
0000
2000
,
0000
0000
0000
0000
3000
0000
0000
0001
,
0000
0000
0000
0100
0000
0000
0000
0010
,
0000
0000
0000
1000
0000
0000
0000
0010
,
0000
0000
0000
0100
0000
0001
0000
0100
,
0000
0001
0000
0000
0000
0000
0000
1000
,
0000
0000
0000
0010
0000
0000
0000
1000
,
0000
0000
0000
0001
0000
0000
0000
0100
,
0000
0000
0000
0010
0000
1000
0000
0010
,
0000
1000
0000
0000
0000
0000
0001
0000
,
0000
0000
0000
0100
0000
0000
0000
0010
,
0000
0000
0000
1000
0000
0000
0000
0001
,
0000
0000
0000
0100
0000
0000
0000
0010
,
0000
1000
0000
0010
0000
0000
0000
0100
,
0000
0000
0000
0001
0000
0000
0000
1000
,
0000
0000
0000
0001
0000
0000
0000
0100
,
0000
0000
0000
0010
0000
0000
0000
1000
,
0001
0000
0100
0000
,
0000
0001
0000
0100
0000
0001
0000
1000
,
0000
0010
0000
0100
0000
0010
0000
0000
,
0000
1000
0000
0000
0000
0001
0000
0000
,
0000
1000
0000
1000
0000
1000
0000
1000
,
0000
0010
0000
0000
0000
0010
0000
0000
,
0000
0100
0000
0100
0000
0100
0000
0001
;
