#TITLE:ABSOLUTE 2007;
#SUBTITLE:;
#ARTIST:dj.TAKA;
#TITLETRANSLIT:;
#SUBTITLETRANSLIT:;
#ARTISTTRANSLIT:;
#CREDIT:SupremeX;
#BANNER:ABSOLUTE 2007-bn.png;
#BACKGROUND:ABSOLUTE 2007-bg.png;
#LYRICSPATH:;
#CDTITLE:;
#MUSIC:ABSOLUTE 2007.ogg;
#OFFSET:-0.048;
#SAMPLESTART:21.698;
#SAMPLELENGTH:15.000;
#SELECTABLE:YES;
#BPMS:0.000=144.000;
#STOPS:;
#BGCHANGES:;

//---------------dance-single - ----------------
#NOTES:
     dance-single:
     :
     Hard:
     8:
     0.557,0.729,0.169,0.152,0.173: // measure 1
0000
0000
0000
0000
,  // measure 2
0000
0000
0000
0000
,  // measure 3
0000
0000
0000
0000
,  // measure 4
0000
0000
0000
0000
,  // measure 5
0001
0000
0001
1000
0100
0000
0100
1000
,  // measure 6
0002
0100
0100
0103
,  // measure 7
0010
1000
0001
1000
0010
0000
0010
1000
,  // measure 8
0200
1000
1000
1300
,  // measure 9
0000
0001
0000
0100
0000
0101
0000
1010
,  // measure 10
0000
1000
0000
0001
0000
1100
0000
0011
,  // measure 11
0001
0010
0100
1000
0100
1000
0001
0010
,  // measure 12
0100
1000
0100
0010
0100
1000
0100
0010
0001
0010
0100
0010
0001
0010
0100
0010
,  // measure 13
0001
1000
0100
0010
0001
0100
0010
0000
,  // measure 14
1100
0100
1000
0001
0100
0000
0100
0001
,  // measure 15
2000
0100
0100
3100
,  // measure 16
1000
0000
0100
1000
0100
0000
0010
0000
0001
0000
0000
0001
1000
0000
0100
0000
,  // measure 17
0200
1000
1000
1300
,  // measure 18
0001
0000
0100
0001
0100
0000
0001
0000
1000
0000
0000
0100
1000
0000
0100
0000
,  // measure 19
0021
0001
0001
0031
,  // measure 20
1000
0000
0010
1000
0010
0000
1000
0000
0100
0000
0000
0010
0001
0000
0010
0000
,  // measure 21
0002
0100
0100
0103
,  // measure 22
0010
0000
1000
0100
0000
0000
0100
0000
0010
0000
0001
0100
0000
0000
0100
0000
,  // measure 23
0010
0100
0010
1000
0010
0100
0001
1000
,  // measure 24
0100
0000
1000
0001
0000
0000
0001
0000
1000
0000
0001
0010
0000
0000
0010
0000
,  // measure 25
0001
1000
0010
0100
0001
1000
0001
0010
,  // measure 26
0100
0000
1000
0100
0000
0000
0100
0000
1000
0000
0010
1000
0000
0000
1000
0000
,  // measure 27
0001
0010
0100
1000
0010
0100
0001
1000
,  // measure 28
0010
0000
0100
0001
0000
0000
0001
0000
1000
0000
0010
0100
0000
0000
0100
0000
,  // measure 29
0001
0000
1000
0000
0001
0000
0100
0000
0001
0000
1000
0100
1000
0100
1000
0100
,  // measure 30
1000
0100
1000
0000
1000
0001
0100
0000
,  // measure 31
0100
0001
1000
0010
0100
0001
1000
0000
,  // measure 32
0001
0100
0001
0100
0001
0100
0001
0000
,  // measure 33
1000
0010
1000
0010
1000
0010
1000
0000
,  // measure 34
0001
0100
0010
0000
0010
1000
0001
0000
,  // measure 35
0001
1000
0100
0000
0100
1000
0010
0000
,  // measure 36
0010
1000
0001
0100
0010
1000
0001
0000
,  // measure 37
0100
0010
0100
0010
0100
0001
0001
0001
,  // measure 38
1000
0100
1000
0000
0010
0000
0110
0000
,  // measure 39
0100
0001
1000
0000
1000
0000
0120
0000
,  // measure 40
0100
1000
1000
0130
,  // measure 41
0100
0001
1000
0000
0001
0000
1001
0000
,  // measure 42
0100
0010
0100
0000
0001
1000
0010
0000
,  // measure 43
0010
1000
0001
1000
0100
0010
0001
0000
,  // measure 44
0012
1003
1020
0130
,  // measure 45
0101
0000
1010
0000
0100
0001
1000
0010
,  // measure 46
0200
0010
0310
0110
,  // measure 47
0001
1000
0010
1000
0001
0100
0200
0000
,  // measure 48
0001
0301
0010
1010
,  // measure 49
1001
0101
1001
0110
,  // measure 50
1000
0001
0100
0000
0100
0001
1000
0000
,  // measure 51
1000
0020
0230
0302
,  // measure 52
1003
0001
1000
0010
0010
0100
0001
1000
,  // measure 53
0010
1000
0001
0100
0001
1000
0010
0100
,  // measure 54
0100
0000
0001
0000
1000
0100
0000
0000
0100
0000
1000
0001
0000
0000
0001
0000
,  // measure 55
2000
0100
0100
3100
,  // measure 56
1000
0000
0000
1000
0001
0000
0100
0000
0100
0000
0001
1000
0001
0000
1000
0000
,  // measure 57
0020
0100
0100
0130
,  // measure 58
0001
0000
0100
0001
0100
0000
0010
0000
0010
0000
1000
0010
1000
0000
0010
0000
,  // measure 59
0200
0010
0010
0310
,  // measure 60
1000
0000
0001
1000
0010
0000
0100
0000
0010
0000
0010
0100
0001
0000
0100
0000
,  // measure 61
0020
0000
1030
0000
1000
0100
0010
0001
,  // measure 62
0001
0000
1000
0000
0100
0000
0000
0100
0000
0000
1000
0000
0010
0000
0010
0000
,  // measure 63
0000
0000
1000
0000
0001
0000
0000
0100
0000
0000
0100
0000
0001
0000
0001
0000
,  // measure 64
0000
0000
1000
0000
0100
0000
0000
0100
0000
0000
1000
0000
0100
0000
0010
0000
,  // measure 65
0000
0000
0001
0000
0001
0000
0000
0010
0000
0000
0100
0000
1000
0000
0100
0000
,  // measure 66
0000
0000
0010
0000
0001
0000
0000
0001
0000
0000
1000
0000
0010
0000
0100
0000
,  // measure 67
0000
0000
0100
0000
0001
0000
0000
0001
0000
0000
1000
0000
1000
0000
0010
0000
,  // measure 68
0000
0000
0010
0000
0100
0000
0000
0100
0000
0000
0001
0000
1000
0000
0100
0000
,  // measure 69
0000
0000
0100
0000
0100
0000
0000
0010
0000
0000
1000
0000
0001
0000
1000
0000
,  // measure 70
1001
0000
0000
0000
;

//---------------dance-single - ----------------
#NOTES:
     dance-single:
     :
     Medium:
     5:
     0.365,0.408,0.034,0.321,0.000:
0000
0000
0000
0000
,
0000
0000
0000
0000
,
0000
0000
0000
0000
,
0000
0000
0000
0000
,
1000
0000
0100
0010
0001
0000
0001
0010
,
0200
0000
0000
0300
,
1000
0000
0100
0010
0001
0000
0001
0010
,
0200
0000
0000
0000
0000
0000
0000
0300
,
0000
1000
0000
0100
0000
0010
0000
0001
,
0000
0010
0000
1100
0000
0010
0000
0101
,
0000
0100
0000
1000
0000
0100
0000
0010
,
0001
0010
0000
0100
1000
0100
0000
0200
,
0000
0300
0010
0001
,
0010
0100
1000
0000
0010
0100
0001
0000
,
0020
0000
0000
0030
,
0100
1000
0100
0000
0010
0001
0010
0100
,
2000
0000
0000
0000
0000
0000
0000
3000
,
0010
0100
0001
0010
0100
1000
0010
0100
,
0002
0000
0000
0000
0000
0000
0000
0003
,
0100
0100
0100
0000
0010
0010
0010
0000
,
2000
0000
0000
0000
0000
0000
0000
3000
,
0100
0000
0010
0001
0010
0000
0100
1000
,
0200
0000
0000
0300
,
0010
0001
1000
0000
0010
0100
0001
0020
,
0000
0000
0000
0030
,
0100
1000
0010
0000
0100
0001
0020
0000
,
0000
0000
0000
0030
,
1000
0100
0010
0000
0001
0010
0200
0000
,
0000
0000
0000
0300
,
1000
0000
0100
0000
0010
0001
0010
0000
,
0100
1000
0100
0000
0010
0001
0010
0000
,
0100
1000
0010
0100
,
0001
0000
0010
0000
0100
1000
0100
0000
,
0010
0000
0001
0000
0010
0001
0010
0000
,
0100
0000
1000
0000
0010
0100
0001
0000
,
0010
0100
1000
0000
0010
0100
0001
0000
,
0010
0100
1000
0100
1000
0100
1000
0100
,
0010
0001
0010
0200
,
2300
3200
0320
0032
,
0203
0000
0000
0320
,
2030
3200
0320
0032
,
0203
0000
0000
0000
,
0300
2000
3200
0320
,
0032
0000
0000
0203
,
0320
0000
1030
1010
,
0100
0100
0100
0010
,
1000
0100
0010
0001
,
0100
0100
0100
0010
,
1000
0001
0010
0100
,
2000
0010
0010
0010
,
3010
0200
0302
2003
,
3020
0100
0130
0100
,
0001
1000
0001
1000
0010
0100
0010
0100
,
0001
0000
1000
0001
0100
0000
0100
0000
,
0020
0000
0000
0030
,
1000
0100
1000
0000
0100
0000
1000
0000
,
0200
0000
0000
0000
0000
0000
0000
0300
,
0010
1000
0001
0000
1000
0000
0010
0000
,
0200
0000
0000
0000
0000
0000
0000
0300
,
0010
0000
0100
0000
0001
0100
0010
1000
,
0200
0000
0000
0000
0000
0000
0000
0300
,
1000
0000
0001
0000
0100
0001
0100
0000
,
0001
0000
1000
0000
0010
1000
0010
0000
,
0100
0000
0010
0000
0100
0010
0001
0000
,
0010
0000
0100
0000
1000
0100
0010
0000
,
0001
0000
0100
0000
0010
0100
1000
0000
,
0001
0000
1000
0000
0001
1000
0010
0000
,
0000
1000
1000
0000
0001
0000
0001
0000
,
0000
1000
1000
0001
0010
0100
1000
0000
,
1001
0000
0000
0000
;

//---------------dance-single - ----------------
#NOTES:
     dance-single:
     :
     Easy:
     3:
     0.273,0.262,0.025,0.194,0.000:
0000
0000
0000
0000
,
0000
0000
0000
0000
,
0000
0000
0000
0000
,
0000
0000
0000
0000
,
0020
0000
0230
0000
,
0302
0000
0000
0000
,
2003
0000
3020
0000
,
0230
0000
0000
0000
0000
0000
0000
0300
,
0000
0001
0000
0001
0000
1000
0000
1000
,
0000
0010
0000
0010
0000
0100
0000
0100
,
0000
0001
0000
1000
0000
0001
0000
1000
,
0000
0020
0000
0000
0000
0000
0030
0000
,
0220
0000
0000
0330
,
1000
0001
1000
0001
,
2000
0000
0000
3000
,
0001
1000
0001
1000
,
0002
0000
0000
0003
,
0100
0010
0100
0010
,
0200
0000
0000
0300
,
0010
0100
0010
0100
,
0020
0000
0000
0030
,
1000
1000
0001
0001
,
1000
0010
0100
0100
,
0001
0001
1000
1000
,
0001
0100
0010
0010
,
1000
0001
1000
0010
,
0010
0100
0100
0100
,
0001
1000
0010
1000
,
0001
0001
0100
0100
,
0100
0010
1000
0010
,
1000
0001
1000
0010
,
1000
0001
1000
0010
,
1000
0001
1000
0010
,
0001
0010
0100
1000
,
0001
0010
0100
1000
,
0001
0100
0010
0100
,
0001
0100
0010
0100
,
0002
0000
0000
0000
0000
0003
0000
0000
,
1000
0010
0100
0002
,
0000
0000
0000
0000
0000
0003
1000
0000
,
1000
0010
0100
0001
,
2000
0000
0000
0000
0000
0000
0000
3000
,
0000
0001
0001
0100
,
2000
0000
0000
3000
,
0010
0010
0100
0100
,
0001
1000
0010
0100
,
0001
1000
0010
0020
,
0000
0000
0000
0030
,
0100
0100
0100
0010
,
0200
0000
0000
0000
,
0300
0001
0001
1000
,
0020
0000
0000
0030
,
0200
0000
0000
0000
0000
0000
0000
0300
,
0001
0001
1000
1000
,
0010
1000
0010
1000
,
0001
0001
0100
0100
,
0010
0100
0001
0100
,
0010
0010
1000
1000
,
0002
0000
0000
0003
,
1000
1000
0010
0010
,
0200
0000
0000
0300
,
0001
1000
0001
1000
,
0010
0100
0010
0100
,
0001
1000
0001
1000
,
0010
0100
0010
0100
,
0001
0001
0001
0001
,
1000
1000
1000
1000
,
0010
0010
0010
0010
,
0100
0010
0100
0110
,
1001
0000
0000
0000
;

//---------------dance-single - ----------------
#NOTES:
     dance-single:
     :
     Beginner:
     1:
     0.113,0.175,0.000,0.034,0.000:
0000
0000
0000
0000
,
0000
0000
0000
0000
,
0000
0000
0000
0000
,
0000
0000
0000
0000
,
1000
0000
0000
0000
,
0000
0000
0000
0000
,
0001
0000
0000
0000
,
0000
0000
0000
0000
,
0000
1000
0000
0000
0000
0000
0000
0000
,
0000
1000
0000
0000
0000
0000
0000
0000
,
0000
1000
0000
0000
0000
0000
0000
0000
,
0000
1000
0000
0000
0000
0000
0000
0000
,
0000
0000
0000
0000
,
0001
0000
0001
0000
,
0001
0000
0000
0000
,
0001
0000
0001
0000
,
0001
0000
0000
0000
,
0001
0000
0001
0000
,
0001
0000
0000
0000
,
0001
0000
0001
0000
,
0001
0000
0000
0000
,
0100
0000
0100
0000
,
0100
0000
0100
0000
,
0010
0000
0010
0000
,
0010
0000
0010
0000
,
0100
0000
0100
0000
,
0100
0000
0000
0000
,
0010
0000
0010
0000
,
0010
0000
0000
0000
,
1000
0000
1000
0000
,
1000
0000
1000
0000
,
1000
0000
1000
0000
,
1000
0000
1000
0000
,
0001
0000
0001
0000
,
0001
0000
0001
0000
,
0001
0000
0001
0000
,
0001
0000
0000
0000
,
0100
0000
0000
0000
,
0100
0000
0000
0010
,
0000
0000
0000
0010
,
0000
0000
0000
0000
,
0100
0000
0000
0000
,
0010
0000
0100
0000
,
0010
0000
0000
0000
,
0000
0000
0000
0000
,
1000
0000
0000
0000
,
1000
0000
0000
0000
,
0001
0000
0000
0000
,
0001
0000
1000
0000
,
0001
0000
1000
0000
,
0001
0000
1000
0001
,
1000
0000
0001
0000
,
1000
0000
0001
0000
,
0100
0000
0100
0000
,
0200
0000
0000
0300
,
0010
0000
0010
0000
,
0020
0000
0000
0030
,
1000
0000
1000
0000
,
2000
0000
0000
3000
,
0001
0000
0001
0000
,
0002
0000
0000
0003
,
0100
0000
0000
0000
,
0100
0000
0000
0000
,
0001
0000
0000
0000
,
0001
0000
0000
0000
,
1000
0000
0000
0000
,
1000
0000
0000
0000
,
0010
0000
0000
0000
,
0010
0000
0000
0000
,
0010
0000
0000
0000
;
