#TITLE:2020;
#SUBTITLE:;
#ARTIST:Ω;
#TITLETRANSLIT:;
#SUBTITLETRANSLIT:;
#ARTISTTRANSLIT:Omega;
#CREDIT:SupremeX;
#BANNER:2020-bn.png;
#BACKGROUND:2020-bg.png;
#LYRICSPATH:;
#CDTITLE:;
#MUSIC:2020.ogg;
#OFFSET:-1.861;
#SAMPLESTART:79.640;
#SAMPLELENGTH:12.000;
#SELECTABLE:YES;
#BPMS:0.000=148.000;
#STOPS:;
#BGCHANGES:;

//---------------dance-single - ----------------
#NOTES:
     dance-single:
     :
     Challenge:
     9:
     0.580,0.542,0.462,0.590,0.094:
0000
0000
0000
0000
,
0000
0000
0000
0000
,
0000
0000
0000
0000
,
0000
0000
0000
0000
,
0000
2000
0000
3200
0000
2300
0000
3020
,
0000
0230
0000
0302
0000
2003
0000
3020
,
0000
2030
0000
3002
0000
0100
0000
0103
,
0000
0020
0000
2030
0000
3002
0000
2003
,
0000
3200
0000
1000
0000
1000
0000
1300
,
0000
0100
0010
0001
0010
0100
0010
0001
,
1000
0100
1000
0100
0010
0001
1000
0010
,
1000
0010
0100
0001
1000
0100
1000
0001
,
0100
0010
1000
0001
1000
0010
0100
0010
,
1000
0001
0100
0001
1000
0010
0100
0010
,
1000
0001
1000
0001
0100
0001
1000
0010
,
1000
0020
0000
0230
0000
0302
0000
1003
,
1001
0000
0000
0000
0000
0000
0000
0000
0110
0000
0000
0110
0000
0000
0001
0000
,
0002
0000
0000
0000
0003
0000
0000
0000
1100
0000
0000
1100
0000
0000
0010
0000
,
0020
0000
0000
0000
0030
0000
0000
0000
0011
0000
0000
0011
0000
0000
0100
0000
,
2000
0000
0000
0000
3000
0000
0000
0000
1001
0000
0000
1001
0000
0000
0010
0000
,
0020
0000
0000
0000
0030
0000
0000
0000
0110
0000
0000
0110
0000
0000
1000
0000
,
2000
0000
0000
0000
3100
0000
0000
0000
0110
0000
0000
0110
0000
0000
0001
0000
,
0002
0000
0000
0000
0003
0000
0000
0000
1100
0000
0000
0011
0000
0000
1000
0000
,
1000
0000
0000
0000
0100
0000
0000
0000
0011
0000
0000
1100
0000
0000
0001
0000
,
0001
1000
0100
1000
0100
0010
0001
0010
,
0001
1000
0100
0010
0001
0100
0001
1000
,
0000
0010
1000
0010
0100
0001
0100
0000
,
0001
1000
0100
1000
0010
1000
0010
1010
,
0100
0001
0100
0001
1000
0100
0010
0001
,
1000
0100
1000
0010
1000
0001
0100
0001
,
0000
1000
1000
0100
1000
0100
0010
0001
,
1000
0010
0100
0010
1000
0001
1000
0010
,
0010
0200
0000
0302
0000
2003
0000
3002
,
0000
0023
0000
0230
0000
2300
0000
3020
,
0000
0230
0000
0302
0000
1000
0000
1003
,
0000
0020
0000
0230
0000
2300
0000
3020
,
0000
0230
0000
0302
0000
1000
0000
1003
,
0000
0020
0000
0230
0000
0302
0000
2003
,
0000
3002
0000
0203
0000
0010
0000
0310
,
0000
2000
0000
3020
0000
2030
0000
3001
,
0101
1000
0010
1000
0001
0100
0010
1000
,
0001
0100
0010
1000
0001
1000
0100
0010
,
0001
1000
0001
0100
0010
1000
0010
1000
,
0001
0100
0010
0100
0001
1000
0010
0000
,
1100
0001
0100
0001
1000
0100
0010
0001
,
1000
0010
0100
0010
1000
0100
0010
0001
,
1000
0100
1000
0001
0100
0010
0100
0010
,
1000
0100
0010
0001
1000
0001
0100
0010
,
0220
0000
0000
0000
0330
0000
0000
0000
1100
0000
0000
1100
0000
0000
0001
0000
,
0002
0000
0000
0000
0003
0000
0000
0000
0110
0000
0000
0110
0000
0000
1000
0000
,
2000
0000
0000
0000
3000
0000
0000
0000
1100
0000
0000
1100
0000
0000
0001
0000
,
0002
0000
0000
0000
0003
0000
0000
0000
1010
0000
0000
1010
0000
0000
0100
0000
,
0200
0000
0000
0000
0300
0000
0000
0000
0011
0000
0000
0011
0000
0000
0100
0000
,
2000
0000
3100
0000
0000
1000
0000
0000
,
0001
0000
0000
0000
0001
0000
0000
0000
1100
0000
0000
0110
0000
0000
0001
0000
,
0001
0000
0010
0000
0100
0000
1000
0100
,
0110
0000
0000
0000
0001
0000
0000
0000
0110
0000
0000
1100
0000
0000
0010
0000
,
0020
0000
0000
0000
0030
0000
0000
0000
0011
0000
0000
0011
0000
0000
0100
0000
,
0200
0000
0000
0000
0300
0000
0000
0000
1010
0000
0000
0101
0000
0000
1000
0000
,
2000
0000
0000
0000
3000
0000
0000
0000
1010
0000
0000
0101
0000
0000
0010
0000
,
0020
0000
0000
0000
0030
0000
0000
0000
1100
0000
0000
1001
0000
0000
0100
0000
,
0002
0000
0000
0000
0003
0000
0000
0000
1100
0000
0000
0110
0000
0000
0001
0000
,
2000
0000
0000
0000
3000
0000
0000
0000
0110
0000
0000
0011
0000
0000
0100
0000
,
0200
0000
0000
0000
0300
0000
0000
0000
1100
0000
0000
0110
0000
0000
0001
0000
,
1000
0000
0010
0100
0010
0000
1000
0001
,
1000
0000
0010
0100
0010
0000
1000
0001
,
0100
0010
2000
0000
3002
0000
0203
0000
,
0320
0130
1001
0110
,
1001
0220
0000
0000
,
0000
0000
0000
0000
,
0000
0000
0000
0330
0000
0000
0000
0000
;

//---------------dance-single - ----------------
#NOTES:
     dance-single:
     :
     Hard:
     8:
     0.453,0.542,0.248,0.077,0.094: // measure 1
0000
0000
0000
0000
,  // measure 2
0000
0000
0000
0000
,  // measure 3
0000
0000
0000
0000
,  // measure 4
0000
0000
0000
0000
,  // measure 5
0000
1000
0000
0010
0000
1000
0000
0001
,  // measure 6
0000
0100
0000
0001
0000
1000
0000
0100
,  // measure 7
0000
0010
0000
0002
0000
1000
0000
1003
,  // measure 8
0000
0100
0000
0010
0000
0100
0000
0001
,  // measure 9
0000
2000
0000
0100
0000
0100
0000
3100
,  // measure 10
0000
1000
0000
0010
0000
0010
0000
0100
,  // measure 11
0000
0100
0000
0001
0000
1000
0010
0000
,  // measure 12
0010
1000
0001
0000
0100
0010
1000
0000
,  // measure 13
1000
0001
0100
0000
0100
0001
1000
0000
,  // measure 14
1000
0010
0100
0000
0100
0001
0010
0000
,  // measure 15
0010
0100
1000
0010
1000
0001
0010
0100
,  // measure 16
1000
0100
0000
0010
0000
0001
0000
1000
,  // measure 17
0200
0000
0000
0000
0000
0000
0000
0000
1300
0000
0000
1100
0000
0000
0010
0000
,  // measure 18
0010
0000
0000
0000
0000
0000
0000
0000
0001
0000
0000
1001
0000
0000
0100
0000
,  // measure 19
0100
0000
0000
0000
0000
0000
0000
0000
0010
0000
0000
1010
0000
0000
1000
0000
,  // measure 20
1000
0000
0000
0000
0000
0000
0000
0000
0001
0000
0000
0101
0000
0000
0010
0000
,  // measure 21
0010
0000
0000
0000
0000
0000
0000
0000
1000
0000
0000
0110
0000
0000
0001
0000
,  // measure 22
0001
0000
0000
0000
0010
0000
0000
0000
0100
0000
0000
1100
0000
0000
1000
0000
,  // measure 23
1000
0000
0000
0000
0010
0000
0000
0000
0100
0000
0000
0110
0000
0000
0010
0000
,  // measure 24
0010
0000
0000
0000
1000
0000
0000
0000
0010
0000
0000
0110
0000
0000
0100
0000
,  // measure 25
0100
0001
1000
0100
1000
0001
0100
0010
,  // measure 26
1000
0001
1000
0100
1000
0001
0100
0001
,  // measure 27
0000
0010
0100
1000
0001
0010
0001
0000
,  // measure 28
1000
0100
1000
0001
0100
0001
1000
1100
,  // measure 29
0010
0001
0010
0100
1000
0001
1000
0100
,  // measure 30
1000
0001
1000
0100
0010
0001
1000
0100
,  // measure 31
0000
0100
0010
0001
0010
0100
0010
0001
,  // measure 32
1000
0100
0010
0100
1000
0001
1000
0010
,  // measure 33
0200
0001
0000
0001
0000
0001
0000
0301
,  // measure 34
0000
0010
0000
0100
0000
1000
0000
0100
,  // measure 35
0000
0010
0000
0002
0000
0100
0000
0103
,  // measure 36
0000
0010
0000
0010
0000
1000
0000
0100
,  // measure 37
0000
1000
0000
0120
0000
0100
0000
0130
,  // measure 38
0000
0001
0000
1000
0000
0100
0000
1000
,  // measure 39
0000
0001
0000
0210
0000
0010
0000
0310
,  // measure 40
0000
1000
0000
0100
0000
0010
0000
0001
,  // measure 41
0010
0001
1000
0010
1000
0001
0010
0100
,  // measure 42
1000
0010
0100
0010
1000
0001
0100
0001
,  // measure 43
1000
0100
1000
0001
0010
0100
1000
0100
,  // measure 44
1000
0001
0100
0001
1000
0010
0100
0000
,  // measure 45
0100
0001
1000
0010
1000
0100
0010
0001
,  // measure 46
0100
0010
0100
0010
1000
0001
0100
0010
,  // measure 47
1000
0001
0100
0010
1000
0100
0010
0001
,  // measure 48
1000
0100
0010
0100
1000
0001
0010
0100
,  // measure 49
1100
0000
0000
0000
0000
0000
0000
0000
0010
0000
0000
0011
0000
0000
0001
0000
,  // measure 50
0001
0000
0000
0000
0000
0000
0000
0000
0100
0000
0000
0110
0000
0000
0010
0000
,  // measure 51
0010
0000
0000
0000
0000
0000
0000
0000
1000
0000
0000
1010
0000
0000
0100
0000
,  // measure 52
0100
0000
0000
0000
0000
0000
0000
0000
0001
0000
0000
0101
0000
0000
0010
0000
,  // measure 53
0010
0000
0000
0000
0000
0000
0000
0000
1000
0000
0000
1100
0000
0000
0100
0000
,  // measure 54
0100
0000
0110
0000
0000
0001
0000
0000
,  // measure 55
1001
0000
0000
0000
0000
0000
0000
0000
0100
0000
0000
0110
0000
0000
0010
0000
,  // measure 56
1000
0000
0100
0000
0010
0000
0001
0010
,  // measure 57
0100
0000
0000
0000
0000
0000
0000
0000
1000
0000
0000
1100
0000
0000
0100
0000
,  // measure 58
1000
0000
0000
0000
0000
0000
0000
0000
0010
0000
0000
0011
0000
0000
0010
0000
,  // measure 59
0001
0000
0000
0000
0000
0000
0000
0000
0100
0000
0000
0110
0000
0000
0001
0000
,  // measure 60
1000
0000
0000
0000
0000
0000
0000
0000
1000
0000
0000
1010
0000
0000
0100
0000
,  // measure 61
0001
0000
0000
0000
0000
0000
0000
0000
1000
0000
0000
1001
0000
0000
0100
0000
,  // measure 62
0100
0000
0000
0000
0000
0000
0000
0000
0001
0000
0000
0110
0000
0000
0010
0000
,  // measure 63
0010
0000
0000
0000
0000
0000
0000
0000
1000
0000
0000
0110
0000
0000
1000
0000
,  // measure 64
1000
0000
0000
0000
0000
0000
0000
0000
0001
0000
0000
0110
0000
0000
0001
0000
,  // measure 65
0001
0000
0000
1000
0100
0000
0000
0100
,  // measure 66
0010
0000
0000
0010
0001
0000
0000
1000
,  // measure 67
0010
0000
0000
0100
0001
0000
1000
0000
,  // measure 68
0010
0100
0001
1000
,  // measure 69
0001
0220
0000
0000
,  // measure 70
0000
0000
0000
0000
,  // measure 71
0000
0000
0000
0330
0000
0000
0000
0000
;

//---------------dance-single - ----------------
#NOTES:
     dance-single:
     :
     Medium:
     5:
     0.321,0.361,0.188,0.017,0.000:
0000
0000
0000
0000
,
0000
0000
0000
0000
,
0000
0000
0000
0000
,
0000
0000
0000
0000
,
0000
0010
0000
0010
0000
0010
0000
0010
,
0000
1000
0000
0001
0000
1000
0000
0010
,
0000
0100
0000
0100
0000
0100
0000
0100
,
0000
0001
0000
1000
0000
0001
0000
1000
,
0000
0010
0000
0100
0000
0100
0000
0100
,
0000
0001
0000
1000
0000
0001
0000
1000
,
0000
0001
0000
0000
1000
0000
0010
0000
,
0100
0001
1000
0010
,
0100
0001
1000
0010
,
0100
0001
1000
0001
,
1000
0010
0100
0010
,
0100
0001
1000
0010
,
1000
0000
0001
0000
,
1001
0000
0010
0000
,
1001
0000
0100
0000
,
1001
0000
0010
0000
,
0110
0000
1000
0100
,
1000
0010
0100
0001
,
1000
0001
0100
0100
,
0010
0000
1000
0001
,
1000
1000
1000
0010
,
0100
0001
1000
0001
,
0100
0000
0010
0000
1000
0010
0100
0000
,
0001
0000
1000
0000
0010
0100
0010
0100
,
0001
0001
1000
1000
,
0010
0000
0100
0000
0001
0000
1000
1000
,
0010
0100
0001
1000
,
0010
0000
0100
0000
0001
0000
1000
0010
,
0100
0001
0001
0001
,
0001
1000
1000
1000
,
1000
0010
0100
0010
,
0100
0001
1000
0001
,
1000
0010
0100
0100
,
0100
0001
0001
0001
,
0001
1000
0010
1000
,
0010
0100
0001
0100
,
0001
0000
1000
0000
0010
0100
0010
0000
,
0100
0000
0001
0000
1000
0001
1000
0000
,
0010
0000
0100
0000
0001
0100
0001
0000
,
1000
0000
0010
0000
1000
0010
1000
0000
,
0001
0000
0100
0000
0010
1000
0001
0000
,
0100
0000
0010
0000
1000
0001
0100
0000
,
0010
0000
0010
0000
1000
0010
1000
0000
,
0001
0000
0100
0000
0010
1000
0010
0000
,
0101
0000
0010
0000
,
1010
0000
0001
1000
,
0001
0100
0010
1000
,
0001
0100
0010
0000
,
1001
0000
1000
1000
,
0010
0100
0001
1000
,
0010
0100
0001
1000
,
0010
0000
1010
0000
,
0101
0000
1000
0010
,
0100
0001
1000
0010
,
1010
0000
0110
0000
,
0101
0000
1001
0000
,
0110
0000
1000
0010
,
0100
0001
1000
0010
,
0100
0001
0100
0000
0010
0000
1000
0000
,
0010
0100
0001
0000
1000
0000
0001
0000
,
1001
0000
1010
0000
,
0101
0000
1010
0000
,
0101
0000
1001
0000
,
0110
0000
2002
0000
,
0000
0000
0000
0000
,
0000
0000
0000
0000
,
0000
0000
0000
3003
0000
0000
0000
0000
;

//---------------dance-single - ----------------
#NOTES:
     dance-single:
     :
     Easy:
     3:
     0.237,0.264,0.111,0.009,0.000:
0000
0000
0000
0000
,
0000
0000
0000
0000
,
0000
0000
0000
0000
,
0000
0000
0000
0000
,
0000
0000
0000
0001
0000
0000
0000
0000
,
0000
0000
0000
0001
0000
0000
0000
0100
,
0000
0000
0000
0010
0000
0000
0000
0000
,
0000
0010
0000
0000
0000
1000
0000
0000
,
0001
1000
0001
1000
,
0001
1000
0001
1000
,
0010
0100
0010
0100
,
0010
0100
0001
1000
,
0001
1000
0001
1000
,
0001
0100
0010
0100
,
0010
1000
1000
1000
,
1000
0001
0001
0001
,
0001
0000
1000
0000
,
0110
0000
0001
0000
,
1000
0000
0001
0000
,
0110
0000
1000
0000
,
0001
0001
0100
0100
,
0010
0010
1000
1000
,
0001
0001
0100
0000
,
0110
0000
0001
0000
,
1000
0000
1000
0000
,
0010
0000
0110
0000
,
0001
0000
0001
0000
,
1000
0000
1001
0000
,
1000
0000
0010
0000
,
0100
0000
0001
0000
,
0101
0000
1010
0000
,
0101
0000
1010
0000
,
0000
0001
0000
0001
0000
0100
0000
0100
,
0000
0010
0000
0010
0000
1000
0000
1000
,
0000
0001
0000
0001
0000
0100
0000
0100
,
0000
0010
0000
0010
0000
1000
0000
1000
,
0000
0001
0000
0100
0000
0001
0000
0100
,
0000
0010
0000
1000
0000
0010
0000
1000
,
0000
0001
0000
0001
0000
0100
0000
0100
,
0000
0010
0000
0010
0000
1000
0000
1000
,
0000
0001
0100
0001
,
0000
1000
0010
1000
,
0000
0010
0010
0100
,
0100
0000
0001
0000
,
1000
0001
1000
1000
,
0010
0100
0001
0001
,
0000
1000
0000
0010
,
0000
0100
0001
1000
,
1001
0000
0010
0000
,
0100
0000
0001
0000
,
1000
0000
0110
0000
,
0001
0000
1000
0000
,
0110
0000
0001
0000
,
0001
0000
1000
0000
,
1000
0000
0010
0000
,
0010
0000
0100
0000
,
0001
1000
0001
1000
,
0001
0000
1000
0010
,
0100
0000
0001
1000
,
0010
0000
1000
0001
,
0100
0010
0100
0100
,
0100
0000
0010
0100
,
0001
0000
1000
0001
,
1000
0000
0010
0000
,
0110
0000
1000
0000
,
0001
0000
1000
0000
,
0010
0000
0100
0000
,
0001
0000
2000
0000
,
0000
0000
3000
0000
;

//---------------dance-single - Copied from----------------
#NOTES:
     dance-single:
     Copied from:
     Beginner:
     1:
     0.078,0.087,0.000,0.000,0.000:
0000
0000
0000
0000
,
0000
0000
0000
0000
,
0000
0000
0000
0000
,
0000
0000
0000
0000
,
0000
0010
0000
0000
0000
0000
0000
0000
,
0000
0010
0000
0000
0000
0000
0000
0000
,
0000
0010
0000
0000
0000
0000
0000
0000
,
0000
0010
0000
0000
0000
0000
0000
0000
,
1000
0000
0000
0000
,
1000
0000
0000
0000
,
1000
0000
0000
0000
,
1000
0000
0000
0000
,
0001
0000
0000
0000
,
0001
0000
0000
0000
,
0001
0000
0000
0000
,
0100
0000
0000
0000
,
0100
0000
0000
0000
,
0010
0000
0000
0000
,
0010
0000
0000
0000
,
0100
0000
0000
0000
,
0100
0000
0000
0000
,
0001
0000
0000
0000
,
0001
0000
0000
0000
,
1000
0000
0000
0000
,
1000
0000
0000
0000
,
0001
0000
0000
0000
,
1000
0000
0000
0000
,
0001
0000
0000
0000
,
0010
0000
0000
0000
,
0100
0000
0000
0000
,
0010
0000
0000
0000
,
0100
0000
0000
0000
,
0010
0000
0000
0000
,
0000
1000
0000
0000
0000
0000
0000
0000
,
0000
0001
0000
0000
0000
0000
0000
0000
,
0000
1000
0000
0000
0000
0000
0000
0000
,
0000
0010
0000
0000
0000
0000
0000
0000
,
0000
0100
0000
0000
0000
0000
0000
0000
,
0000
0001
0000
0000
0000
0000
0000
0000
,
0000
1000
0000
0000
0000
0000
0000
0000
,
0000
0100
0000
0000
,
0000
0100
0000
0000
,
0000
0010
0000
0000
,
0000
0010
0000
0000
,
0000
0001
0000
0000
,
0000
0001
0000
0000
,
0000
1000
0000
0000
,
0000
1000
0000
0000
,
0010
0000
0000
0000
,
0100
0000
0000
0000
,
0010
0000
0000
0000
,
0100
0000
0000
0000
,
0001
0000
0000
0000
,
1000
0000
0000
0000
,
0001
0000
0000
0000
,
1000
0000
0000
0000
,
0010
0000
0000
0000
,
0000
0000
0010
0000
,
0000
0000
0100
0000
,
0000
0000
0000
0000
,
0100
0000
0010
0000
,
0000
0000
0000
0000
,
0100
0000
0010
0000
,
0000
0000
0000
0000
,
1000
0000
0000
0000
,
0001
0000
0000
0000
,
1000
0000
0000
0000
,
0001
0000
0000
0000
,
1000
0000
0000
0000
;
