#TITLE:2 MINUTES FIGHTERS;
#SUBTITLE:;
#ARTIST:P*Light;
#TITLETRANSLIT:;
#SUBTITLETRANSLIT:;
#ARTISTTRANSLIT:;
#CREDIT:SupremeX;
#BANNER:2 MINUTES FIGHTERS.png;
#BACKGROUND:2 MINUTES FIGHTERS-bg.png;
#LYRICSPATH:;
#CDTITLE:;
#MUSIC:2 MINUTES FIGHTERS.ogg;
#OFFSET:-0.200;
#SAMPLESTART:79.920;
#SAMPLELENGTH:12.000;
#SELECTABLE:YES;
#BPMS:0.000=203.018,205.000=101.509,221.500=203.018;
#STOPS:;
#BGCHANGES:;

//---------------dance-single - ----------------
#NOTES:
     dance-single:
     :
     Challenge:
     10:
     0.809,0.956,0.372,0.397,0.215:
0000
0000
0000
0000
,
0000
0000
0000
0000
,
0000
0000
0000
0000
,
0000
0000
0000
0000
,
0000
0000
0000
0000
1000
0000
0010
0010
,
0000
0101
0000
0001
1000
0000
0100
0100
,
0000
1010
0000
0001
0010
0100
1000
0010
,
0100
0001
1000
0001
0100
0010
1000
0100
,
0010
0001
1000
0100
2200
0000
0000
0000
,
0000
0000
3300
0000
0001
1000
0100
1000
,
0001
0100
0010
0000
1000
0000
0001
0000
1000
0000
0010
0000
0100
0000
0001
0000
,
1000
0100
1000
0000
0100
0000
0010
0000
0001
0000
0100
0000
0010
0000
1000
0000
,
0001
0000
0100
0010
1000
0000
0001
0000
1000
0000
0001
0010
0100
1000
0010
0100
,
0001
1000
0010
0100
0001
0000
1000
0010
0100
0000
0001
0000
1000
0000
0001
0000
,
1000
0110
0001
1000
0010
0100
0001
1000
,
0001
1001
0100
0010
0100
0001
1000
0010
,
0100
0000
0110
0000
0010
0000
1000
0000
0100
0000
0010
0000
0010
0000
0001
1000
,
0001
1000
0001
1000
0001
1000
0001
0000
1000
0000
0100
0000
1000
0000
0100
0000
,
0010
0100
0000
0010
0001
0010
0001
1000
,
2200
0000
3300
0001
0010
0001
1000
0010
,
0100
0100
0000
0100
0010
1000
0001
0100
,
0010
0100
0010
0100
0010
0100
0000
0000
0001
0000
0001
0000
0001
0000
1000
0000
,
0010
0110
0000
0001
1000
0100
0010
0001
,
2000
0000
3000
0000
0100
0100
1000
0100
,
0010
0010
0001
1000
0100
1000
0001
0100
,
0020
0000
2030
0000
3001
1000
0001
0101
,
0000
1010
0000
1000
0001
0100
0001
2000
,
0000
3100
0000
0001
0100
0000
0010
0110
,
0000
1001
0000
1000
0200
0000
1300
1000
,
0000
1001
0000
0100
0010
0000
0010
0110
,
0000
0000
0001
1001
0000
0000
0100
0110
,
0000
0000
0001
0101
0010
0100
1000
0100
,
0010
0001
1000
0100
0022
0000
0000
0000
,
0000
0000
0033
0000
0100
1000
0100
0010
,
0001
0001
0001
0010
0100
1000
0100
0010
,
0010
0010
0001
1000
0001
0100
0010
1000
,
0100
0100
0100
1000
0100
0010
0001
0010
,
0001
0001
0001
1000
0100
1000
0001
0100
,
0010
0010
0010
0100
1000
0100
0010
0001
,
1000
1000
1000
0000
0200
0000
0310
0010
,
0100
0100
0000
0001
0001
1000
0100
0010
,
0001
0000
1000
0000
0010
0100
0010
0000
0100
0000
0001
0000
1000
0000
0001
0000
,
1000
0100
1000
0100
0010
0001
0010
0100
,
1000
0100
0010
0001
1000
0100
1000
0100
,
0010
0001
0010
0001
1000
0100
1000
0001
,
1000
0100
1000
0001
1000
0100
0010
0001
,
0100
0100
0100
0001
1000
0001
0010
0001
,
1000
1000
1000
0010
0100
0010
1000
0001
,
1000
0010
0100
0010
1000
0001
1000
0100
,
0000
1001
0000
0000
0010
0000
0100
0000
2002
0000
0000
0000
0000
0000
0000
0000
,
0000
0000
0000
0000
0000
0000
0000
3003
,
0000
0000
0000
0000
0100
0010
0200
0000
0000
0000
0302
0000
0000
0000
1003
0000
,
0100
0010
0000
0001
0000
1000
0000
0010
0100
0001
1000
0010
0100
0220
0000
0000
,
0000
0000
0330
0000
0001
1000
0002
0000
0000
0000
0203
0000
0000
0000
0310
0000
,
1000
0010
0000
0100
0000
0001
0000
0010
0100
1000
0100
0010
0001
2000
0000
0000
,
0000
0000
3000
0000
0100
1000
0200
0000
0000
0000
0000
0000
0000
0000
0320
0000
,
0000
0000
0000
0031
0000
1000
0010
0000
,
1010
0000
0101
0000
0001
1000
0010
0100
,
0001
1000
0220
0000
0000
0000
0000
0330
,
0000
0001
0010
0200
0000
0000
0000
2300
,
0000
0000
0000
3100
0010
0001
0010
0100
,
1001
0220
0000
0000
,
0000
0000
0000
0330
2002
0000
0000
0000
,
0000
3003
1000
0100
0010
0001
1000
0010
,
0100
0001
1000
0010
0100
0010
1000
0001
,
0100
0010
1000
0100
0010
0001
1000
0001
,
0100
0010
1000
0001
0100
0010
2000
0000
,
3002
0000
0000
1003
0001
0100
0010
1000
,
0001
0100
0010
1000
0001
0100
0010
1000
,
0002
0000
0103
0010
0100
0010
1000
0001
,
0100
0001
1000
0010
0010
0100
0100
0000
,
0101
0000
0000
0010
1000
0010
0100
0001
,
1000
0001
0100
0010
1000
0001
1000
0001
,
0010
0100
1000
0010
1000
0001
0010
0001
,
1000
0100
1000
0100
0010
0001
0010
0002
,
0000
0000
0203
0000
0000
0000
1300
0000
0100
0010
0001
0000
0010
0000
1000
0000
,
0100
1000
0100
0000
1000
0000
0010
0001
0010
0100
1000
0100
0010
0001
0010
0100
,
1000
0100
0010
0001
1000
0000
0000
0200
0000
0000
0000
0300
0000
2000
0000
0000
,
0000
0000
0000
3001
0000
2002
0000
0000
0000
0000
3003
0000
0000
0000
0000
0000
,
0110
0000
0001
0001
1000
0100
0010
0001
,
1000
0010
0100
0010
1000
0001
0100
0001
,
1000
0000
0010
0000
1000
0000
0001
0000
0000
1000
0000
0000
1001
0000
0010
0000
,
0000
0110
0000
0000
1000
0000
0001
0000
0000
0110
0000
0000
1001
0000
0001
0000
,
0000
0101
0000
0000
0010
0000
1020
0000
0000
0000
0000
0000
0000
0000
0230
0000
,
0000
0000
0000
0310
0000
0001
1000
0000
,
0101
2020
0000
0000
,
0000
0000
0000
3030
0001
0000
0001
0100
,
0010
0100
0000
0001
1000
0100
1000
0000
,
1001
0000
0110
0000
1001
0000
1000
0100
,
0010
0001
1000
0100
1000
0001
0100
0000
,
0110
0000
1001
0000
0110
0001
1000
0100
,
1000
0001
1000
0100
1000
0100
0010
0001
,
0010
0001
0100
1000
0100
0010
0001
1000
,
0010
0100
0001
1000
0001
0200
0000
0320
,
0000
0000
1030
2002
0000
0000
0000
0000
,
0000
0000
0000
0000
,
0000
0000
0000
3003
0000
0000
0000
0000
;

//---------------dance-single - ----------------
#NOTES:
     dance-single:
     :
     Hard:
     9:
     0.615,0.717,0.050,0.174,0.116:
0000
0000
0000
0000
,
0000
0000
0000
0000
,
0000
0000
0000
0000
,
0000
0000
0000
0000
,
0000
0000
0000
0000
1000
0000
0010
0100
,
0000
0100
0000
0001
1000
0000
0100
1000
,
0000
1000
0000
0001
0100
0001
0100
0010
,
1000
0001
1000
0100
1000
0001
1000
0100
,
0010
0001
1000
0100
2000
0000
0000
0000
,
0000
0000
3000
0000
0001
1000
0100
1000
,
0001
0100
0001
0000
1000
0010
0100
0001
,
1000
0100
1000
0000
0001
0100
0010
1000
,
0001
0100
0010
0000
0010
0100
0001
1000
,
0100
0000
0000
0100
0000
0000
1000
0000
0010
0000
0100
0000
0001
0000
0010
0000
,
0100
1000
0100
0000
0010
0001
0010
0100
,
1000
0001
0100
0000
0010
0000
1000
0000
,
0100
0100
0000
0010
0000
0001
0001
0000
,
0000
0000
0000
0000
1000
0100
1000
0100
,
0010
0100
0000
0010
0001
0010
0001
1000
,
0200
0000
0300
0000
0010
0001
1000
0010
,
0100
0010
0000
0100
0010
0100
0001
0000
,
1000
0000
0100
0000
1000
0000
0001
1000
,
0100
1000
0000
0100
1000
0100
0010
0001
,
0020
0000
0030
0000
0100
0000
1000
0100
,
0000
0100
1000
0100
0010
0001
1000
0100
,
1000
0000
0002
0000
0103
0000
0010
0100
,
0000
0010
0000
1000
0001
0000
0001
1000
,
0000
0001
0000
0100
0010
0000
0010
0100
,
0000
0001
0000
1000
0100
0000
0100
1000
,
0000
0001
0000
0100
0010
0000
0010
0100
,
0000
0000
0001
1000
0000
0000
0100
1000
,
0000
0000
0010
0100
0000
0000
0001
0100
,
0010
1000
0010
0000
0200
0000
0000
0000
,
0000
0300
0001
0001
,
1000
0010
0100
0000
0100
0000
0001
0000
,
1000
0100
0010
0000
0010
0000
0001
1000
,
0100
1000
0001
0000
0010
0000
0100
0000
,
1000
0010
0100
0000
0100
0000
0010
0000
,
1000
0001
0100
0000
0100
0000
0010
0000
,
1000
0001
0100
0000
0010
0000
1000
0001
,
0010
0100
0000
0000
1000
0010
0100
0010
,
1000
0010
0000
0100
0001
0000
1000
0000
,
0010
0100
0010
0000
1000
0000
0001
0000
,
1000
0100
0010
0000
0001
0000
1000
0000
,
0001
0010
0100
0000
1000
0000
0001
0000
,
1000
0010
0100
0000
0100
0000
0001
0000
,
1000
0001
1000
0000
0010
0000
0100
0000
,
0001
1000
0001
0000
1000
0000
0001
0000
,
0100
0010
0100
0000
0001
0000
1000
0100
,
0000
1000
0000
0000
0010
0000
1000
0000
2002
0000
0000
0000
0000
0000
0000
0000
,
0000
0000
0000
0000
0000
0000
0000
3003
,
0000
0000
0000
0000
0100
0010
0100
0000
0000
0000
0001
0000
0000
0000
1000
0000
,
0100
1000
0000
0100
0000
0010
0000
0001
0010
0100
1000
0001
0100
0020
0000
0000
,
0000
0000
0030
0000
1000
0001
1000
0000
0000
0000
0100
0000
0000
0000
0010
0000
,
1000
0010
0000
0100
0000
0001
0000
0010
0100
1000
0100
0010
0001
2000
0000
0000
,
0000
0000
3000
0000
0100
1000
0100
0000
0000
0000
0000
0000
0000
0000
0010
0000
,
0000
0000
0000
0001
0000
1000
0010
0000
,
0010
0000
0100
0000
0001
1000
0010
0100
,
0001
1000
0200
0000
0000
0000
0000
0300
,
0000
0010
0001
1000
0000
0000
0000
0001
,
0000
0000
0000
1000
0000
0010
0100
0000
,
0001
0220
0000
0000
,
0000
0000
0000
0330
0000
0000
0000
0000
,
0000
0000
1000
0100
0010
0001
1000
0100
,
1000
0001
1000
0010
0100
0010
1000
0001
,
0100
0010
1000
0100
0010
0001
1000
0010
,
0100
0010
1000
0001
1000
0010
0100
0000
,
0001
0000
0000
1000
0001
0010
0100
1000
,
0001
0100
0010
1000
0001
0100
0010
1000
,
0010
0000
0100
0001
0100
0010
1000
0001
,
0100
0001
0000
1000
0000
0100
1000
0000
,
0101
0000
0000
0010
1000
0010
1000
0001
,
0100
0001
0100
0010
1000
0010
1000
0001
,
0010
0100
1000
0010
0100
0001
0010
0001
,
1000
0100
1000
0100
0010
0001
0010
0001
,
0000
0110
0000
1000
0100
0010
0001
1000
,
0100
1000
0100
0010
0001
1000
0010
0100
,
0001
0000
1000
0000
0010
0000
0000
0200
0000
0000
0000
0300
0000
0002
0000
0000
,
0000
0000
0000
1003
0000
1000
0000
0000
0000
0000
0000
0000
0000
0110
0000
0000
,
0000
0000
0000
0001
0010
0100
1000
0010
,
1000
0001
0100
0001
1000
0010
0100
0001
,
0100
0000
0010
0000
0100
0000
0001
0000
0000
1000
0000
0000
0001
0000
0100
0000
,
0000
0010
0000
0000
1000
0000
0100
0000
0000
0100
0000
0000
0010
0000
0001
0000
,
0000
0001
0000
0000
1000
0000
2000
0000
0000
0000
0000
0000
0000
0000
3200
0000
,
0000
0000
0000
0310
0000
0001
1000
0000
,
1000
0020
0000
0000
,
0000
0000
0000
0030
1000
0000
0001
1000
,
0010
0100
0000
0001
1000
0100
1000
0000
,
0001
0000
0100
0000
0001
0000
1000
0100
,
0010
0001
1000
0100
1000
0001
0100
0000
,
0010
0000
1000
0000
0010
1000
0100
0010
,
0001
1000
0010
1000
0001
0100
0010
1000
,
0001
0100
0010
1000
0001
0010
0100
1000
,
0010
0100
0001
1000
0100
0020
0000
0032
,
0000
0000
1003
2200
0000
0000
0000
0000
,
0000
0000
0000
0000
,
0000
0000
0000
3300
0000
0000
0000
0000
;

//---------------dance-single - ----------------
#NOTES:
     dance-single:
     :
     Medium:
     8:
     0.501,0.597,0.008,0.132,0.066:
0000
0000
0000
0000
,
0000
0000
0000
0000
,
0000
0000
0000
0000
,
0000
0000
0000
0000
,
0000
0000
0000
0000
1000
0000
0010
0100
,
0000
0010
0000
1000
0100
0000
0010
0001
,
0000
0100
0000
0000
0010
0000
0010
0000
,
1000
0100
1000
0001
,
0100
0001
0020
0000
,
0000
0030
0100
1000
,
0010
0100
0010
0000
1000
0000
0010
0000
,
1000
0100
1000
0000
0100
0000
0010
0000
,
0001
0010
0001
0000
0100
0000
1000
0000
,
0010
0000
0000
0010
0000
0000
0100
0000
0001
0000
0000
0000
0010
0000
0000
0000
,
0100
1000
0100
0000
0010
0000
0001
0000
,
0100
0010
0100
0000
0001
0000
1000
0000
,
0010
0010
0000
0100
0000
0001
0001
0000
,
0000
0000
0010
0100
,
1000
0000
0000
0010
1000
0100
0001
0100
,
2000
3000
0010
0010
,
0100
0001
0000
0000
0100
0010
0100
0000
,
0001
1000
0010
0100
,
0010
0100
0000
0000
0001
0000
0100
0010
,
0200
0000
0300
0000
0010
0000
1000
0100
,
0000
0010
0001
0000
0100
0000
0010
0000
,
0100
0000
0002
0000
1003
0000
0100
0010
,
0000
0100
0000
0001
0010
0000
0100
1000
,
0000
0010
0000
0100
0010
0000
1000
0100
,
0000
1000
0000
0010
0100
0000
0001
0010
,
0000
0001
0000
0100
0010
0000
1000
0100
,
0000
0000
0010
0001
0000
0000
0100
0010
,
0000
0000
1000
0100
0000
0000
0001
0000
,
0100
0001
0020
0000
,
0000
0030
0100
1000
,
0010
0001
0010
0000
0100
0000
1000
0000
,
0010
0100
0010
0000
1000
0000
0001
0000
,
0100
0001
0100
0000
0010
0000
0100
0000
,
0010
1000
0010
0000
0100
0000
1000
0000
,
0100
0010
0001
0000
0100
0000
0010
0000
,
1000
0001
1000
0000
0100
0000
0010
0100
,
0010
1000
0000
0000
0100
0000
0001
0000
,
0100
0000
0010
1000
,
0010
0001
0010
0000
1000
0000
0100
0000
,
0010
0001
0010
0000
0100
0000
1000
0000
,
0010
0100
0010
0000
1000
0000
0001
0000
,
0100
1000
0100
0000
0001
0000
0100
0000
,
0010
0100
0010
0000
0100
0000
0001
0000
,
1000
0010
1000
0000
0100
0000
1000
0000
,
0010
0100
0010
0000
1000
0000
0010
0100
,
0000
0010
0000
0000
1000
0000
0100
0000
2000
0000
0000
0000
0000
0000
0000
0000
,
0000
0000
0000
0000
0000
0000
0000
3000
,
0000
0000
0000
0000
0010
0100
0010
0000
0000
0000
0100
0000
0000
0000
0001
0000
,
0010
0000
0001
0000
0100
0000
1000
0000
0010
0000
1000
0000
0100
0020
0000
0000
,
0000
0000
0030
0000
1000
0010
1000
0000
0000
0000
0001
0000
0000
0000
0001
0000
,
1000
0000
0100
0000
0001
0000
0100
0000
1000
0000
0010
0000
0100
0020
0000
0000
,
0000
0000
0030
0000
0100
0001
0100
0000
0000
0000
0000
0000
0000
0000
1000
0000
,
0000
0000
0000
0010
0000
0100
0010
0000
,
1000
0000
0100
0000
0010
0001
0010
0100
,
1000
0100
0002
0000
0000
0000
0000
0003
,
0000
0100
0010
0100
0000
0000
0000
0010
,
0000
0000
0000
1000
0000
0010
0100
0000
,
0010
2000
0000
0000
,
0000
0000
0000
3000
0000
0000
0000
0000
,
0000
0000
0000
0001
0000
0010
0000
0100
,
0000
1000
0100
0001
0100
1000
0001
0100
,
0000
0010
0000
0100
0000
0001
0000
1000
,
0000
0100
0000
0010
0000
0001
0000
0000
,
0100
0000
0000
0010
1000
0100
0010
0001
,
0000
0100
0000
0010
0000
0100
0000
0001
,
0000
0010
0000
0001
0000
1000
0000
0010
,
0100
0010
0000
1000
0000
0001
0010
0000
,
0001
0000
0000
0100
0000
0010
0000
0100
,
0000
0010
0000
1000
0100
1000
0001
0100
,
0001
1000
0000
0100
0000
0010
0000
0001
,
0000
1000
0000
0100
0000
1000
0000
0010
,
0000
0110
0000
0001
0100
0001
0000
0100
,
0010
0100
0000
0001
1000
0001
0000
0100
,
0010
0000
0100
0000
0001
0000
0000
0002
0000
0000
0000
0003
0000
2000
0000
0000
,
0000
0000
3000
0010
0000
0010
0000
0000
0000
0000
0000
0000
0000
0100
0000
0000
,
0000
0000
0000
0001
0000
1000
0000
0001
,
0000
0010
0000
0100
0000
1000
0100
1000
,
0010
0000
0100
0000
0010
0000
1000
0000
0000
0001
0000
0000
1000
0000
0000
0000
,
0000
0010
0000
0000
0010
0000
0000
0000
0000
0100
0000
0000
0100
0000
0000
0000
,
0000
0001
0000
0000
0001
0000
0200
0000
0000
0000
0000
0000
0000
0000
0320
0000
,
0000
0000
0000
1030
0000
1000
0001
0000
,
0001
0200
0000
0000
,
0000
0000
0000
0300
0010
0000
1000
0100
,
1000
0010
0000
0010
0100
0001
0100
0000
,
0010
0000
1000
0000
0010
0000
1000
0100
,
1000
0100
1000
0010
0100
0010
0100
0000
,
0001
0000
0100
0000
0001
1000
0100
0001
,
0100
1000
0010
0100
0001
0010
0001
1000
,
0100
1000
0010
0100
0010
1000
0001
1000
,
0010
0100
0010
1000
0100
0010
0000
0001
,
0000
0000
0100
0200
0000
0000
0000
0000
,
0000
0000
0000
0000
,
0000
0000
0000
0300
0000
0000
0000
0000
;

//---------------dance-single - ----------------
#NOTES:
     dance-single:
     :
     Easy:
     5:
     0.399,0.478,0.008,0.140,0.045:
0000
0000
0000
0000
,
0000
0000
0000
0000
,
0000
0000
0000
0000
,
0000
0000
0000
0000
,
0000
0000
0000
0000
0010
0000
1000
0100
,
0000
1000
0000
0010
0100
0000
0010
1000
,
0000
1000
0000
0000
0001
0000
0001
0000
,
1000
0100
1000
0010
,
0100
0001
2000
0000
,
0000
3000
0100
0010
,
0001
0001
1000
0010
,
0100
0100
0001
1000
,
0010
0010
0100
0001
,
0100
0000
0000
0100
0000
0000
0100
0000
0010
0000
0000
0000
1000
0000
0000
0000
,
0001
0001
0010
0100
,
1000
1000
0010
0100
,
0001
0001
0000
1000
0000
0010
0010
0000
,
0000
0000
0100
0001
,
0100
0000
0010
1000
,
0020
0030
0100
0100
,
0001
0000
0010
0010
,
0100
1000
0010
0100
,
0001
0100
0000
0000
0010
0000
1000
0000
,
2000
0000
3000
0000
0010
0000
0100
0010
,
0000
1000
0100
0000
1000
0000
0100
0000
,
0010
0002
1003
0100
,
0010
0100
0001
0010
,
0001
1000
0010
1000
,
0010
0100
0010
0100
,
0001
0100
0010
1000
,
0100
0010
0001
0100
,
0010
1000
0100
0010
,
0001
0100
0002
0000
,
0000
0003
0010
0100
,
1000
1000
0010
0100
,
0010
0010
1000
0100
,
0001
0001
0010
0100
,
1000
1000
0100
0010
,
0100
0001
0010
0001
,
1000
1000
0100
0010
,
0010
0000
0001
0100
,
0001
0000
0010
0100
,
1000
1000
0100
0010
,
0001
0001
0100
1000
,
0010
0010
0100
0001
,
1000
1000
0001
0100
,
0010
0010
0100
0001
,
1000
1000
0001
0100
,
0010
0000
1000
0000
0010
0000
0100
0002
,
0000
0000
0003
0100
0020
0000
0000
0000
,
0000
0000
0000
0000
0000
0000
0000
0030
,
0000
0000
0000
0000
0000
1000
0000
0000
0000
0000
0001
0000
0000
0000
0100
0000
,
0000
0100
0000
0000
0001
0000
0000
0000
1000
0000
0000
0000
0010
0000
0200
0000
,
0000
0300
0000
0001
0000
1000
0000
0010
,
0000
0010
0000
0000
0100
0000
0000
0000
0100
0000
0000
0000
0001
0000
0002
0000
,
0000
0003
0100
0010
0000
0000
0000
1000
,
0000
0010
0100
0001
,
0010
0000
1000
0000
0000
0010
0000
0100
,
0000
0100
0002
0000
0000
0000
0000
0003
,
0000
1000
0010
1000
0000
0000
0000
0100
,
0000
0000
0000
0001
0000
0100
0010
0000
,
0100
0020
0000
0000
,
0000
0000
0000
0030
0000
0000
0000
0000
,
0000
0000
0000
1000
0000
0100
0000
1000
,
0000
0010
0000
0100
0000
0010
0000
1000
,
0000
0001
0000
1000
0000
0010
0000
0100
,
0000
0010
0000
1000
0000
0001
0000
0000
,
0000
0000
0000
0100
0000
0010
0000
0100
,
0000
0001
0000
0010
0000
0001
0000
1000
,
0000
0010
0000
1000
0000
0001
0000
0100
,
0000
0001
0000
1000
0000
0010
0000
0000
,
0000
0000
0000
0100
0000
0010
0000
0100
,
0000
0001
0000
1000
0000
0001
0000
0100
,
0000
1000
0000
0100
0000
0001
0000
1000
,
0000
0010
0000
0001
0000
0010
0000
1000
,
0000
1100
0000
0010
0000
0010
0000
0001
,
0000
0001
0000
0010
0000
0010
0000
0100
,
0000
0000
0100
0000
0000
0000
0000
2000
0000
0000
0000
3000
0000
0020
0000
0000
,
0000
0000
0030
0100
0000
0100
0000
0000
0000
0000
0000
0000
0000
0001
0000
0000
,
0000
0000
0000
0100
0000
0010
0000
1000
,
0000
0001
0000
0100
0000
0001
0000
1000
,
0000
0000
0100
0000
0000
0000
1000
0000
1000
0000
0000
0000
0000
0000
0000
0010
,
0000
0000
0000
0000
0000
0000
0000
0100
0000
0000
0000
0000
0000
0000
0001
0000
,
0000
0000
0000
0200
0000
0000
0000
0320
,
0000
0000
0000
1030
0000
0010
0100
0000
,
0001
2000
0000
0000
,
0000
0000
0000
3000
0010
0000
0100
0000
,
0100
0000
0001
0010
,
1000
0000
0010
0000
0001
0000
0100
0010
,
0100
0000
0010
1000
0100
1000
0010
0000
,
0100
0001
1000
0010
,
0100
0010
1000
0001
,
0100
0100
0001
0010
,
0100
0000
1000
0000
0010
0100
0000
0001
,
0000
0000
0100
0020
0000
0000
0000
0000
,
0000
0000
0000
0000
,
0000
0000
0000
0030
0000
0000
0000
0000
;

//---------------dance-single - Copied from ----------------
#NOTES:
     dance-single:
     Copied from:
     Beginner:
     2:
     0.136,0.199,0.008,0.033,0.000: // measure 1
0000
0000
0000
0000
,  // measure 2
0000
0000
0000
0000
,  // measure 3
0000
0000
0000
0000
,  // measure 4
0000
0000
0000
0000
,  // measure 5
0000
0000
1000
0000
,  // measure 6
0000
0000
1000
0000
,  // measure 7
0000
0000
0010
0000
,  // measure 8
0000
0000
0010
0000
,  // measure 9
0000
0000
0200
0000
,  // measure 10
0000
0000
0000
0300
0001
0000
0000
0000
,  // measure 11
0000
0000
1000
0000
,  // measure 12
0000
0000
0001
0000
,  // measure 13
0000
0000
1000
0000
,  // measure 14
0000
0000
0010
0000
,  // measure 15
0000
0000
0100
0000
,  // measure 16
0000
0000
0001
0000
,  // measure 17
0000
0000
0100
0000
,  // measure 18
0000
0000
0010
0000
,  // measure 19
0000
0000
1000
0000
,  // measure 20
0000
0000
0010
0000
,  // measure 21
0000
0000
1000
0000
,  // measure 22
0000
0000
0100
0000
,  // measure 23
0000
0000
0010
0000
,  // measure 24
0000
0000
0001
0000
,  // measure 25
0000
0000
1000
0000
,  // measure 26
0000
0000
0010
0000
,  // measure 27
0000
0000
0010
0000
,  // measure 28
0000
0000
0100
0000
,  // measure 29
0000
0000
0100
0000
,  // measure 30
0000
0000
0001
0000
,  // measure 31
0000
0000
0001
0000
,  // measure 32
0000
0000
1000
0000
,  // measure 33
1000
0000
1000
0000
,  // measure 34
0000
0000
0010
0000
,  // measure 35
0100
0000
0010
0000
,  // measure 36
0100
0000
0001
0000
,  // measure 37
1000
0000
0001
0000
,  // measure 38
1000
0000
0010
0000
,  // measure 39
0100
0000
0010
0000
,  // measure 40
0100
0000
0001
0000
,  // measure 41
1000
0000
0001
0000
,  // measure 42
1000
0000
0010
0000
,  // measure 43
1000
0000
0010
0000
,  // measure 44
1000
0000
0001
0000
,  // measure 45
0100
0000
0001
0000
,  // measure 46
0100
0000
0010
0000
,  // measure 47
1000
0000
0001
0000
,  // measure 48
0100
0000
0010
0000
,  // measure 49
1000
0000
0001
0000
,  // measure 50
1000
0000
0000
0000
,  // measure 51
0000
0000
0000
0000
,  // measure 52
0000
0000
0000
1000
0000
0000
0000
0010
,  // measure 53
0000
0000
0000
0000
,  // measure 54
0000
0000
0000
0100
0000
0000
0000
0001
,  // measure 55
0000
0000
0000
0000
,  // measure 56
0000
0000
0000
1000
0000
0000
0000
0000
,  // measure 57
0000
0000
0000
0001
0000
0000
0000
0000
,  // measure 58
0000
0000
0000
0000
,  // measure 59
0000
1000
0000
0000
,  // measure 60
0000
0000
0000
0001
0000
0000
0000
0000
,  // measure 61
0000
0000
0000
1000
0000
0000
0000
0000
,  // measure 62
0000
0020
0000
0000
,  // measure 63
0000
0000
0030
0000
,  // measure 64
0000
0000
0000
0100
0000
0000
0000
0000
,  // measure 65
0000
0000
0000
0100
0000
0000
0000
0000
,  // measure 66
0000
0000
0000
0001
0000
0000
0000
0000
,  // measure 67
0000
0000
0000
0001
0000
0000
0000
0000
,  // measure 68
0000
0000
0000
1000
0000
0000
0000
0000
,  // measure 69
0000
0000
0000
1000
0000
0000
0000
0000
,  // measure 70
0000
0000
0000
0010
0000
0000
0000
0000
,  // measure 71
0000
0000
0000
0010
0000
0000
0000
0000
,  // measure 72
0000
0000
0000
0100
0000
0000
0000
0001
,  // measure 73
0000
0000
0000
0100
0000
0000
0000
0001
,  // measure 74
0000
0000
0000
1000
0000
0000
0000
0010
,  // measure 75
0000
0000
0000
1000
0000
0000
0000
0010
,  // measure 76
0000
0000
0000
0100
0000
0000
0000
0000
,  // measure 77
0000
0000
0000
0100
0000
0000
0000
0000
,  // measure 78
0000
0000
0000
0100
0000
0000
0000
0000
,  // measure 79
0000
0000
0000
0100
0000
0000
0000
0000
,  // measure 80
0000
0000
0000
0001
0000
0000
0000
1000
,  // measure 81
0000
0000
0000
0001
0000
0000
0000
1000
,  // measure 82
0000
0000
0000
0010
0000
0000
0000
0000
,  // measure 83
0000
0000
0000
0110
0000
0000
0000
0000
,  // measure 84
0000
0000
0000
0100
0000
0000
0000
0000
,  // measure 85
0000
0000
0000
0001
0000
0000
0000
0000
,  // measure 86
0000
2000
0000
0000
,  // measure 87
0000
0000
0000
3000
0000
0000
0000
0000
,  // measure 88
0000
0000
0000
0000
,  // measure 89
0000
0000
0000
0010
0000
0000
0000
0000
,  // measure 90
0000
0000
0000
0000
,  // measure 91
0000
0000
0000
0100
0000
0000
0000
0000
,  // measure 92
0000
0000
0001
0000
,  // measure 93
1000
0000
0010
0000
,  // measure 94
0100
0000
0000
0001
0000
0000
0000
1000
,  // measure 95
0000
0000
0000
0020
0000
0000
0000
0000
,  // measure 96
0000
0000
0000
0000
,  // measure 97
0000
0000
0000
0030
0000
0000
0000
0000
;
