#TITLE:14th Clock;
#SUBTITLE:;
#ARTIST:INNOCENT NOIZE;
#TITLETRANSLIT:;
#SUBTITLETRANSLIT:;
#ARTISTTRANSLIT:;
#CREDIT:SupremeX;
#BANNER:14th Clock.png;
#BACKGROUND:14th Clock-bg.png;
#LYRICSPATH:;
#CDTITLE:CDTitle.png;
#MUSIC:14th Clock.ogg;
#OFFSET:-1.894;
#SAMPLESTART:58.730;
#SAMPLELENGTH:12.000;
#SELECTABLE:YES;
#BPMS:0.000=135.000;
#STOPS:;
#BGCHANGES:;

//---------------dance-single - ----------------
#NOTES:
     dance-single:
     :
     Hard:
     9:
     0.570,0.639,0.016,0.033,0.254: // measure 1
0000
0000
0000
0000
,  // measure 2
0000
0000
0000
0000
,  // measure 3
0000
0000
0000
0000
,  // measure 4
0000
0000
0000
0000
,  // measure 5
1000
0001
0010
0100
1000
0010
0100
0001
,  // measure 6
1000
0001
0100
0010
1000
0100
0010
0001
,  // measure 7
1000
0000
0000
0010
1000
0000
0001
0000
0010
0000
0100
0000
1000
0000
0010
0000
,  // measure 8
0100
0001
0100
0001
0100
0001
0100
0000
0010
0000
1000
0000
0001
0000
0000
0000
,  // measure 9
1000
0100
0010
0001
1000
0010
1000
0001
,  // measure 10
0100
0010
1000
0001
1000
0010
1000
0000
,  // measure 11
0001
0010
0100
1000
0001
0100
0010
1000
,  // measure 12
0001
0100
0010
1000
0001
0010
0100
0000
,  // measure 13
1000
0010
0100
0001
1000
0100
0010
0001
,  // measure 14
0100
0010
0100
0001
1000
0001
0100
0010
,  // measure 15
1000
0000
0001
0000
0010
0000
0100
0000
1000
0100
1000
0100
1000
0100
1000
0000
,  // measure 16
0001
0100
0001
0100
0001
0000
0010
0000
0100
0000
1000
0000
0010
0100
0010
0100
,  // measure 17
0000
0000
0001
1000
0001
0000
1000
0000
0100
0000
0010
0000
0001
0000
0000
0000
,  // measure 18
0100
0000
0010
0000
1000
0010
1000
0000
0010
0000
0100
0000
0001
0000
0000
0000
,  // measure 19
1000
0000
0001
0000
0001
1000
0001
0000
1000
0000
0100
0000
0010
0000
0000
0000
,  // measure 20
0002
0000
0203
0000
,  // measure 21
0310
0000
1000
0010
1000
0000
0010
0000
0100
0000
0001
0000
1000
0000
0000
0000
,  // measure 22
0001
0000
0100
0000
0010
0100
0010
0000
0100
0000
0001
0000
1000
0000
0000
0000
,  // measure 23
0010
0000
0100
0000
0001
0100
0001
0000
0100
0000
0010
0000
1000
0000
0000
0000
,  // measure 24
0001
0000
0000
0001
0000
0000
1000
0000
0010
0000
1000
0100
1000
0100
1000
0000
,  // measure 25
0100
0010
0001
1000
0010
1000
0001
0100
,  // measure 26
0010
1000
0001
0010
0100
1000
0010
0000
,  // measure 27
0100
0000
0010
0000
0100
0000
0001
0000
1000
0001
1000
0000
0001
0000
0000
0000
,  // measure 28
1000
0100
0010
0001
1000
0010
0100
0001
,  // measure 29
1000
0100
1000
0010
1000
0010
0100
0000
,  // measure 30
0001
0010
0100
1000
0001
0100
0010
0000
,  // measure 31
1000
0100
1000
0100
0010
0001
0010
0000
,  // measure 32
0100
1000
0010
0100
0001
1000
0100
0010
,  // measure 33
0001
0000
0000
0001
0000
0000
0100
0000
0010
0000
0000
0010
0000
0000
1000
0000
,  // measure 34
0100
0000
0000
0100
0000
0000
0010
0000
0001
0000
0000
0001
0000
0000
1000
0000
,  // measure 35
0010
0000
0000
0010
0000
0000
0100
0000
0001
0000
0000
0001
0000
0000
0010
0000
,  // measure 36
0100
0000
0000
0100
0000
0000
1000
0100
1000
0000
0100
0000
1000
0000
0001
0000
,  // measure 37
1000
0000
0000
1000
0000
0000
0010
0000
0100
0000
0000
0100
0000
0000
0001
0000
,  // measure 38
1000
0000
0000
1000
0000
0000
0100
0000
0010
0000
0000
0010
0000
0000
0001
0000
,  // measure 39
0100
0000
0000
0100
0000
0000
0010
0000
1000
0000
0000
1000
0000
0000
0001
0000
,  // measure 40
0100
0001
1000
0100
0010
0001
1000
0100
,  // measure 41
1000
0010
0100
0010
1000
0010
0100
0001
,  // measure 42
0100
0010
1000
0001
1000
0010
0100
0001
,  // measure 43
0100
0010
1000
0010
0100
0001
1000
0010
,  // measure 44
1000
0000
0001
0000
1000
0001
1000
0001
1000
0000
0010
0000
0100
0000
0001
0000
,  // measure 45
1000
0000
0000
0001
0000
0000
0100
0000
0010
0000
0000
0100
0000
0000
0001
0000
,  // measure 46
1000
0000
0000
0001
0000
0000
0100
0000
0010
0000
0000
1000
0000
0000
0001
0000
,  // measure 47
0100
0000
0000
0001
0000
0000
1000
0000
0010
0000
0000
0100
0000
0000
0001
0000
,  // measure 48
0010
0100
1000
0010
0100
0001
1000
0001
,  // measure 49
1001
0000
1000
0000
0001
0000
0010
0000
0100
0000
1000
0000
0001
0000
0100
0001
,  // measure 50
0100
0000
0001
0000
1000
0010
1000
0010
1000
0000
0001
0000
0010
0000
0100
0000
,  // measure 51
1000
0000
0001
0000
0100
0000
0010
0100
0010
0000
0100
0000
0001
0000
1000
0000
,  // measure 52
0010
0100
0001
1000
0010
0100
0010
1000
,  // measure 53
0001
0000
1000
0000
0100
0000
0010
0000
0001
0000
1000
0000
0010
0000
0100
0010
,  // measure 54
0100
0010
1000
0001
0010
0100
1000
0010
,  // measure 55
0100
0000
0001
0000
1000
0000
0001
0000
0100
0010
0100
0010
0100
0010
0100
0010
,  // measure 56
1000
0001
1000
0001
1000
0001
1000
0000
0001
0000
0100
0000
0010
0000
1000
0000
,  // measure 57
0001
0100
0010
1000
0100
0010
0001
1000
,  // measure 58
0010
1000
0100
0010
0001
0100
0010
1000
,  // measure 59
0001
0000
0100
0000
0010
0000
1000
0000
0001
1000
0001
0000
1000
0000
0010
0000
,  // measure 60
0100
0001
0010
0100
1000
0010
0100
0001
,  // measure 61
1000
0001
0010
0100
1000
0010
0100
0001
,  // measure 62
1000
0001
1000
0010
0100
0001
1000
0100
,  // measure 63
0010
0000
0001
0000
0100
0000
0010
0000
1000
0010
1000
0010
1000
0010
1000
0000
,  // measure 64
0001
0100
0001
0100
0001
0100
0001
0000
1000
0000
0010
0000
0100
0000
0001
0000
,  // measure 65
2002
0000
0000
0000
,  // measure 66
3003
0000
0000
0000
;

//---------------dance-single - ----------------
#NOTES:
     dance-single:
     :
     Medium:
     8:
     0.397,0.453,0.008,0.082,0.000:
0000
0000
0000
0000
,
0000
0000
0000
0000
,
0000
0000
0000
0000
,
0000
0000
0000
0000
,
0001
0000
1000
0010
1000
0000
0001
0100
,
0001
0000
1000
0010
0100
0000
0100
0001
,
1000
0000
0010
0100
0010
0000
1000
0001
,
1000
0000
0010
0100
0001
0000
1000
0000
,
0001
0000
0100
0000
0010
0100
0010
0000
,
0100
0000
0001
0000
1000
0010
0100
0000
,
0100
0000
0001
0000
0010
1000
0001
0000
,
0001
0000
0100
0000
0010
1000
0010
0000
,
0100
0000
0001
0000
1000
0001
1000
0000
,
0001
0000
0100
0000
0001
0100
0010
0000
,
0010
0000
1000
0000
0001
0010
0100
0000
,
1000
0000
0010
0000
0100
0001
0100
0000
,
0010
0000
1000
0010
1000
0001
0100
0000
,
0100
0000
0010
1000
0001
0100
0010
0000
,
0010
0000
1000
0010
0100
0001
0100
0000
,
0001
1000
0010
0100
,
0001
0000
1000
0010
0100
0001
1000
0000
,
1000
0000
0010
0100
0001
0100
0010
0000
,
0010
0000
1000
0100
0010
0001
0100
0000
,
0100
0010
1000
0010
,
0100
0001
0100
0000
0010
1000
0010
0000
,
1000
0001
0100
0000
0100
0001
1000
0000
,
0010
0100
0001
0000
1000
0010
1000
0000
,
0001
1000
0001
0000
0100
0001
0010
0000
,
0010
0100
1000
0000
0010
0100
0010
0000
,
1000
0001
1000
0000
0100
0010
0001
0000
,
0100
0010
1000
0000
1000
0001
0100
0000
,
0100
0000
0010
0000
1000
0001
1000
0000
,
0020
0000
0230
0000
,
0302
0000
2003
0000
,
3020
0000
0230
0000
,
0302
0000
2003
0000
,
3010
0100
0001
1000
,
0010
1000
0001
0100
,
0010
1000
0001
0100
,
0001
0001
1000
1000
,
0010
0100
0010
0000
1000
0100
0010
0000
,
0001
0010
0100
0000
1000
0010
0100
0000
,
0001
0100
0001
0000
1000
0100
0010
0000
,
0001
0000
0010
0000
0100
1000
0100
0000
,
0010
0001
0010
0100
1000
0010
0100
0010
,
0100
0001
1000
0001
1000
0010
0100
0001
,
1000
0010
0100
0001
1000
0010
0100
0010
,
1000
0000
0001
0000
0100
0010
1000
0001
,
1000
0000
0010
0100
0001
0000
1000
0001
,
1000
0010
0100
0001
1000
0000
1000
0000
,
0010
0000
0100
0001
0100
0000
0010
1000
,
0001
0000
0001
1000
0010
0100
0001
1000
,
0001
0000
0010
0100
1000
0000
0010
0100
,
0001
0000
0100
0001
0100
0000
0010
0000
,
0010
0000
1000
0100
0010
0000
0001
0010
,
0100
1000
0010
0100
0010
0000
1000
0001
,
1000
0000
0010
0000
0100
0001
0100
0000
,
0010
1000
0010
0000
1000
0100
0010
0000
,
0001
0010
0100
0000
1000
0010
0100
0000
,
0100
0001
0100
0000
0010
1000
0010
0000
,
1000
0100
0010
0000
0001
0100
0010
0000
,
0010
1000
0100
0000
0010
0001
0010
0000
,
0100
1000
0100
0000
0010
0001
0100
0000
,
0100
0010
1000
0000
0001
1000
0001
0000
,
2002
0000
0000
0000
,
3003
0000
0000
0000
;

//---------------dance-single - ----------------
#NOTES:
     dance-single:
     :
     Easy:
     4:
     0.285,0.266,0.008,0.156,0.000:
0000
0000
0000
0000
,
0000
0000
0000
0000
,
0000
0000
0000
0000
,
0000
0000
0000
0000
,
1000
0010
0100
0001
,
1000
0010
0100
0001
,
1000
0001
0100
0010
,
1000
0001
0100
0010
,
1000
1000
1000
1000
,
0001
0100
0010
0100
,
0001
0001
0001
0001
,
1000
0010
0100
0001
,
1000
0001
0100
0010
,
1000
0001
0001
1000
,
0010
0100
0001
0010
,
0100
0000
1000
0000
0010
1000
0010
0000
,
0100
0001
0100
0010
,
1000
0001
1000
0010
,
0100
0001
1000
0010
,
2000
0000
3002
0000
,
1003
0000
0010
0100
0000
0001
1000
0000
,
0010
0000
1000
0001
0000
0000
0100
0000
,
0001
0000
1000
0010
0000
0000
1000
0000
,
0010
0100
0001
1000
,
0010
0100
0010
0000
1000
0000
1000
0000
,
0001
0001
0100
0010
,
1000
0000
0001
0000
1000
0001
1000
0000
,
0010
0100
0001
0001
,
1000
0010
0100
0001
,
1000
1000
0010
0010
,
0100
0001
1000
0001
,
0100
0010
1000
1000
,
0002
0000
0000
0000
0203
0000
0000
0300
,
0020
0000
2030
0000
,
3020
0000
0230
0000
,
0302
0000
2003
0000
,
3010
0010
0100
0001
,
1000
0010
0100
0100
,
0001
1000
0010
0100
,
0001
0001
1000
1000
,
0010
0010
0010
0010
,
0100
0100
0100
0100
,
0001
1000
0010
0100
,
0001
1000
1000
0010
,
0100
0100
0001
0001
,
1000
1000
0010
0010
,
0100
0001
0010
0100
,
1000
0010
1000
0001
,
2000
0000
0000
0000
0000
0000
0000
3000
,
0020
0000
0000
0000
0230
0000
0000
0300
,
0001
0001
1000
1000
,
0010
0100
0001
1000
,
2000
0000
0000
3000
,
0002
0000
0000
0003
,
0200
0000
0320
0000
,
1030
0100
0010
0001
,
0100
0010
1000
0001
,
1000
0010
0100
0001
,
1000
0000
0001
0000
1000
0100
1000
0000
,
0001
0010
0100
1000
,
0001
0100
0100
0010
,
1000
0010
1000
0001
,
0100
0010
1000
1000
,
0001
0100
0010
1000
,
0202
0000
0000
0000
,
0303
0000
0000
0000
;

//---------------dance-single - Copied from----------------
#NOTES:
     dance-single:
     Copied from:
     Beginner:
     1:
     0.073,0.080,0.000,0.008,0.000:
0000
0000
0000
0000
,
0000
0000
0000
0000
,
0000
0000
0000
0000
,
0000
0000
0000
0000
,
0100
0000
0000
0000
,
0100
0000
0000
0000
,
0010
0000
0000
0000
,
0010
0000
0000
0000
,
1000
0000
0000
0000
,
1000
0000
0000
0000
,
0001
0000
0000
0000
,
0001
0000
0000
0000
,
0100
0000
0000
0000
,
0100
0000
0000
0000
,
0010
0000
0000
0000
,
0010
0000
0000
0000
,
1000
0000
0000
0000
,
1000
0000
0000
0000
,
0001
0000
0000
0000
,
0001
0000
0000
0000
,
0100
0000
0000
0000
,
0100
0000
0000
0000
,
0010
0000
0000
0000
,
0010
0000
0000
0000
,
1000
0000
0000
0000
,
1000
0000
0000
0000
,
0001
0000
0000
0000
,
0001
0000
0000
0000
,
0100
0000
0000
0000
,
0100
0000
0000
0000
,
0010
0000
0000
0000
,
0010
0000
0000
0000
,
1000
0000
0000
0000
,
0001
0000
0000
0000
,
0100
0000
0000
0000
,
0010
0000
0000
0000
,
1000
0000
0000
0000
,
0001
0000
0000
0000
,
0100
0000
0000
0000
,
0010
0000
0000
0000
,
1000
0000
0000
0000
,
0100
0000
0000
0000
,
0010
0000
0000
0000
,
0001
0000
0000
0000
,
0100
0000
0000
0000
,
0010
0000
0000
0000
,
1000
0000
0000
0000
,
0001
0000
0000
0000
,
0100
0000
0000
0000
,
0100
0000
0000
0000
,
0010
0000
0000
0000
,
0010
0000
0000
0000
,
1000
0000
0000
0000
,
1000
0000
0000
0000
,
0001
0000
0000
0000
,
0001
0000
0000
0000
,
0100
0000
0000
0000
,
0010
0000
0000
0000
,
1000
0000
0000
0000
,
0001
0000
0000
0000
,
0100
0000
0000
0000
,
0010
0000
0000
0000
,
1000
0000
0000
0000
,
0001
0000
0000
0000
,
0200
0000
0000
0000
,
0300
0000
0000
0000
;
