#TITLE:j219;
#SUBTITLE:;
#ARTIST:Cranky;
#TITLETRANSLIT:;
#SUBTITLETRANSLIT:;
#ARTISTTRANSLIT:;
#CREDIT:SupremeX;
#BANNER:j219-bn.png;
#BACKGROUND:j219-bg.png;
#LYRICSPATH:;
#CDTITLE:;
#MUSIC:j219.ogg;
#OFFSET:-1.117;
#SAMPLESTART:20.673;
#SAMPLELENGTH:12.000;
#SELECTABLE:YES;
#BPMS:0.000=147.000;
#STOPS:;
#BGCHANGES:;

//---------------dance-single - ----------------
#NOTES:
     dance-single:
     :
     Hard:
     8:
     0.397,0.436,0.112,0.153,0.071: // measure 1
0000
0000
0000
0000
,  // measure 2
0000
0000
0000
0000
,  // measure 3
0000
0000
0000
0000
,  // measure 4
0000
0000
0000
0000
,  // measure 5
2000
0000
0000
3000
,  // measure 6
0002
0000
0000
0003
,  // measure 7
0200
0000
0000
0300
,  // measure 8
0020
0000
0000
0030
,  // measure 9
2002
0000
0000
3003
,  // measure 10
0000
0000
0000
0000
,  // measure 11
0000
0000
0000
0000
,  // measure 12
0001
0000
0000
1000
0000
0000
0001
0000
0000
1000
0000
0000
0010
0000
0010
0000
,  // measure 13
1000
0100
1000
0100
2000
0000
0100
0000
,  // measure 14
3100
0000
1000
0000
0010
0100
0010
0000
,  // measure 15
0100
0001
0100
0010
1000
0010
0100
0010
,  // measure 16
0200
0000
0310
0000
0100
0001
0100
0000
,  // measure 17
0001
0010
0001
0010
0002
0000
0013
0000
,  // measure 18
0001
1000
0001
0000
1000
0010
1000
0000
,  // measure 19
0001
0010
0100
1000
0001
0010
0100
1000
,  // measure 20
0020
0100
0100
0130
,  // measure 21
0001
0000
0000
0000
0000
0000
1000
0000
0100
0000
0000
0100
0000
0000
1000
0000
,  // measure 22
1000
0000
0000
0000
0000
0000
0010
0000
0100
0000
0000
0100
0000
0000
0010
0000
,  // measure 23
0100
0100
0000
1010
0000
0101
0000
0000
,  // measure 24
0010
0010
0000
1000
0000
1100
0000
0000
,  // measure 25
0001
0000
0000
0000
0000
0000
0100
0000
0010
0000
0000
0010
0000
0000
0100
0000
,  // measure 26
0100
0000
0000
0000
0000
0000
0001
0000
1000
0000
0000
1000
0000
0000
0001
0000
,  // measure 27
0001
0000
0000
1000
0000
0000
1010
0000
,  // measure 28
0100
0000
0000
0001
0000
0000
0101
0000
,  // measure 29
0010
0000
0000
0100
0010
0000
0000
0100
0010
0000
0000
0000
1000
0000
0001
0000
,  // measure 30
1000
0000
0000
0001
1000
0000
0001
0000
,  // measure 31
0100
0000
0000
0010
0100
0000
0000
0010
0100
0000
0000
0000
0001
0000
1000
0000
,  // measure 32
0001
1000
0001
1000
,  // measure 33
0010
0000
0000
0100
0010
0000
0000
0100
0010
0000
0000
0000
1000
0000
0001
0000
,  // measure 34
1000
0000
0000
0001
0001
0000
1000
0000
,  // measure 35
0010
0100
0010
1000
0010
0100
0010
0000
,  // measure 36
0100
0010
0100
0001
0100
0010
0100
0000
,  // measure 37
0001
0000
0001
0000
1000
0100
1000
0000
,  // measure 38
0001
0000
0000
0001
0000
0000
0100
0000
0000
0100
0000
0000
0010
0000
0010
0000
,  // measure 39
1000
0000
1000
0000
0100
0100
0000
1000
,  // measure 40
0000
1000
0000
0010
0000
0010
0000
0100
,  // measure 41
0100
0000
0001
0000
1000
0100
0010
0001
,  // measure 42
0020
0100
0100
0130
,  // measure 43
0010
0000
0010
0000
1000
1000
0000
0001
,  // measure 44
0000
0100
0010
0100
0000
0001
1000
0010
,  // measure 45
0100
0000
0001
0000
1000
0100
0010
0002
,  // measure 46
0000
1000
1000
1003
,  // measure 47
0001
0100
0001
1000
0100
0000
1100
0000
,  // measure 48
1000
0000
1001
0000
0100
0010
0100
0000
,  // measure 49
0001
1000
0001
0000
1000
0010
0100
0010
,  // measure 50
0200
0001
0001
0301
,  // measure 51
0010
1000
0001
1000
0010
0000
0110
0000
,  // measure 52
0100
0000
1001
0000
1000
1000
0001
0000
,  // measure 53
0100
0010
0100
0001
1000
0001
0100
0010
,  // measure 54
0100
0010
0100
0010
,  // measure 55
1000
0001
1000
0001
,  // measure 56
0100
0010
1000
0001
1000
0010
0100
0000
,  // measure 57
2002
0000
0000
0000
,  // measure 58
3003
0000
0000
0000
;

//---------------dance-single - ----------------
#NOTES:
     dance-single:
     :
     Medium:
     6:
     0.300,0.407,0.153,0.061,0.000:
0000
0000
0000
0000
,
0000
0000
0000
0000
,
0000
0000
0000
0000
,
0000
0000
0000
0000
,
1000
0000
0000
0000
,
0001
0000
0000
0000
,
1000
0000
0000
0000
,
0001
0000
0000
0000
,
1001
0000
0000
0000
,
0000
0000
0000
0000
,
0000
0000
0000
0000
,
0000
0000
0000
0000
,
1000
0001
1000
0010
,
0100
0000
0001
0000
1000
0001
1000
0000
,
0010
0100
0010
0000
1000
0001
1000
0000
,
0010
0010
0100
0100
,
0001
1000
0001
1000
,
0010
0100
0001
1000
,
0010
0100
0010
0000
1000
0001
1000
0000
,
0010
0010
0100
0100
,
0002
0000
0000
0003
,
2000
0000
0000
3000
,
2002
0000
0000
3003
,
0110
0000
0000
1001
0000
1001
0000
0000
,
0010
0010
0100
0100
,
0001
0001
1000
1000
,
0010
0100
0001
1000
,
0010
0100
0001
1000
,
1001
1001
1001
0000
,
0010
0100
0010
0100
,
1001
1001
1001
0000
,
0010
0100
0010
0100
,
1001
1001
1001
0010
,
0100
0010
0100
0001
,
1000
0000
0010
1000
0010
0000
0100
0000
,
0001
0000
1000
0001
1000
0000
0010
0000
,
0100
0000
0001
1000
0001
0000
0100
0000
,
0020
0000
0000
0030
,
1000
0000
1001
0000
0010
0010
0000
0100
,
0000
0100
0000
0001
0000
0001
0000
0000
,
1000
0000
0010
0000
1000
0001
1000
0000
,
0010
0010
0010
0010
,
0100
0000
0100
0000
0001
0001
0000
1000
,
0000
1000
0000
0010
0000
0100
0000
0000
,
0001
0000
1000
0000
0010
0100
0010
0100
,
0010
0010
0010
0010
,
1000
1000
0001
0000
,
1000
0010
0100
0001
,
1000
0010
1000
0000
0001
0100
0001
0000
,
1000
0010
0100
0001
,
1000
0010
0100
0100
,
0001
0000
1000
0000
0010
0010
0010
0000
,
0100
0100
0001
0001
,
1000
0010
0100
0001
,
1000
0010
1000
0000
0001
0100
0001
0000
,
1000
0100
0010
0001
0010
0100
1000
0000
,
0020
0000
0000
0000
,
0030
0000
0000
0000
;

//---------------dance-single - ----------------
#NOTES:
     dance-single:
     :
     Easy:
     4:
     0.217,0.261,0.020,0.112,0.005:
0000
0000
0000
0000
,
0000
0000
0000
0000
,
0000
0000
0000
0000
,
0000
0000
0000
0000
,
0020
0000
0000
0000
,
0000
0000
0000
0030
,
2000
0000
0000
0000
,
0000
0000
0000
0000
0000
3000
0000
0000
,
0002
0000
0000
0000
,
0000
0000
0000
0000
,
0003
0000
0000
0000
,
0100
0000
0000
0100
0000
0000
0100
0000
0000
0000
0000
0000
0000
0000
0000
0000
,
0001
1000
0001
1000
,
0010
0100
0010
0100
,
0001
0001
0001
0001
,
2000
0000
0000
3000
,
0001
0100
0010
1000
,
0001
1000
0010
0010
,
1000
0001
0100
0010
,
0020
0000
0000
0030
,
1000
0000
0001
1000
,
1000
0000
0010
0010
,
0100
0000
0001
1000
,
0000
0000
0000
0010
0000
0100
0000
0000
,
0000
0000
0001
1000
,
0010
0100
0001
1000
,
0010
0000
0000
0000
,
0100
0000
0000
0001
0000
0000
0001
0000
,
1000
1000
1000
0000
,
0010
0100
0010
0100
,
0001
0001
0001
0000
,
0100
0010
0100
0010
,
1000
1000
1000
0000
,
0010
0100
0010
0100
,
0002
0000
0000
0000
,
0003
0000
0000
0000
,
1001
0000
0000
0000
,
0110
0000
0000
0000
,
1000
0001
0001
0001
,
1000
1000
1000
0010
,
0100
0010
0100
0100
,
0100
0100
0100
0100
,
0001
0001
1000
1000
,
0010
0010
0100
0100
,
0001
1000
0100
0010
,
0001
1000
0010
0100
,
0001
0001
0001
0000
,
1000
1000
1000
1000
,
0010
0100
0001
1000
,
0020
0000
0000
0000
0000
0030
0000
0000
,
1000
0001
0100
0000
,
0010
1000
0001
0001
,
1000
0001
0100
0010
,
0200
0000
0000
0300
,
0020
0000
0000
0030
,
2000
0000
0000
3000
,
0002
0000
0000
0000
,
0003
0000
0000
0000
;

//---------------dance-single - Copied from----------------
#NOTES:
     dance-single:
     Copied from:
     Beginner:
     2:
     0.073,0.114,0.020,0.000,0.000:
0000
0000
0000
0000
,
0000
0000
0000
0000
,
0000
0000
0000
0000
,
0000
0000
0000
0000
,
0010
0000
0000
0000
,
0000
0000
0000
0000
,
0010
0000
0000
0000
,
0000
0000
0000
0000
,
1001
0000
0000
0000
,
0000
0000
0000
0000
,
0000
0000
0000
0000
,
0000
0000
0000
0000
,
1000
0000
0000
0000
,
0001
0000
0000
0000
,
1000
0000
0000
0000
,
0001
0000
0000
0000
,
0100
0000
0000
0000
,
0010
0000
0000
0000
,
0100
0000
0000
0000
,
0010
0000
0000
0000
,
1000
0000
0000
0000
,
1000
0000
0000
0000
,
1000
0000
0000
0000
,
1000
0000
0000
0000
,
0001
0000
0000
0000
,
0001
0000
0000
0000
,
0001
0000
0000
0000
,
0001
0000
0000
0000
,
1000
0000
0000
0000
,
1000
0000
0000
0000
,
0001
0000
0000
0000
,
0001
0000
0000
0000
,
0100
0000
0000
0000
,
0100
0000
0000
0000
,
0010
0000
0000
0000
,
0010
0000
0000
0000
,
1000
0000
0000
0000
,
0001
0000
0000
0000
,
1000
0000
0000
0000
,
0010
0000
0000
0000
,
0100
0000
0000
0000
,
0001
0000
0000
0000
,
1000
0000
0000
0000
,
0010
0000
0000
0000
,
0100
0000
0000
0000
,
0001
0000
0000
0000
,
1000
0000
0000
0000
,
1000
0000
0000
0000
,
0001
0000
0000
0000
,
0001
0000
0000
0000
,
0100
0000
0000
0000
,
0100
0000
0000
0000
,
0010
0000
0000
0000
,
0010
0000
0000
0000
,
1000
0000
0000
0000
,
0001
0000
0000
0000
,
1001
0000
0000
0000
;
