#TITLE:Wrap You Up;
#SUBTITLE:;
#ARTIST:Mary Kani;
#TITLETRANSLIT:;
#SUBTITLETRANSLIT:;
#ARTISTTRANSLIT:;
#CREDIT:SupremeX;
#BANNER:Wrap You Up.png;
#BACKGROUND:Wrap You Up-bg.png;
#LYRICSPATH:;
#CDTITLE:;
#MUSIC:Wrap You Up.ogg;
#OFFSET:-0.123;
#SAMPLESTART:73.980;
#SAMPLELENGTH:12.000;
#SELECTABLE:YES;
#BPMS:0.000=132.000;
#STOPS:;
#BGCHANGES:20.000=blinds1.avi=1.000=0=0=1,
36.000=dance7.avi=1.000=0=0=1,
52.000=boy7.avi=1.000=0=0=1,
68.000=dance11.avi=1.000=0=0=1,
83.500=discoball1.avi=1.000=0=0=1,
100.000=light8.avi=1.000=0=0=1,
115.500=grid1.avi=1.000=0=0=1,
132.000=ring3.avi=1.000=0=0=1,
148.000=bubble1r.avi=1.000=0=0=1,
164.000=moon2.avi=1.000=0=0=1,
180.000=afro1.avi=1.000=0=0=1,
196.000=dance7.avi=1.000=0=0=1,
212.000=boy7.avi=1.000=0=0=1,
228.000=Wrap You Up-bg.png=1.000=0=0=1,
99999=-nosongbg-=1.000=0=0=0 // don't automatically add -songbackground-
;

//---------------dance-single - ----------------
#NOTES:
     dance-single:
     :
     Hard:
     7:
     0.387,0.369,0.128,0.128,0.000: // measure 1
0000
0000
0000
0000
,  // measure 2
0000
0000
0000
0000
,  // measure 3
0000
0000
0000
0000
,  // measure 4
0000
0000
0000
0000
,  // measure 5
0000
0000
0000
0000
,  // measure 6
1000
0000
1000
0000
0010
0100
0010
0000
,  // measure 7
1000
0000
0001
0100
0001
0000
1000
0000
,  // measure 8
0001
0000
0100
0000
0010
0100
0010
0000
,  // measure 9
1000
0000
0001
0000
0010
0000
0100
1000
,  // measure 10
0100
0000
0010
0001
0010
0000
1100
0000
,  // measure 11
0001
0010
0100
0000
1000
0100
0010
0000
,  // measure 12
0110
0000
0001
1000
0000
1000
0001
0000
,  // measure 13
0100
0010
1000
0010
0100
0000
0001
0000
,  // measure 14
0001
0000
1000
0010
0000
0010
1000
0001
,  // measure 15
0100
0001
1000
0010
0100
0001
1000
0010
,  // measure 16
0100
0000
0100
0010
0000
0010
1000
0000
,  // measure 17
0001
1001
0100
0110
,  // measure 18
1000
0001
0100
0001
0000
0110
0000
2000
,  // measure 19
0000
0000
3001
0001
0000
1000
0000
0100
,  // measure 20
0000
1000
0000
0010
0000
1000
0000
0010
,  // measure 21
0000
0100
0000
0001
0000
1000
0000
0001
,  // measure 22
0000
0000
0100
0000
0010
0100
0010
0000
,  // measure 23
1000
0000
1000
0000
0001
0100
0010
0000
,  // measure 24
0010
0000
1000
0000
0001
0010
0100
0000
,  // measure 25
0100
0000
1000
0000
0001
0100
0001
0000
,  // measure 26
0010
0100
1000
0010
,  // measure 27
0100
0001
1000
0010
,  // measure 28
0100
0001
1000
0001
0000
0100
0000
0020
,  // measure 29
0000
0000
0000
1030
0000
1000
0000
0001
,  // measure 30
0000
0100
0010
0000
0010
0100
0001
0000
,  // measure 31
1000
0000
1000
0000
0010
0100
0001
0000
,  // measure 32
0001
0000
0100
0000
0010
1000
0001
0000
,  // measure 33
1000
0000
0110
0000
0001
0010
0100
1000
,  // measure 34
0010
0100
0010
0100
0000
0001
0000
2000
,  // measure 35
0000
0000
3010
1000
0000
1000
0010
0000
,  // measure 36
0100
0001
1000
0010
0000
0010
0000
0100
,  // measure 37
0001
0010
0100
0000
1000
0100
0010
0000
,  // measure 38
0001
1000
0100
1000
0000
0010
0000
0010
,  // measure 39
0000
0100
0000
0100
0000
0001
1000
0000
,  // measure 40
1000
0000
0010
0000
0100
0001
0100
0010
,  // measure 41
1000
0001
0200
0000
0301
0001
1000
0010
,  // measure 42
0100
0000
0100
0002
0000
0000
0000
1003
,  // measure 43
0000
1100
0000
0110
0000
0001
0010
0100
,  // measure 44
1000
0000
1000
0020
0000
0000
0000
1030
,  // measure 45
0100
0010
0001
1000
0100
1000
0001
0100
,  // measure 46
0010
0000
0010
2000
0000
0000
0000
3100
,  // measure 47
0000
0010
0000
1001
0000
1000
0001
0100
,  // measure 48
0010
0000
0010
0200
0000
0000
0000
0310
,  // measure 49
1000
0100
0010
0001
0100
0000
0100
0001
,  // measure 50
1000
0000
1000
0020
0000
0000
0000
0130
,  // measure 51
0000
0110
0000
1001
0000
1000
0100
1000
,  // measure 52
0001
0000
0001
2000
0000
0000
0000
3010
,  // measure 53
1000
0010
1000
0100
0010
0001
1000
0100
,  // measure 54
1000
0000
0001
0002
0000
0000
0000
1003
,  // measure 55
0000
1100
0000
1001
0000
0010
0100
0010
,  // measure 56
1000
0001
1000
2000
0000
0000
0000
3000
,  // measure 57
0001
0010
0100
1000
0001
0010
0001
1000
,  // measure 58
2002
0000
0000
3003
;

//---------------dance-single - ----------------
#NOTES:
     dance-single:
     :
     Medium:
     5:
     0.289,0.317,0.164,0.055,0.000:
0000
0000
0000
0000
,
0000
0000
0000
0000
,
0000
0000
0000
0000
,
0000
0000
0000
0000
,
0000
0000
0000
0000
,
0010
0100
0001
1000
,
0010
0100
0001
0001
,
1000
0010
0100
0001
,
1000
0010
1000
0001
,
0110
0000
0000
1001
0000
0000
0000
1000
,
0000
0010
0000
0100
0000
0000
0001
0000
,
1001
0000
0000
0110
0000
0000
0000
0000
,
1000
1000
0010
0010
,
0101
0000
0000
1010
0000
0000
0000
1000
,
0000
0001
0000
1000
0000
0000
0000
0000
,
0011
0000
0000
1100
0000
0000
0000
0000
,
0010
0100
0001
1000
,
0010
0010
0010
0100
,
0100
0100
0001
0001
,
0001
1000
0001
1000
,
0010
0100
0001
1000
,
0010
0100
0100
0100
,
0001
1000
1000
1000
,
0010
0100
0001
1000
,
0010
0100
0001
1000
,
0001
1000
1000
1000
,
0010
0010
0010
0100
,
0001
1000
0010
0100
,
0001
1000
0010
0100
,
0001
1000
1000
1000
,
0010
0100
0001
0001
,
1000
0010
0100
0001
,
1000
0010
0100
0001
,
1000
1000
1000
0010
,
0100
0001
0001
0001
,
1000
0010
1000
0001
,
0100
0001
1000
0010
,
0100
0100
0001
1000
,
0001
0001
1000
0010
,
0110
0001
1000
0001
,
1001
1001
0000
0100
,
0200
0000
0000
0310
0000
0000
0000
1000
,
0000
0001
0000
1000
0000
0000
0000
0000
,
0020
0000
0000
0130
0000
0000
0001
0000
,
1000
0010
0100
0001
,
1000
0000
0010
0100
0000
0001
0100
0000
,
0010
1000
0010
0100
,
0001
0000
1000
0010
0000
0100
0001
0000
,
1000
0000
0010
0100
0010
0000
1001
0000
,
0110
0000
0000
1010
0000
0000
0000
0001
,
0000
0101
0000
1010
0000
0001
0100
0000
,
0010
0000
1000
0020
0000
0000
0130
0000
,
0001
1000
0010
0100
,
0001
0000
1000
2000
0000
0000
3000
0010
,
0000
0110
0000
1001
0000
0010
0100
0000
,
0001
0000
1000
0002
0000
0000
0003
0000
,
1000
0000
0010
0000
0100
0001
1000
0001
,
0200
0000
0000
0000
0000
0000
0000
0300
;

//---------------dance-single - ----------------
#NOTES:
     dance-single:
     :
     Easy:
     3:
     0.218,0.238,0.210,0.018,0.000:
0000
0000
0000
0000
,
0000
0000
0000
0000
,
0000
0000
0000
0000
,
0000
0000
0000
0000
,
0000
0000
0000
0000
,
1000
0000
0010
0100
,
0001
1000
0010
0010
,
0000
0100
0000
0001
,
0000
1000
0010
0100
,
0001
0000
0000
0001
0000
0000
0000
1000
,
0000
1000
0000
1000
0000
0000
0000
0000
,
0010
0000
0000
0100
0000
0000
0000
0000
,
0001
1000
0001
0100
,
0010
0000
0000
1001
0000
0000
0000
1000
,
0000
1000
0000
1000
0000
0000
0010
0000
,
0101
0000
0000
1010
0000
0000
0001
0000
,
0100
0001
0100
0010
,
1000
1000
1000
1000
,
1000
0000
1000
0000
0000
0000
0000
0010
,
0000
0000
0000
0100
0000
0000
0000
0001
,
0000
0000
0000
1000
0000
0000
0000
0000
,
0001
0001
0001
0001
,
0100
0100
0100
0100
,
0010
0010
0010
0010
,
1000
0001
1000
0001
,
0100
0000
0000
0000
0000
0000
0000
0100
,
0000
0000
0000
0000
,
0010
0000
0000
0000
0000
0000
0000
0010
,
0000
0000
0000
0000
,
1000
1000
0010
0010
,
0100
0100
0001
0001
,
1000
0001
1000
0010
,
0100
0001
1000
0000
,
0010
0000
0110
0000
,
1000
0000
1001
0000
,
0010
0100
0001
1000
,
0001
0001
0000
0000
,
0110
0000
1000
0000
,
1001
0000
0001
0000
,
1000
0010
1000
0001
,
0100
0001
0000
0000
,
1010
0000
0000
0101
0000
0000
0000
1000
,
0000
1000
0000
1000
0000
0000
0000
0000
,
0101
0000
0000
1010
0000
0000
0000
0000
,
0001
0100
0001
0000
,
0110
0000
0000
0110
0000
0000
0000
1000
,
0000
1000
0000
1000
0000
0000
0000
0000
,
1001
0000
0000
1001
0000
0000
0000
0000
,
0010
0010
0010
0000
,
0101
0000
0000
1010
0000
0000
0000
0010
,
0000
0100
0000
0010
0000
0000
0000
0000
,
1010
0000
0000
0101
0000
0000
0000
0000
,
1000
0000
0001
0100
,
0010
0000
0000
1010
0000
0000
0000
0001
,
0000
0000
0000
0101
0000
0000
0000
0000
,
1000
0000
0000
1001
0000
0000
0000
0000
,
0010
0100
0001
1000
,
2002
0000
0000
0000
0000
0000
0000
3003
;

//---------------dance-single - Copied from----------------
#NOTES:
     dance-single:
     Copied from:
     Beginner:
     3:
     0.066,0.078,0.000,0.000,0.000:
0000
0000
0000
0000
,
0000
0000
0000
0000
,
0000
0000
0000
0000
,
0000
0000
0000
0000
,
0000
0000
0000
0000
,
0010
0000
0000
0000
,
0000
0000
0010
0000
,
0000
0000
0000
0000
,
0100
0000
0000
0000
,
0100
0000
0000
0000
,
0001
0000
0000
0000
,
0001
0000
0000
0000
,
0000
0000
0000
0000
,
1000
0000
0000
0000
0000
0000
0000
1000
,
0000
0000
0000
0000
,
0010
0000
0000
0000
,
0010
0000
0000
0000
,
0100
0000
0000
0000
0000
0000
0000
0100
,
0000
0000
0000
0000
0000
0000
0000
0100
,
0000
0000
0000
0000
0000
0000
0000
0100
,
0000
0000
0000
0000
0000
0000
0000
0001
,
0000
0000
0000
0000
,
0001
0000
0000
0000
,
0001
0000
0000
0000
,
0001
0000
0000
0000
,
1000
0000
0000
0000
0000
0000
0000
1000
,
0000
0000
0000
0000
,
1000
0000
0000
0000
0000
0000
0000
1000
,
0000
0000
0000
0000
,
0010
0000
0000
0000
,
0010
0000
0000
0000
,
0010
0000
0000
0000
,
0010
0000
0000
0000
,
0100
0000
0000
0000
,
0100
0000
0000
0000
,
0001
0000
0000
0000
,
0001
0000
0000
0000
,
0100
0000
0000
0000
,
0100
0000
0000
0000
,
0010
0000
0000
0000
,
0010
0000
0000
0000
,
1000
0000
0000
0000
0000
0000
0000
1000
,
0000
0000
0000
0000
,
1000
0000
0000
0000
,
0001
0000
0000
0000
,
0001
0000
0000
0000
0000
0000
0000
0001
,
0000
0000
0000
0000
,
0100
0000
0000
0000
,
0100
0000
0000
0000
,
0010
0000
0000
0000
0000
0000
0000
0010
,
0000
0000
0000
0000
,
0010
0000
0000
0000
,
0010
0000
0000
0000
,
1000
0000
0000
0000
0000
0000
0000
1000
,
0000
0000
0000
0000
,
0001
0000
0000
0000
0000
0000
0000
0001
,
0000
0000
0000
0000
,
1000
0000
0000
0000
;
