#TITLE:Wing of Hearts;
#SUBTITLE:;
#ARTIST:USAO & DJ Nanashi;
#TITLETRANSLIT:;
#SUBTITLETRANSLIT:;
#ARTISTTRANSLIT:;
#CREDIT:SupremeX;
#BANNER:Wing of Hearts-bn.png;
#BACKGROUND:Wing of Hearts-bg.png;
#LYRICSPATH:;
#CDTITLE:;
#MUSIC:Wing of Hearts.ogg;
#OFFSET:-1.808;
#SAMPLESTART:86.480;
#SAMPLELENGTH:12.000;
#SELECTABLE:YES;
#BPMS:0.000=187.000;
#STOPS:296.000=0.160
;
#BGCHANGES:;

//---------------dance-single - ----------------
#NOTES:
     dance-single:
     :
     Hard:
     9:
     0.590,0.586,0.309,0.037,0.000: // measure 1
0000
0000
0000
0000
,  // measure 2
0000
0000
0000
0000
,  // measure 3
0000
0000
0000
0000
,  // measure 4
0000
0000
0000
0000
,  // measure 5
1000
1010
0001
0101
,  // measure 6
0010
1000
0010
0100
0000
0001
0000
0000
,  // measure 7
1000
0010
0100
0010
1000
0010
0000
0110
,  // measure 8
0000
0110
0000
0000
0001
0000
0100
0000
,  // measure 9
0020
0000
0000
0000
,  // measure 10
0000
0000
0000
0030
,  // measure 11
1000
0000
1000
0000
0001
0100
0001
0100
,  // measure 12
0010
0000
0010
0000
0010
0100
0010
0100
,  // measure 13
0001
1000
0010
0100
,  // measure 14
0001
1000
0001
0010
0001
1000
0001
0000
,  // measure 15
0100
0000
0100
0000
0010
1000
0010
1000
,  // measure 16
0100
0000
1000
0000
0010
0100
0010
0100
,  // measure 17
0010
0000
1000
0000
0010
0100
0001
0100
,  // measure 18
0001
0000
1000
0001
1000
0001
1000
0010
,  // measure 19
0100
1001
0100
1100
,  // measure 20
0010
0000
0011
0000
1000
1000
0010
0000
,  // measure 21
0110
0100
0101
1000
,  // measure 22
0001
0010
0100
1000
0010
0100
0010
0000
,  // measure 23
1000
0100
0010
0001
,  // measure 24
1000
0100
1000
0100
1000
0100
1000
0000
,  // measure 25
0010
0100
0001
0100
0010
0100
0001
0000
,  // measure 26
0110
0000
0110
0000
1000
0001
0100
0000
,  // measure 27
0010
1010
0001
0101
,  // measure 28
1000
0110
0001
1001
,  // measure 29
0010
1000
0010
0000
1000
0010
1000
0000
,  // measure 30
0001
0100
0001
0000
0100
0001
0100
0000
,  // measure 31
0010
0110
1000
1100
,  // measure 32
0001
0110
0110
0110
,  // measure 33
1000
0100
1000
0000
0100
1000
0100
0000
,  // measure 34
0010
0001
0010
0000
0001
0010
0001
0000
,  // measure 35
1000
0000
0100
0100
1000
0000
0001
0000
,  // measure 36
1000
0100
0010
0100
0010
0100
0010
0100
,  // measure 37
0001
1001
0100
0110
,  // measure 38
0001
1001
0010
0110
,  // measure 39
1000
0000
0100
1000
0100
0000
1000
0100
,  // measure 40
0010
0001
0010
0100
0010
0001
0010
0000
,  // measure 41
0100
1100
0001
1001
,  // measure 42
0100
0100
0000
0010
0000
1010
0000
0200
,  // measure 43
0000
0000
0000
0000
,  // measure 44
0010
0000
0000
0310
0000
0000
2000
0000
,  // measure 45
0100
0000
0100
0000
,  // measure 46
0100
0000
3100
0000
,  // measure 47
0010
0010
0010
0010
,  // measure 48
1000
0000
1000
0000
1000
0000
1000
0001
,  // measure 49
0100
0000
0100
0000
0100
0000
0100
0001
,  // measure 50
0010
0010
0010
0010
,  // measure 51
0001
1000
0001
1000
0100
0010
0100
0010
,  // measure 52
0001
0100
0001
0100
0001
0000
1000
0000
,  // measure 53
0010
0100
0001
0100
0001
1000
0100
1000
,  // measure 54
0100
1000
0010
0110
,  // measure 55
0001
0100
0010
1000
0001
0100
0001
0100
,  // measure 56
0010
1000
1100
0110
,  // measure 57
0001
0010
0100
1000
0010
0100
0010
0000
,  // measure 58
1001
0101
1100
0110
,  // measure 59
0001
0100
0001
0000
0100
0001
0100
0000
,  // measure 60
0010
1000
0010
0000
1000
1000
1000
0000
,  // measure 61
0001
0100
0010
0000
1000
0001
0100
0000
,  // measure 62
0001
1000
0010
0000
1000
0001
0100
0000
,  // measure 63
0010
1000
0010
0100
0010
1000
0010
0000
,  // measure 64
1000
0001
1000
0010
0100
0010
0100
0000
,  // measure 65
0001
0010
0100
1000
0010
0100
0010
0000
,  // measure 66
1001
0110
1001
1001
,  // measure 67
0100
0001
0100
0000
0010
1000
0100
0000
,  // measure 68
1000
0001
0010
0000
0100
1000
0100
1000
,  // measure 69
0001
0000
0100
0001
0100
0000
0001
0000
,  // measure 70
1000
0100
1000
0000
0001
0010
0100
1000
,  // measure 71
0010
0000
1000
0010
1000
0000
0001
0000
,  // measure 72
0100
0001
0100
0000
0010
1000
0010
1000
,  // measure 73
0010
0000
0100
0001
0100
0000
0001
1000
,  // measure 74
0010
0000
1000
0001
0100
0000
0001
0000
,  // measure 75
1000
0010
0100
0010
0100
0010
0000
1000
,  // measure 76
0001
1000
0001
1000
0000
0001
0000
1000
,  // measure 77
0000
0010
0100
0010
0000
1000
0000
0001
,  // measure 78
0100
0001
0000
1000
0100
1000
0100
1000
,  // measure 79
0000
0001
1000
0001
0000
0010
0000
0100
,  // measure 80
1000
0100
0000
0010
0001
0010
0100
1000
,  // measure 81
0000
0100
0010
0100
0010
0100
0001
1000
,  // measure 82
0001
0100
0010
0100
0000
0001
0000
1000
,  // measure 83
1000
0100
0010
0001
,  // measure 84
1000
0100
1000
0100
0010
0100
0000
0001
,  // measure 85
0000
0100
0000
0001
0000
1000
0000
0010
,  // measure 86
0100
0001
0100
0010
1000
0010
0100
0001
,  // measure 87
0000
1000
0001
0100
,  // measure 88
0001
0000
1000
0010
0100
0010
1000
0010
,  // measure 89
0000
0100
0001
0100
0010
1000
0010
0100
,  // measure 90
0000
0001
0010
0100
1000
0010
0000
0110
,  // measure 91
0000
0101
0000
1010
0000
0001
0000
1000
,  // measure 92
0000
0001
0000
1000
0100
1000
0100
0010
,  // measure 93
0000
0001
1000
0010
0000
0100
0000
0001
,  // measure 94
0010
0100
1000
0100
0010
0100
1000
0100
,  // measure 95
0010
0001
0010
0100
0010
0001
0010
0100
,  // measure 96
1000
0100
1000
0100
1000
0100
0000
0010
,  // measure 97
0001
1000
0001
0100
0010
0100
0000
0001
,  // measure 98
0010
0100
1000
0010
1000
0010
0100
2002
,  // measure 99
0000
0000
0000
0000
,  // measure 100
0000
0000
3003
0000
;

//---------------dance-single - ----------------
#NOTES:
     dance-single:
     :
     Medium:
     5:
     0.429,0.510,0.044,0.044,0.000:
0000
0000
0000
0000
,
0000
0000
0000
0000
,
0000
0000
0000
0000
,
0000
0000
0000
0000
,
1000
0010
1000
0001
,
0100
0001
1000
0001
,
1000
1000
0010
0010
,
0100
0100
0001
0001
,
2000
0000
0000
0000
,
0000
0000
0000
0000
,
3010
0100
0010
1000
,
0001
1000
0001
0000
0100
0010
0100
0000
,
0001
1000
0010
0100
,
0001
1000
0001
0000
0100
0010
0100
0000
,
0001
0010
0100
1000
,
0010
0100
0010
0000
1000
0000
0001
0000
,
0100
0000
0010
1000
0010
0000
0100
0000
,
0001
1000
0100
0100
,
1000
1000
0001
0001
,
0100
0000
0100
0000
0010
0010
0000
0000
,
1000
0010
0100
0010
,
1000
0000
0001
0000
1000
0010
1000
0000
,
0001
0000
0100
0000
0010
0000
1000
0010
,
1000
0010
1000
0000
0001
0000
0010
0000
,
0100
1000
0010
1000
,
0001
1000
1000
1000
,
0010
0000
0100
0010
0100
0010
0100
0010
,
0100
0010
0100
0010
0100
0000
0100
0000
,
0001
1000
0001
1000
,
0001
0001
0001
1000
,
0010
0100
0010
1000
,
0001
0100
0001
0100
0001
0100
0001
0000
,
1000
0010
0100
0010
,
1000
0001
0100
0010
,
1000
0000
0001
0000
,
1000
0100
1000
0100
1000
0100
1000
0000
,
0001
0000
0110
0000
,
1000
0000
0101
0000
,
0010
0000
1010
0000
,
0001
1000
0001
1000
0001
1000
0001
1000
,
0010
1000
0010
0100
,
0001
1000
1000
0100
,
0020
0000
0000
0000
,
0030
0000
0000
0000
,
0001
0000
0000
0000
,
1000
0000
0000
0000
,
0100
1000
0100
1000
,
0100
0010
0100
0010
,
0001
0010
0001
0010
,
0100
1000
0100
0010
,
0001
0001
0010
0010
,
0100
0100
1000
1000
,
0100
0010
0100
0001
,
1000
0100
1000
0001
,
0100
0100
0010
0010
,
1000
1000
0001
0001
,
1000
0010
0100
0001
,
1000
0010
0100
0001
,
1000
0100
1100
0010
,
0001
0000
0010
0000
0100
0100
0000
0000
,
1000
0001
0100
0001
,
1000
0000
0010
0000
0100
0010
0100
0000
,
0001
1000
0010
0100
,
0001
0100
0001
0000
1000
0000
0010
0000
,
1000
0000
0001
0100
0001
0000
1000
0002
,
0000
0000
0000
0000
0000
0003
0000
0000
,
1000
0000
0010
0100
0010
0000
0100
0000
,
0010
0100
0010
0000
1000
0000
0001
0000
,
0100
0000
0001
1000
0001
0000
1000
0000
,
0001
1000
0001
0000
0100
0000
0100
0000
,
0001
0000
1000
0010
1000
0000
0001
0000
,
0100
0010
0100
0000
0001
0000
1000
0000
,
0001
0000
1000
0010
0100
0000
0001
1000
,
0010
0000
1000
0001
0100
0000
0000
0000
,
0001
0000
1000
0100
1000
0100
0000
0100
,
0010
0100
0010
0100
0000
0001
0000
1000
,
0000
0010
0100
0010
0000
1000
0000
0001
,
0100
0001
0000
1000
0000
0010
0000
0100
,
0000
0001
0100
0010
0000
1000
0000
0001
,
1000
0100
0000
1000
0000
0001
0000
0100
,
0000
0010
0000
1000
0000
0010
0000
0100
,
0000
0001
1000
0001
0000
0100
0000
0001
,
0000
1000
0100
1000
0000
0001
0000
0100
,
0000
0010
0000
1000
0010
0100
0001
1000
,
0000
0001
0000
0100
0000
0010
0000
0100
,
0000
0001
0000
1000
0000
0010
0000
0100
,
0001
0100
0000
0010
1000
0010
0000
0100
,
0000
0100
0000
0001
0000
0001
0000
1000
,
0100
1000
0000
0001
1000
0001
0000
0100
,
0000
0010
0000
1000
0000
0001
0000
1001
,
0000
0010
0000
0100
0000
1000
0000
0100
,
0000
0100
0000
0100
0000
0100
0000
2000
,
0000
0000
0000
0000
0000
3000
0000
0100
,
0000
0010
0000
0001
0000
0010
0000
0100
,
0000
1000
0000
0100
0000
0010
0000
0001
,
0100
0001
0000
1000
0100
1000
0000
0001
,
0000
0010
0000
0100
0000
1000
0000
0100
,
0000
0010
0000
0001
1000
0001
0000
2002
,
0000
0000
0000
0000
,
3003
0000
0000
0000
;

//---------------dance-single - ----------------
#NOTES:
     dance-single:
     :
     Easy:
     3:
     0.276,0.328,0.074,0.096,0.000:
0000
0000
0000
0000
,
0000
0000
0000
0000
,
0000
0000
0000
0000
,
0000
0000
0000
0000
,
1000
0010
1000
0010
,
0010
0000
0100
0001
,
0100
0001
0100
0001
,
1000
1000
0000
0000
,
0002
0000
0000
0000
,
0000
0000
0000
0000
0000
0003
0000
0000
,
0100
0000
0010
0000
,
1000
0000
0001
0000
,
1000
0000
0010
0000
,
0100
0000
0001
0000
,
1000
1000
0010
0010
,
0100
0100
0001
0001
,
1000
1000
0010
0010
,
0100
0100
0001
0001
,
1000
0010
1000
0010
,
1000
0010
0000
0000
,
0100
0001
0100
0001
,
0100
0001
0000
0000
,
1000
0010
0100
0001
,
0001
0001
0000
0000
,
1000
0010
0100
0001
,
0002
0000
0000
0003
,
1000
0010
1000
0010
,
1000
0010
0010
0010
,
0100
0001
0100
0001
,
0100
0001
0100
0100
,
0100
0100
0010
1000
,
0010
1000
0010
0010
,
0010
0010
1000
0001
,
1000
0001
1000
1000
,
1000
1000
0001
0000
,
0100
0000
0110
0000
,
0001
0000
1000
0000
,
1001
0000
1001
0000
,
0010
0000
0100
0000
,
0110
0000
0110
0000
,
0001
0000
1000
0000
,
1001
0000
0000
0000
,
2002
0000
0000
0000
0000
3003
0000
0000
,
0020
0000
0000
0000
0000
0000
0000
0030
,
0000
0000
0000
0000
,
0200
0000
0000
0000
0000
0000
0000
0300
,
0000
0000
0000
0000
,
0001
0000
1000
0000
,
0010
0000
1000
0000
,
0001
0000
1000
0000
,
0010
0100
0010
0100
,
0100
0000
0000
0000
,
0020
0000
0000
0000
0000
0000
0000
0030
,
0000
0000
0000
0000
,
1000
0000
0001
0000
,
2000
0000
0000
3000
,
0010
0000
0100
0000
,
0001
0000
1000
0000
,
0010
0100
0010
0100
,
0010
0100
0000
0000
,
1000
0001
1000
0001
,
1000
0001
1000
0000
,
0010
0100
0010
0100
,
0010
0100
0010
0000
,
1000
0001
1000
0001
,
2000
0000
0000
0000
0000
3000
0000
0000
,
0010
0000
0100
0000
,
0001
0000
1000
1000
,
0010
0000
0100
0000
,
0001
0000
1000
0010
,
1000
0000
0001
0000
,
0100
0000
0001
0001
,
1000
0000
0010
0000
,
0100
0100
0100
0100
,
0001
0000
0000
1000
0000
0010
0000
0100
,
0000
0010
0000
0100
0000
0000
0000
0001
,
0000
0100
0000
0010
0000
0100
0000
0010
,
0000
0100
0000
0000
0000
0000
0000
0010
,
0000
1000
0000
0010
0000
1000
0000
0010
,
0000
1000
0000
0000
0000
0000
0000
0001
,
0000
0100
0000
0001
0000
0100
0000
0001
,
0000
0100
0000
0100
0000
0000
0000
0010
,
0000
0000
0000
1000
0000
0000
0000
0010
,
0000
0000
0000
1000
0000
0000
0000
2000
,
0000
0000
0000
3000
,
0000
0000
0000
0000
0000
0000
0000
0001
,
0000
0100
0000
0010
0000
0100
0000
0010
,
0000
0100
0000
0010
0000
0100
0000
1000
,
0000
1000
0000
1000
0000
1000
0000
0001
,
0000
0001
0000
0001
0000
0001
0000
1001
,
0000
0000
0000
0000
0000
0000
0000
0110
,
0000
0000
0000
0000
0000
0000
0000
0220
,
0000
0000
0000
0000
0000
0000
0000
0330
,
0000
0000
0000
0000
0000
0000
0000
0001
,
0000
0000
0000
1000
0000
0000
0000
0001
,
0000
0000
0000
1000
0000
0000
0000
0001
,
0000
1000
0000
0001
0000
1000
0000
0010
,
0000
1000
0000
0010
0000
0100
0000
0020
,
0000
0000
0000
0000
,
0030
0000
0000
0000
;

//---------------dance-single - Copied from----------------
#NOTES:
     dance-single:
     Copied from:
     Beginner:
     2:
     0.085,0.109,0.007,0.074,0.000:
0000
0000
0000
0000
,
0000
0000
0000
0000
,
0000
0000
0000
0000
,
0000
0000
0000
0000
,
1000
0000
0000
0000
,
1000
0000
0000
0000
,
1000
0000
0000
0000
,
1000
0000
0000
0000
,
0002
0000
0000
0000
,
0000
0000
0000
0003
,
0000
0000
0000
0000
,
0000
0000
0000
0000
,
0100
0000
0000
0000
,
0000
0000
0000
0000
,
0010
0000
0000
0000
,
0000
0000
0000
0000
,
0100
0000
0000
0000
,
0010
0000
0000
0000
,
1000
0000
0000
0000
,
0001
0000
0000
0000
,
1000
0000
0000
0000
,
0001
0000
0000
0000
,
1000
0000
0000
0000
,
0001
0000
0000
0000
,
1000
0000
0000
0000
,
0001
0000
0000
0000
,
0100
0000
0000
0000
,
0100
0000
0000
0000
,
0010
0000
0000
0000
,
0010
0000
0000
0000
,
0100
0000
0000
0000
,
0100
0000
0000
0000
,
0010
0000
0000
0000
,
0010
0000
0000
0000
,
1000
0000
0000
0000
,
1000
0000
0000
0000
,
0001
0000
0000
0000
,
0001
0000
0000
0000
,
1000
0000
0000
0000
,
1000
0000
0000
0000
,
0010
0000
0000
0000
,
0010
0000
0000
0000
,
0100
0000
0000
0000
,
0002
0000
0000
0000
,
0003
0000
0000
0000
,
0000
0000
0000
0000
,
1000
0000
0000
0000
,
0010
0000
0000
0000
,
0000
0000
0000
0000
,
0000
0000
0000
0000
,
0100
0000
0000
0000
,
0100
0000
0000
0000
,
0020
0000
0000
0000
,
0030
0000
0000
0000
,
0100
0000
0000
0000
,
0010
0000
0000
0000
,
2000
0000
0000
0000
,
3000
0000
0000
0000
,
0001
0000
0000
0000
,
0100
0000
0000
0000
,
0001
0000
0000
0000
,
0100
0000
0000
0000
,
0010
0000
0000
0000
,
1000
0000
0000
0000
,
0010
0000
0000
0000
,
1000
0000
0000
0000
,
0100
0000
0000
0000
,
0000
0000
0000
0000
,
0100
0000
0000
0000
,
0000
0000
0000
0000
,
0010
0000
0000
0000
,
0000
0000
0000
0000
,
0010
0000
0000
0000
,
0000
0000
0000
0000
,
0100
0000
0000
0000
,
0000
0000
0000
0000
0000
0000
0000
0100
,
0000
0000
0000
0000
,
0000
0000
0000
0000
0000
0000
0000
0010
,
0000
0000
0000
0000
,
0000
0000
0000
0000
0000
0000
0000
1000
,
0000
0000
0000
0000
,
0000
0000
0000
0000
0000
0000
0000
0001
,
0000
0000
0000
0000
,
0000
0000
0000
0000
0000
0000
0000
0200
,
0000
0000
0000
0000
0000
0000
0000
0300
,
0000
0000
0000
0000
0000
0000
0000
0010
,
0000
0000
0000
0000
,
0000
0000
0000
0000
0000
0000
0000
0020
,
0000
0000
0000
0030
,
0000
0000
0000
0000
0000
0000
0000
1000
,
0000
0000
0000
0000
0000
0000
0000
0001
,
0000
0000
0000
0000
0000
0000
0000
2000
,
0000
0000
0000
0000
0000
0000
0000
3000
,
0000
0000
0000
0000
0000
0000
0000
0010
,
0000
0000
0000
0000
0000
0000
0000
0100
,
0000
0000
0000
0000
0000
0000
0000
0002
,
0000
0000
0000
0000
0000
0000
0000
0003
,
0000
0000
0000
0000
0000
0000
0000
2002
,
0000
0000
0000
0000
,
3003
0000
0000
0000
;
