#TITLE:Wanna Be Your Special;
#SUBTITLE:;
#ARTIST:Shoichiro Hirata feat. SUIMI;
#TITLETRANSLIT:;
#SUBTITLETRANSLIT:;
#ARTISTTRANSLIT:;
#GENRE:;
#CREDIT:SupremeX;
#BANNER:Wanna Be Your Special-bn.png;
#BACKGROUND:Wanna Be Your Special-bg.png;
#LYRICSPATH:;
#CDTITLE:;
#MUSIC:Wanna Be Your Special.ogg;
#OFFSET:-0.127361;
#SAMPLESTART:51.779999;
#SAMPLELENGTH:12.000000;
#SELECTABLE:YES;
#BPMS:0.000000=137.000000
;
#STOPS:
;
#BGCHANGES:;
#KEYSOUNDS:;
#ATTACKS:;

//---------------dance-single - ----------------
#NOTES:
     dance-single:
     :
     Hard:
     6:
     0.347301,0.472329,0.043413,0.112873,0.026048,280.000000,275.000000,5.000000,13.000000,0.000000,0.000000,0.347301,0.472329,0.043413,0.112873,0.026048,280.000000,275.000000,5.000000,13.000000,0.000000,0.000000:
0000
0000
0000
0000
,
0000
0000
0000
0000
,
0000
0000
0000
0000
,
0000
0000
0000
0000
,
1000
0100
1000
0100
1000
0100
1000
0010
,
0100
0010
0100
0010
0100
0010
0100
0001
,
1000
0001
1000
0001
1000
0001
1000
0001
,
0100
0000
0000
0001
0000
0000
1000
0000
0000
0010
0000
0000
1000
0000
0000
0001
,
0000
2000
0000
0000
0000
0000
3000
0000
,
0001
0000
0000
0000
0000
0100
0000
0000
0000
0000
0000
0000
0000
0000
0020
0000
,
0000
0000
0030
0000
,
1000
0000
0000
0000
0000
0010
0000
0000
0000
0000
0000
0000
0000
0000
2000
0000
,
0000
0000
3000
0000
,
0001
0000
0000
0000
0000
1000
0000
0000
0000
0000
0000
0000
0000
0000
0002
0000
,
0000
0000
0003
0000
,
1000
0000
0000
0010
0000
0000
0000
0200
,
0000
0000
0300
0000
,
0001
0010
0100
1000
,
0100
0000
1000
0000
0001
0000
0100
0010
,
0100
0001
1000
0001
,
1000
0000
0100
1000
0100
0000
1000
0001
,
1000
0010
0100
0001
,
0100
0000
0010
1000
0010
0000
0100
0010
,
0100
0000
0001
1000
0001
0000
1000
0100
,
1000
0000
0010
0100
0001
1000
0010
0000
,
1000
0100
0010
0001
0020
0000
0031
0000
,
0100
1000
0100
2000
0000
0000
3100
0000
,
1000
0010
0100
0020
0100
0000
0100
0000
,
0100
0100
0100
0200
,
0330
0000
0000
0000
0001
1000
0001
1000
,
0001
0100
0010
0100
,
0001
1000
0010
0100
0001
1000
0100
1000
,
0001
0100
0010
1000
,
0001
0100
0010
0000
1000
0001
1000
0001
,
1000
0010
0100
0010
,
1000
0001
0100
0010
0100
0010
1000
0001
,
0100
0000
0010
0010
0000
1000
2000
0000
,
0000
3000
0001
1001
,
0100
0000
0010
0100
0010
0100
0001
0000
,
1000
0000
0100
0010
0100
0010
0001
0010
,
0100
0000
1000
0100
0000
1000
1000
0000
,
0001
1000
0001
0000
0100
0010
0100
0010
,
0100
0000
0001
0000
1000
0001
0100
0010
,
1000
0000
0110
0000
0001
0100
0001
1000
,
0001
0000
1000
0100
0000
0100
2000
0000
,
0001
0100
0001
3100
,
0010
0001
0010
0100
,
1000
0100
1000
0000
0001
0000
1000
0000
,
0001
0000
0100
0010
0100
0000
0001
0000
,
1000
0000
0010
0100
0001
1000
0010
0100
,
0001
1000
0001
0100
,
0001
0000
1000
0010
1000
0000
0001
0000
,
0100
0000
0001
1000
0000
0010
1000
0000
,
0001
0010
0100
1000
0010
0100
0010
0100
,
0001
1000
0010
1000
,
0001
0000
1000
0100
1000
0000
0001
0000
,
0100
0000
0010
1000
0010
0000
0100
0000
,
0001
0100
0010
0000
1000
0001
0100
0000
,
0010
0000
1000
0001
0000
0100
0000
0000
,
0000
0000
0010
0100
0000
0110
0000
0000
,
0000
0000
0001
1000
0000
1100
0000
0000
,
0100
1000
0100
0010
,
2002
0000
0000
0000
,
0000
0000
0000
0000
,
3003
0000
0000
0000
;

//---------------dance-single - ----------------
#NOTES:
     dance-single:
     :
     Medium:
     4:
     0.187294,0.277840,0.086825,0.104190,0.000000,151.000000,141.000000,10.000000,12.000000,0.000000,0.000000,0.187294,0.277840,0.086825,0.104190,0.000000,151.000000,141.000000,10.000000,12.000000,0.000000,0.000000:
0000
0000
0000
0000
,
0000
0000
0000
0000
,
0000
0000
0000
0000
,
0000
0000
0000
0000
,
0020
0000
0000
0000
,
0230
0000
0000
0000
,
0302
0000
0000
0000
,
2003
0000
0000
0000
,
3000
0000
0000
0000
,
0010
0000
0000
0000
0000
0000
0000
1000
,
0000
0000
0000
0000
,
0001
0000
0000
0000
0000
0000
0000
0100
,
0000
0000
0000
0000
,
0010
0000
0000
0000
0000
0000
0000
1000
,
0000
0000
0000
0000
,
0001
0000
0000
0000
0000
0000
0000
0100
,
0000
0000
0000
0000
,
0010
0010
1000
1000
,
0001
0001
1000
1000
,
0010
0000
0000
0100
0000
0000
0000
0100
,
0000
0000
0000
0000
,
0001
0001
1000
1000
,
0010
0010
0100
0100
,
0001
0000
0000
0000
,
1001
0000
0000
0000
,
1000
0000
0000
0000
,
0110
0000
0000
0000
,
0001
0000
0001
0000
,
0002
0000
0000
0000
,
0003
0000
1000
1000
,
0010
0100
0001
1000
,
0010
0100
0001
0001
,
1000
0010
0100
0001
,
0001
1000
1000
1000
,
0010
0100
0010
0200
,
0000
0300
0001
1000
,
0010
0100
0001
1001
,
0000
0000
0100
0100
,
0010
1000
0001
0100
,
0010
1000
0001
0001
,
1000
0010
0100
0001
,
1000
0010
0100
0100
,
0001
1000
0010
1000
,
1000
1000
0001
0100
,
0010
0000
0000
1001
0000
0000
0220
0000
,
0000
0000
0000
0330
,
0001
0001
1000
1000
,
0010
0010
0100
0100
,
0001
1000
0001
1000
,
0010
0100
0010
0100
,
0000
0001
1000
0001
,
1000
0010
0100
0001
,
1000
0010
0100
0001
,
1000
1000
1000
1000
,
0020
0000
0000
0000
,
0230
0000
0000
0300
,
0001
0001
1000
1000
,
0010
0100
0001
1000
,
1001
0000
0000
0000
,
0110
0000
0000
0000
,
1001
0000
0000
0000
,
0110
0000
0000
0000
,
2002
0000
0000
0000
,
0000
0000
0000
0000
,
3003
0000
0000
0000
;

//---------------dance-single - ----------------
#NOTES:
     dance-single:
     :
     Easy:
     3:
     0.156285,0.242242,0.026048,0.008683,0.000000,126.000000,123.000000,3.000000,1.000000,0.000000,0.000000,0.156285,0.242242,0.026048,0.008683,0.000000,126.000000,123.000000,3.000000,1.000000,0.000000,0.000000:
0000
0000
0000
0000
,
0000
0000
0000
0000
,
0000
0000
0000
0000
,
0000
0000
0000
0000
,
0001
0000
0000
0000
,
1000
0000
0000
0000
,
0010
0000
0000
0000
,
0100
0000
0000
0000
,
0000
0000
0000
0000
,
0001
0000
0000
1000
,
0000
0000
0000
0000
,
0001
0000
0000
0000
,
1000
0000
0000
0000
,
0010
0000
0000
0000
,
0100
0000
0000
0000
,
0001
0000
0000
0000
,
1000
0000
0000
0000
,
0010
0000
0010
0000
,
0010
0000
0010
0000
,
0100
0000
0100
0000
,
0100
0000
0100
0000
,
0001
0000
0001
0000
,
0001
0000
0001
0000
,
1000
0000
1000
0000
,
1000
0000
1000
0000
,
0010
0000
0100
0000
,
0010
0000
0100
0000
,
0001
1000
0001
1000
,
0001
1000
0001
1000
,
0002
0000
0000
0003
,
1000
0000
1000
0000
,
0010
0000
0010
0000
,
0100
0000
0100
0000
,
0001
0000
0001
0001
,
1000
0010
1000
0010
,
1000
0010
1000
0010
,
0100
0000
0000
0100
,
0000
0000
0001
0001
,
1000
0010
1000
0010
,
1000
0010
1000
0010
,
0100
0001
0100
0001
,
0100
0001
0100
0100
,
0010
1000
0010
1000
,
0010
1000
0010
1000
,
0010
0100
0001
0100
,
0001
0100
0001
0100
,
0010
0000
1000
0000
,
0001
0000
1000
0000
,
0010
0000
0100
0000
,
0001
0000
1000
0000
,
0000
0010
0000
1000
,
0000
0001
0000
1000
,
0000
0010
0000
0100
,
0000
0001
0000
1000
,
0001
0000
0000
0000
,
1001
0000
0000
0000
,
0110
0000
0000
0000
,
1001
0000
0000
0000
,
0010
0000
1000
0000
,
0001
0000
1000
0000
,
0010
0000
0100
0000
,
0001
0000
1000
0000
,
0010
0000
0000
0000
;

//---------------dance-single - Copied from----------------
#NOTES:
     dance-single:
     Copied from:
     Beginner:
     1:
     0.071941,0.080747,0.000000,0.000000,0.000000,58.000000,58.000000,0.000000,0.000000,0.000000,0.000000,0.071941,0.080747,0.000000,0.000000,0.000000,58.000000,58.000000,0.000000,0.000000,0.000000,0.000000:
0000
0000
0000
0000
,
0000
0000
0000
0000
,
0000
0000
0000
0000
,
0000
0000
0000
0000
,
0001
0000
0000
0000
,
1000
0000
0000
0000
,
0001
0000
0000
0000
,
1000
0000
0000
0000
,
0000
0000
0000
0000
,
0010
0000
0000
0000
,
0100
0000
0000
0000
,
0010
0000
0000
0000
,
0100
0000
0000
0000
,
0010
0000
0000
0000
,
0100
0000
0000
0000
,
0010
0000
0000
0000
,
0100
0000
0000
0000
,
0001
0000
0000
0000
,
1000
0000
0000
0000
,
0001
0000
0000
0000
,
1000
0000
0000
0000
,
0001
0000
0000
0000
,
1000
0000
0000
0000
,
0001
0000
0000
0000
,
1000
0000
0000
0000
,
0001
0000
0000
0000
,
1000
0000
0000
0000
,
0001
0000
0000
0000
,
1000
0000
0000
0000
,
0010
0000
0000
0000
,
0010
0000
0000
0000
,
0010
0000
0000
0000
,
0100
0000
0000
0100
,
0000
0000
0000
0000
,
0010
0000
0000
0010
,
0000
0000
0000
0000
,
0100
0000
0000
0100
,
0000
0000
0000
0000
,
0001
0000
0000
0001
,
0000
0000
0000
0000
,
1000
0000
0000
1000
,
0000
0000
0000
0000
,
0010
0000
0000
0010
,
0000
0000
0000
0000
,
0100
0000
0000
0100
,
0000
0000
0000
0000
,
0001
0000
0000
0000
,
1000
0000
0000
0000
,
0001
0000
0000
0000
,
1000
0000
0000
0000
,
0010
0000
0000
0000
,
0100
0000
0000
0000
,
0010
0000
0000
0000
,
0100
0000
0000
0000
,
0001
0000
0000
0000
,
1000
0000
0000
0000
,
0001
0000
0000
0000
,
1000
0000
0000
0000
,
0010
0000
0000
0000
,
0100
0000
0000
0000
,
0010
0000
0000
0000
,
0100
0000
0000
0000
,
0010
0000
0000
0000
;
