#TITLE:Visnu;
#SUBTITLE:;
#ARTIST:Blacklolita;
#TITLETRANSLIT:;
#SUBTITLETRANSLIT:;
#ARTISTTRANSLIT:;
#GENRE:;
#CREDIT:SupremeX;
#BANNER:Visnu-bn.png;
#BACKGROUND:Visnu-bg.png;
#LYRICSPATH:;
#CDTITLE:;
#MUSIC:Visnu.ogg;
#OFFSET:-2.478751;
#SAMPLESTART:83.639999;
#SAMPLELENGTH:12.000000;
#SELECTABLE:YES;
#BPMS:0.000000=130.000000
;
#STOPS:
;
#BGCHANGES:;
#KEYSOUNDS:;
#ATTACKS:;

//---------------dance-single - ----------------
#NOTES:
     dance-single:
     :
     Hard:
     8:
     0.498955,0.509000,0.209897,0.092355,0.159522,416.000000,391.000000,25.000000,11.000000,0.000000,0.000000,0.498955,0.509000,0.209897,0.092355,0.159522,416.000000,391.000000,25.000000,11.000000,0.000000,0.000000:
0000
0000
0000
0000
,
0000
0000
0000
0000
,
0000
0000
0000
0000
,
0000
0000
0000
0000
,
1000
0000
0001
0000
0010
0000
0100
0000
1000
0000
0000
1000
0000
0000
0010
0000
,
0100
0000
0000
0100
0000
0000
0010
0000
0100
0000
0001
0000
1000
0000
0010
0000
,
0100
0000
0010
0000
0100
0000
0000
0000
0001
0000
0000
0001
0000
0000
1000
0000
,
0100
0000
0000
0100
0000
0000
1000
0000
0100
0000
0010
0000
0001
0000
0000
0000
,
1000
0000
0100
0000
1000
0000
0100
0000
1000
0000
0000
1000
0000
0000
0010
0000
,
0100
0000
0001
0000
0100
0000
0001
0000
0100
0000
0000
0100
0000
0000
0001
0000
,
0010
0000
0001
0000
0010
0000
0001
0000
0010
0000
0000
0010
0000
0000
0001
0000
,
0100
0010
1000
0001
1000
0000
1001
0010
,
0100
0010
1000
0100
0010
0100
1000
0100
,
0010
0100
1000
0001
0010
0100
0010
0001
,
0001
0000
1000
0001
0101
0000
0001
1000
,
1010
0000
0000
0000
0010
0100
0010
0100
0010
0000
0100
0000
0010
0000
1000
0000
,
0100
0010
0001
0010
0100
0010
0001
0010
,
0100
1000
0100
0010
0100
1000
0100
0010
,
0110
0000
0010
0100
0110
0000
0001
0100
,
0101
0000
0010
0100
0001
1000
0010
0000
,
1001
0000
0010
0100
0010
0100
0001
1000
,
0001
1000
0010
0100
0010
0100
0001
1000
,
0001
0000
1000
0010
1010
0000
0010
0100
,
0110
0000
0000
0000
0010
0100
0010
0100
0010
0000
0100
0000
0020
0000
0000
0000
,
1030
1000
0001
0010
0100
0010
0001
0010
,
0100
1000
0100
0010
0100
1000
0100
0010
,
0010
0000
0001
1000
1001
0000
0010
0100
,
0110
0000
0001
0100
0010
1000
0001
0000
,
0100
0000
0010
0000
0100
0000
0010
0000
0100
0000
0000
0100
0000
0000
0010
0000
,
1000
0000
0000
1000
0000
0000
0100
0000
0010
0000
0001
0000
0010
0000
0010
0000
,
0000
0001
1000
0000
1000
0000
0100
0000
0010
0000
0000
0010
0000
0000
0001
0000
,
0100
0000
0000
0100
0000
0000
0010
0000
1000
0000
0001
0000
1000
0000
1000
0000
,
0010
0000
0100
0000
0001
0000
0100
0000
0010
0000
0000
0010
0000
0000
1000
0000
,
0100
0000
0000
0100
0000
0000
0010
0000
0001
0000
0010
0000
0100
0000
0100
0000
,
0010
0100
0000
0010
0000
0000
1000
0000
0100
0000
0000
1000
0000
0000
0001
0000
,
0100
0000
0000
0001
0000
0000
1000
0000
0100
0000
0010
0000
0001
0000
0000
0000
,
1000
0100
1000
0100
0010
0010
0010
0001
,
1000
0001
1000
0010
0100
0100
0100
0001
,
0010
0100
1000
0100
0010
0010
0010
0100
,
1000
0100
0010
0001
1000
1000
2000
0000
,
3010
0100
0010
0100
0001
1000
0001
1000
,
0010
0100
0010
0100
0001
1000
0001
1000
,
0010
0100
1000
0001
0100
0001
1000
0010
,
2002
0000
0000
3003
,
0020
0000
0000
0000
0230
0000
0000
0000
0310
0000
0000
0010
0000
0000
0100
0000
,
0001
0000
0000
0100
0000
0000
0010
0000
0001
0000
1000
0000
0010
0000
0100
0000
,
0002
0000
0000
0000
1003
0000
0000
0000
0100
0000
0000
0100
0000
0000
0010
0000
,
0001
0000
0000
0001
0000
0000
0010
0000
1000
0000
0001
0000
1000
0000
0100
0000
,
0010
0000
0001
0000
0010
0000
0001
0000
0001
0000
0000
0101
0000
0000
0010
0000
,
1000
0000
0000
1010
0000
0000
0100
0000
0001
0000
0010
0000
0100
0000
1000
0000
,
0100
0000
0100
0000
0010
0000
0000
0000
0200
0000
0000
0301
0000
0000
0010
0000
,
0010
0000
1000
0010
1000
0000
0100
0000
0010
0000
0100
0000
1000
0000
0100
0000
,
0010
0000
0100
0000
0010
0000
0100
0000
0010
0000
0000
0110
0000
0000
0100
0000
,
0001
0000
0000
0101
0000
0000
0010
0000
1000
0000
0010
0000
0100
0000
0001
0000
,
0100
0000
0010
0000
1000
0000
0100
0000
0011
0000
0000
0011
0000
0000
0100
0000
,
1100
0000
0000
1100
0000
0000
0010
0000
0001
0000
0010
0000
0001
0000
0020
0000
,
0031
0000
0010
0000
0100
0000
1000
0000
0100
0000
0000
0110
0000
0000
0001
0000
,
0010
0000
0000
0011
0000
0000
0100
0000
1000
0000
0100
0000
0010
0000
0001
0000
,
0100
0000
0010
0000
0100
0000
0010
0000
1000
0000
0000
1100
0000
0000
0010
0000
,
0001
0000
0000
0011
0000
0000
0100
0000
1000
0000
0100
0000
0010
0000
0001
0000
,
2002
0000
0000
0000
0000
3003
0000
0000
;

//---------------dance-single - ----------------
#NOTES:
     dance-single:
     :
     Medium:
     6:
     0.346630,0.403002,0.058771,0.016792,0.000000,289.000000,282.000000,7.000000,2.000000,0.000000,0.000000,0.346630,0.403002,0.058771,0.016792,0.000000,289.000000,282.000000,7.000000,2.000000,0.000000,0.000000:
0000
0000
0000
0000
,
0000
0000
0000
0000
,
0000
0000
0000
0000
,
0000
0000
0000
0000
,
1000
0010
1000
1000
,
0001
0001
0100
0010
,
0100
0010
1000
1000
,
0001
0001
0100
0100
,
0010
1000
0010
1000
0010
0000
0010
0000
,
0100
0001
0100
0001
0100
0000
0100
0000
,
0010
1000
0010
1000
0010
0000
0010
0000
,
0100
0001
1000
0001
,
1000
1000
0010
0100
,
0010
0100
0010
0100
,
0100
0001
1000
0001
,
1000
0010
0100
0010
,
0100
0100
0001
0001
,
0001
0001
0001
0001
,
1001
0010
0110
1000
,
1010
0001
0100
0010
,
1000
0000
0001
0100
0001
0100
0001
0100
,
0001
0100
0001
0100
0001
0100
0001
0100
,
0001
0000
1000
0010
1000
0000
0010
1000
,
0010
0000
1000
0010
1000
0000
0010
0100
,
0010
0100
0010
0100
0010
0100
0010
0000
,
0100
0010
0100
0010
0100
0010
0100
0010
,
0010
0000
1000
0001
1000
0000
0010
0000
,
0110
0001
1000
0001
,
1000
0000
0010
0000
0100
0010
0100
0000
,
0001
0001
1000
1000
,
0010
0000
0100
0000
0001
0100
0001
0000
,
1000
0000
1000
0000
0010
0100
0010
0000
,
1000
0000
0001
0100
0001
0000
0001
0000
,
1000
0010
1000
0000
0010
0100
0010
0000
,
1000
0000
0010
0000
0100
0010
0100
0000
,
0001
0100
0001
0000
1000
0010
1000
0000
,
0001
0000
0100
0000
0010
0010
0010
0000
,
1000
0000
0001
0000
0100
0100
0100
0000
,
0010
0000
1000
0000
1000
1000
1000
0000
,
0001
0000
0100
0000
0001
0001
0001
0000
,
1000
0000
0010
0000
0100
0001
0100
0000
,
0010
1000
0010
0000
0100
0001
0100
0000
,
0010
0010
1000
1000
,
2002
0000
0000
3003
,
0010
0000
0100
0000
0010
1000
0010
0000
,
0100
0000
0100
0000
0001
1000
0010
0000
,
1000
0000
0001
0000
0100
0010
1000
0000
,
0001
0100
0010
0000
1000
0001
1000
0000
,
0010
0000
0110
0000
0001
0100
0001
0000
,
1000
0010
1000
0000
0001
0010
0100
0000
,
1000
0000
0010
0000
0100
0001
0100
0000
,
0010
0000
1000
0000
0010
0100
0010
0100
,
0001
0000
1000
0000
0010
0100
0010
0000
,
0001
0000
0001
0000
1000
0010
0100
0000
,
0001
0000
1000
0000
0010
0100
0001
0000
,
1000
0010
0100
0000
0001
0000
0001
0000
,
1000
0000
0010
0000
0100
0001
0100
0000
,
0010
0000
1000
0000
0010
1000
0010
0000
,
0100
0000
0001
0000
1000
0010
0100
0000
,
0001
0100
0010
0000
1000
0000
0001
0000
,
1001
0000
0000
0000
;

//---------------dance-single - ----------------
#NOTES:
     dance-single:
     :
     Easy:
     3:
     0.250677,0.277064,0.067167,0.025188,0.000000,209.000000,201.000000,8.000000,3.000000,0.000000,0.000000,0.250677,0.277064,0.067167,0.025188,0.000000,209.000000,201.000000,8.000000,3.000000,0.000000,0.000000:
0000
0000
0000
0000
,
0000
0000
0000
0000
,
0000
0000
0000
0000
,
0000
0000
0000
0000
,
0001
0000
0000
0000
,
1000
0000
0000
0000
,
0001
0000
0000
0000
,
1000
0000
0000
0000
,
0001
0100
0001
0001
,
1000
0010
1000
1000
,
0001
0100
0001
0001
,
2000
0000
0000
3000
,
0010
0100
0100
0100
,
0100
0100
0100
0100
,
0000
0010
0010
0010
,
0010
0010
0010
0010
,
0010
1000
0001
1000
,
0001
1000
0001
1000
,
0001
1000
0110
0001
,
0110
1000
1000
1000
,
1000
0010
0100
0010
,
0100
0010
0100
0010
,
0100
0001
0101
1000
,
1010
0001
0100
0001
,
0100
0010
0010
0010
,
0010
0010
0010
0010
,
0010
1000
1010
0001
,
0101
2000
0000
3000
,
0010
0100
0001
0001
,
0100
0010
1000
1000
,
0010
0100
0001
0001
,
0100
0010
1000
1000
,
0010
0100
0001
0001
,
1000
0010
0100
0010
,
1000
0001
0100
0001
,
1000
0010
0100
0010
,
1000
1000
0001
0001
,
1000
1000
0010
0010
,
0100
0100
0001
0001
,
0100
0100
0010
0010
,
1000
0001
1000
0010
,
0100
0001
1000
0001
,
0200
0000
0000
0000
,
0310
0000
0000
0000
,
0010
0100
0010
0010
,
1000
1000
0001
1000
,
0001
1000
0010
0010
,
0100
0100
0001
1000
,
0010
0100
0010
0010
,
0100
0100
0001
1000
,
0001
1000
0010
0010
,
0100
0001
0100
0100
,
1001
0010
0100
0100
,
0010
0100
0010
0100
,
0001
1000
0001
0001
,
1000
0001
1000
0001
,
0100
0010
0100
0100
,
0010
0100
0010
0100
,
0001
1000
0001
0001
,
1000
0010
0100
0001
,
1001
0000
0000
0000
;

//---------------dance-single - Copied from----------------
#NOTES:
     dance-single:
     Copied from:
     Beginner:
     1:
     0.071965,0.125938,0.000000,0.025188,0.000000,60.000000,60.000000,0.000000,3.000000,0.000000,0.000000,0.071965,0.125938,0.000000,0.025188,0.000000,60.000000,60.000000,0.000000,3.000000,0.000000,0.000000:
0000
0000
0000
0000
,
0000
0000
0000
0000
,
0000
0000
0000
0000
,
0000
0000
0000
0000
,
0010
0000
0000
0000
,
0100
0000
0000
0000
,
0010
0000
0000
0000
,
0100
0000
0000
0000
,
0001
0000
0000
0000
,
1000
0000
0000
0000
,
0001
0000
0000
0000
,
1000
0000
0000
0000
,
0010
0000
0000
0000
,
0000
0000
0000
0000
,
0100
0000
0000
0000
,
0010
0000
0000
0000
,
0100
0001
0000
0000
,
0000
0000
0000
0000
,
0001
0000
0000
0000
,
0001
0000
0000
0000
,
1000
0000
0000
0000
,
1000
0000
0000
0000
,
1000
0000
0000
0000
,
1000
0000
0000
0000
,
0010
0000
0000
0000
,
0100
0000
0000
0000
,
0010
0000
0010
0000
,
0010
0000
0000
0000
,
0100
0000
0000
0000
,
0100
0000
0000
0000
,
0001
0000
0000
0000
,
0001
0000
0000
0000
,
1000
0000
0000
0000
,
1000
0000
0000
0000
,
0010
0000
0000
0000
,
0010
0000
0000
0000
,
1000
0000
1000
0000
,
1000
0000
1000
0000
,
1000
0000
1000
0000
,
0001
0000
0001
0000
,
0002
0000
0000
0003
,
0200
0000
0000
0000
0000
0000
0000
0300
,
0020
0000
0000
0000
0000
0000
0000
0030
,
0000
0000
0000
0000
,
0100
0000
0000
0000
,
0100
0000
0000
0000
,
0001
0000
0000
0000
,
0001
0000
0000
0000
,
1000
0000
0000
0000
,
1000
0000
0000
0000
,
0010
0000
0000
0000
,
0010
0000
0000
0000
,
0100
0000
0000
0000
,
0100
0000
0000
0000
,
0010
0000
0000
0000
,
0010
0000
0000
0000
,
1000
0000
0000
0000
,
1000
0000
0000
0000
,
0001
0000
0000
0000
,
0100
0000
0000
0000
,
0100
0000
0000
0000
;
