#TITLE:Venerated;
#SUBTITLE:;
#ARTIST:Tosh;
#TITLETRANSLIT:;
#SUBTITLETRANSLIT:;
#ARTISTTRANSLIT:;
#GENRE:;
#CREDIT:SupremeX;
#BANNER:Venerated-bn.png;
#BACKGROUND:Venerated-bg.png;
#LYRICSPATH:;
#CDTITLE:;
#MUSIC:Venerated.ogg;
#OFFSET:-4.194170;
#SAMPLESTART:88.080002;
#SAMPLELENGTH:12.000000;
#SELECTABLE:YES;
#BPMS:0.000000=138.000000
;
#STOPS:
;
#BGCHANGES:;
#KEYSOUNDS:;
#ATTACKS:;

//---------------dance-single - ----------------
#NOTES:
     dance-single:
     :
     Hard:
     8:
     0.413720,0.494324,0.216371,0.058254,0.008322,348.000000,322.000000,26.000000,7.000000,0.000000,0.000000,0.413720,0.494324,0.216371,0.058254,0.008322,348.000000,322.000000,26.000000,7.000000,0.000000,0.000000:
0000
0000
0000
0000
,
0000
0000
0000
0000
,
0000
0000
0000
0000
,
0000
0000
0000
0000
,
0000
1000
0100
1000
,
0001
0100
0001
1000
,
0100
0001
0100
1000
,
0001
2000
0000
0000
,
3000
0000
0001
0000
1000
0100
1000
0100
,
0010
0000
0001
0100
0001
1000
0010
0100
,
0010
0000
1000
0100
1000
0001
1000
0100
,
1000
0001
0000
1000
0010
0100
0010
1000
,
0010
0000
1000
0100
0010
0001
1000
0010
,
1000
0001
0000
1000
0100
0010
0100
1000
,
0100
0000
0010
0001
0010
0100
0010
0001
,
0010
0000
0100
0000
0000
0000
1000
0000
0100
0000
1000
0000
0100
0000
1000
0100
,
0000
0010
0001
0000
1000
0000
0010
0000
1000
0000
0001
0000
0010
0000
0001
0000
,
1000
0001
0010
0000
0100
1000
0100
1000
,
0100
0000
0010
0001
1000
0000
0010
0100
,
0001
1000
1100
0010
,
0101
0000
1000
0010
0100
0010
1000
0001
,
0100
0000
0100
0000
0010
0010
0000
1000
,
0100
0010
0001
0000
0010
0010
0000
0001
,
0010
0100
1000
0000
0100
0100
0000
0010
,
0010
0000
0001
0000
0001
0010
0100
0010
,
0100
0000
1000
0000
0010
0010
0100
0010
,
0100
0000
0001
0000
1000
0100
0010
0001
,
1000
0000
0100
0000
1000
0001
0100
0001
,
1000
1001
1010
1001
,
1100
0110
0011
1001
,
1010
0101
1001
1100
,
1001
0020
0000
0000
,
0030
2002
0000
0000
,
0000
3003
0000
0000
,
0000
0010
0000
0000
,
0000
0100
0000
0000
,
0000
0001
0000
0000
,
0000
1000
0000
0000
,
0000
0010
0000
0000
,
0000
1000
0000
0000
,
0000
0000
0001
0000
1000
0100
1000
0001
,
1000
0100
0100
0000
0010
0001
0010
0100
,
0010
0001
0001
0000
1000
0010
0100
0001
,
1000
0010
0010
0000
1000
0001
0100
0001
,
1000
0100
0100
0000
1000
0100
0010
0100
,
1000
0100
0010
0000
0001
0100
0010
1000
,
0001
1000
1000
0000
0001
0010
0100
1000
,
0001
0100
0002
0000
0000
0000
0000
0000
,
0000
0003
1001
0000
1001
0000
0100
0010
,
0100
0000
0001
0100
0010
0000
1000
0001
,
1000
0100
1000
0000
0101
0000
1001
0000
,
1100
0000
1010
0100
0010
0001
0010
0100
,
1000
0110
1001
1100
,
1001
0000
0100
0010
0100
0001
0100
0010
,
0100
0000
0001
0000
1000
0010
0100
0010
,
1000
0010
0100
0000
0001
0010
0100
1000
,
0010
0100
0001
1000
0100
0010
0001
1000
,
0100
0010
0001
1000
0100
0010
0100
1000
,
0100
0010
0001
0000
1000
0100
1000
0001
,
1000
0100
1000
0001
1000
0001
0100
0010
,
0010
0100
0100
0000
0001
0010
0001
1000
,
0001
0010
0001
1000
0010
0100
0001
0100
,
0010
0000
1000
0010
1000
0010
0100
0001
,
1000
0100
0010
0100
0010
0001
0010
0100
,
0010
0100
2002
0000
0000
0000
0000
0000
,
0000
0000
0000
0000
,
3003
0000
0000
0000
;

//---------------dance-single - ----------------
#NOTES:
     dance-single:
     :
     Medium:
     5:
     0.284135,0.357012,0.016644,0.041610,0.000000,239.000000,237.000000,2.000000,5.000000,0.000000,0.000000,0.284135,0.357012,0.016644,0.041610,0.000000,239.000000,237.000000,2.000000,5.000000,0.000000,0.000000:
0000
0000
0000
0000
,
0000
0000
0000
0000
,
0000
0000
0000
0000
,
0000
0000
0000
0000
,
0000
1000
0000
0010
,
0000
1000
0000
0001
,
0000
0100
0000
0001
,
0000
1000
0000
0000
,
0000
0010
0010
1000
,
1000
0001
0001
0100
,
0100
0001
1000
0001
,
1000
0010
0100
0010
,
0100
0001
0001
1000
,
1000
0010
0010
0100
,
0100
0001
1000
0001
,
1000
0010
0100
0010
,
0100
0000
0001
0000
1000
0000
0010
0100
,
0001
0000
1000
0000
0010
0000
0100
0001
,
1000
0010
0100
0001
,
1000
0010
0100
0000
0001
0001
0000
1000
,
0010
0000
0100
0000
0001
0001
0000
1000
,
0010
0100
0010
0000
1000
1000
0000
0001
,
0100
0010
0100
0000
0001
0001
0000
1000
,
0010
0100
0010
0000
1000
1000
0000
0001
,
0100
0010
1000
0010
,
0100
0000
0001
0000
1000
1000
0000
0010
,
0100
0001
1000
0010
,
0100
0001
0100
0000
0010
0010
0000
1000
,
0001
0000
0100
0000
0010
0010
0000
0100
,
0001
0000
0100
0000
0100
0100
0000
0010
,
1000
0010
0100
0001
,
1000
0001
1000
0010
,
0100
2002
0000
0000
,
0000
0000
0000
0000
,
3003
0000
0000
0000
,
0000
0010
0000
0000
,
0000
0100
0000
0000
,
0000
0001
0000
0000
,
0000
1000
0000
0000
,
0000
0001
0000
0000
,
0000
1000
1000
1000
,
1000
0010
0010
0000
0100
0000
0100
0000
,
0100
0100
0100
0000
0001
0000
0100
0000
,
0001
0001
0001
0000
1000
0000
0010
0000
,
0100
0001
1000
0001
,
1000
1000
1000
0000
0010
0000
0100
0000
,
0001
0100
0001
0000
1000
0000
0010
0000
,
1000
0010
0200
0000
0000
0000
0000
0000
,
0300
0000
0010
0000
1000
0000
0001
1000
,
0001
0000
1000
0000
0010
0000
0100
0001
,
1000
0010
0100
0100
,
0001
0000
1000
0000
0010
0000
1000
0001
,
0100
0010
0010
1000
,
1000
0000
0001
0000
0100
0000
0010
1000
,
0010
0100
0001
1000
,
0010
0000
0100
0001
1000
0000
0010
0100
,
0001
1000
1000
0010
,
0010
0000
0100
0000
0100
0000
0001
1000
,
0001
1000
1000
0010
,
0100
0000
0001
1000
0001
0000
1000
1000
,
1000
0010
0100
0001
,
1000
0000
1000
0000
0010
0000
0100
0001
,
1000
0010
0100
0001
,
1000
0000
0010
0100
0001
0000
1000
0010
,
1000
2002
0000
0000
,
0000
0000
0000
0000
,
3003
0000
0000
0000
;

//---------------dance-single - ----------------
#NOTES:
     dance-single:
     :
     Easy:
     3:
     0.206860,0.240609,0.000000,0.041610,0.000000,174.000000,174.000000,0.000000,5.000000,0.000000,0.000000,0.206860,0.240609,0.000000,0.041610,0.000000,174.000000,174.000000,0.000000,5.000000,0.000000,0.000000:
0000
0000
0000
0000
,
0000
0000
0000
0000
,
0000
0000
0000
0000
,
0000
0000
0000
0000
,
0000
0001
0000
0000
,
0000
1000
0000
0000
,
0000
0001
0000
0000
,
0000
2000
0000
0000
,
3000
0010
0100
0001
,
0001
1000
0010
1000
,
1000
0001
0100
0010
,
0010
1000
0001
0100
,
0100
0001
1000
0001
,
0001
1000
0001
1000
,
1000
0010
0100
0010
,
0010
0100
0010
0100
,
0100
0001
1000
0010
,
0100
0100
0001
1000
,
0010
0100
0001
1000
,
0010
0100
0001
1000
,
0001
1000
0100
0010
,
0001
1000
0010
0100
,
0001
1000
0100
0010
,
0001
1000
0010
0100
,
0001
1000
0001
0100
,
0010
0100
0001
0100
,
0010
1000
0010
0100
,
0010
1000
0010
0100
,
0010
0000
1000
0000
0001
0001
0000
0000
,
0000
0000
1000
0000
0010
0010
0000
0000
,
0000
0000
0100
0000
0001
0001
0000
0000
,
0000
1000
0000
0000
,
0000
0002
0000
0000
,
0000
0000
0000
0000
,
0003
2000
0000
0000
,
0000
0000
0000
0000
,
3000
0020
0000
0000
,
0000
0000
0000
0000
,
0030
0200
0000
0000
,
0000
0000
0000
0000
,
0300
0010
0000
0000
,
0000
1000
0000
0000
,
0000
0001
0000
0000
,
0000
1000
0000
0000
,
0000
0001
0000
1000
,
0000
0001
0000
1000
,
0000
0010
0000
0100
,
0000
0010
0000
0000
,
0000
1000
0010
1000
,
0010
0100
0001
0100
,
0001
1000
0001
1000
,
0001
0010
0100
1000
,
0010
0100
0010
0100
,
0010
1000
0001
1000
,
0001
1000
0100
0010
,
0001
1000
1000
0010
,
0010
0100
0001
0100
,
0010
1000
0010
1000
,
0001
0100
0010
1000
,
0001
1000
0010
0100
,
0100
0001
0001
1000
,
0010
1000
0001
0100
,
0010
1000
0001
1000
,
0010
0100
0100
0001
,
0001
1000
0000
0000
;

//---------------dance-single - Copied from----------------
#NOTES:
     dance-single:
     Copied from:
     Beginner:
     1:
     0.067765,0.106937,0.008322,0.008322,0.000000,57.000000,56.000000,1.000000,1.000000,0.000000,0.000000,0.067765,0.106937,0.008322,0.008322,0.000000,57.000000,56.000000,1.000000,1.000000,0.000000,0.000000:
0000
0000
0000
0000
,
0000
0000
0000
0000
,
0000
0000
0000
0000
,
0000
0000
0000
0000
,
0000
1000
0000
0000
,
0000
1000
0000
0000
,
0000
1000
0000
0000
,
0000
1000
0000
0000
,
0000
0001
0000
0000
,
0000
0100
0000
0000
,
0000
0001
0000
0000
,
0000
0100
0000
0000
,
0000
0010
0000
0000
,
0000
1000
0000
0000
,
0000
0010
0000
0000
,
0000
1000
0000
0000
,
0000
0001
0000
0000
,
0000
0001
0000
0000
,
0000
0001
0000
0000
,
0000
0001
0000
0000
,
0000
1000
0000
0000
,
0000
1000
0000
0000
,
0000
1000
0000
0000
,
0000
1000
0000
0000
,
0000
0010
0000
0000
,
0000
0100
0000
0000
,
0000
0010
0000
0000
,
0000
0100
0000
0000
,
0000
0001
0000
0000
,
0000
1000
0000
0000
,
0000
0001
0000
0000
,
0000
1000
0000
0000
,
0000
0110
0000
0000
,
0000
0000
0000
0000
,
0000
0000
0000
0000
,
0000
0000
0000
0000
,
0000
0001
0000
0000
,
0000
0000
0000
0000
,
0000
1000
0000
0000
,
0000
0000
0000
0000
,
0000
0001
0000
0000
,
0000
0001
0000
0000
,
0000
0001
0000
0000
,
0000
0001
0000
0000
,
0000
1000
0000
0000
,
0000
1000
0000
0000
,
0000
1000
0000
0000
,
0000
2000
0000
0000
,
3000
0010
0000
0000
,
0000
0100
0000
0000
,
0000
0010
0000
0000
,
0000
0100
0000
0000
,
0000
0010
0000
0000
,
0000
0100
0000
0000
,
0000
0010
0000
0000
,
0000
0100
0000
0000
,
0000
0001
0000
0000
,
0000
1000
0000
0000
,
0000
0001
0000
0000
,
0000
1000
0000
0000
,
0000
0001
0000
0000
,
0000
0001
0000
0000
,
0000
0001
0000
0000
,
0000
1000
0000
0000
,
0000
1000
0000
0000
;
