#TITLE:Vamos a Bailar;
#SUBTITLE:;
#ARTIST:Yooh;
#TITLETRANSLIT:;
#SUBTITLETRANSLIT:;
#ARTISTTRANSLIT:;
#GENRE:;
#CREDIT:SupremeX;
#BANNER:Vamos a Bailar-bn.png;
#BACKGROUND:Vamos a Bailar-bg.png;
#LYRICSPATH:;
#CDTITLE:;
#MUSIC:Vamos a Bailar.ogg;
#OFFSET:-2.186556;
#SAMPLESTART:31.740000;
#SAMPLELENGTH:12.000000;
#SELECTABLE:YES;
#BPMS:0.000000=138.009995
;
#STOPS:
;
#BGCHANGES:;
#KEYSOUNDS:;
#ATTACKS:;

//---------------dance-single - ----------------
#NOTES:
     dance-single:
     :
     Hard:
     9:
     0.509678,0.553616,0.099958,0.046135,0.261430,464.000000,451.000000,13.000000,6.000000,0.000000,0.000000,0.509678,0.553616,0.099958,0.046135,0.261430,464.000000,451.000000,13.000000,6.000000,0.000000,0.000000:
0000
0000
0000
0000
,
0000
0000
0000
0000
,
0000
0000
0000
0000
,
0000
0000
0000
0000
,
0000
0000
0000
0000
,
0000
1000
0100
0010
0001
0000
1000
0000
,
1000
0001
0010
0100
1000
0000
0001
0000
,
0001
1000
0100
0010
0001
0000
0100
0000
,
0100
0010
1000
0001
0100
0000
0010
0000
,
0010
1000
0001
0100
0010
0000
0100
0000
,
0100
0001
1000
0010
0100
0000
0001
0000
,
0001
1000
0100
0010
0001
0000
1000
0000
,
1000
0010
0100
0001
1000
0000
0001
0000
,
0001
1000
0100
1000
0000
0010
1000
0010
,
0000
0100
0001
0100
0000
0010
0100
0001
,
1000
0010
0100
0001
1000
0010
0100
0001
,
1000
0110
0101
1010
,
1001
0000
0000
0000
0001
0000
0100
0000
0010
1000
0000
1000
0000
0000
0000
0000
,
0001
0000
0010
0000
0100
0000
1000
0000
0010
0100
0000
0100
0000
0000
0000
0000
,
0001
0000
0010
0000
0100
0000
1000
0000
0100
0010
0000
0010
0000
0000
0001
0000
,
1000
0100
0000
0100
0000
0000
0010
0000
0001
0010
0000
0010
0000
0000
0100
0000
,
1000
0000
0001
0000
0100
0000
0001
0000
1000
0100
0000
0100
0000
0000
1000
0000
,
0001
0000
0010
0000
0100
0000
1000
0000
0100
0010
0000
0010
0100
0001
0100
0001
,
0100
0010
1000
0001
0001
0010
0100
1000
,
0001
1000
0010
0100
0100
0002
0000
0000
,
1003
0000
0000
0000
0010
0000
0100
0000
0010
0100
0000
0100
0000
0000
0000
0000
,
0001
0000
1000
0000
0001
0000
1000
0000
0100
1000
0000
1000
0000
0000
0000
0000
,
0001
0000
0100
0000
0010
0000
0100
0000
0001
0010
0000
0010
0000
0000
0100
0000
,
1000
0100
0000
0100
0000
0000
0010
0000
0001
0010
0000
0010
0000
0000
0100
0000
,
1000
0000
0100
0000
0010
0000
0001
0000
0010
0100
0000
0100
0000
0000
1000
0000
,
0100
0000
0010
0000
0100
0000
1000
0000
0100
0010
0000
0010
0001
0100
0001
0100
,
0001
0010
0100
1000
1000
0100
0010
0100
,
1000
0100
0010
0100
0000
0001
0100
0001
,
1000
0010
0100
0010
1000
0000
0010
0000
,
1000
0100
1000
0100
1000
0100
1000
0000
,
0001
0010
0100
1000
0010
0000
1000
0000
,
0001
0010
0001
0010
0001
0010
0001
0000
,
1000
0100
0010
0001
0010
0000
1001
0000
,
0100
0010
0100
0010
0100
0010
0100
0100
,
0000
0001
0010
0100
1000
0000
0110
0000
,
2002
0000
0000
0000
0000
0003
3001
0001
,
1000
0000
0010
0010
0100
0000
0001
1000
,
0001
0100
0010
1000
0001
0000
1000
1000
,
0010
0000
0100
0100
0001
0000
1000
0100
,
0010
0001
0010
0100
1000
0000
0100
0100
,
1000
0000
0001
0001
0010
0000
0100
1000
,
0100
0010
0001
0010
0100
0000
1000
0100
,
0010
0001
1000
0010
0100
0000
0001
0100
,
0010
1000
0001
0100
0010
0000
1000
0000
,
0001
1000
0001
1000
,
0020
0000
0000
0030
,
1001
0000
0000
0000
0001
0000
0100
0000
0010
1000
0000
1000
0000
0000
0000
0000
,
0001
0000
0010
0000
0100
0000
1000
0000
0010
0100
0000
0100
0001
0010
0001
0010
,
0001
0000
0010
0000
0100
0000
1000
0000
0100
0010
0000
0010
0000
0000
0001
0000
,
1000
0100
0000
0100
0000
0000
0010
0000
0001
0010
0000
0010
0000
0000
0100
0000
,
1000
0000
0001
0000
0100
0000
0001
0000
1000
0100
0000
0100
0000
0000
1000
0000
,
0001
0000
0010
0000
0100
0000
1000
0000
0100
0010
0000
0010
0100
0001
0100
0001
,
0100
0010
1000
0001
0001
0010
0100
1000
,
0001
1000
0010
0100
0100
0000
0110
0000
,
1001
0000
0000
0000
0001
0000
0100
0000
0010
1000
0000
1000
0000
0000
0000
0000
,
0001
0000
0010
0000
0100
0000
1000
0000
0010
0100
0000
0100
0001
0010
0001
0010
,
0001
0000
0010
0000
0100
0000
1000
0000
0100
0010
0000
0010
0000
0000
0001
0000
,
1000
0100
0000
0100
0000
0000
0010
0000
0001
0010
0000
0010
0000
0000
0100
0000
,
1000
0000
0001
0000
0100
0000
0001
0000
1000
0100
0000
0100
0000
0000
1000
0000
,
0001
0000
0010
0000
0100
0000
1000
0000
0100
0010
0000
0010
0100
0001
0100
0001
,
0100
0010
1000
0001
0001
0010
0100
1000
,
0001
1000
0010
0100
0100
0000
0110
0000
,
1001
0010
1000
0001
,
0100
0010
1000
0001
,
0100
0010
1000
0001
,
0100
0010
1000
0001
,
2002
0000
0000
0000
,
3003
0000
0000
0000
;

//---------------dance-single - ----------------
#NOTES:
     dance-single:
     :
     Medium:
     5:
     0.353699,0.382149,0.099958,0.061513,0.000000,322.000000,309.000000,13.000000,8.000000,0.000000,0.000000,0.353699,0.382149,0.099958,0.061513,0.000000,322.000000,309.000000,13.000000,8.000000,0.000000,0.000000:
0000
0000
0000
0000
,
0000
0000
0000
0000
,
0000
0000
0000
0000
,
0000
0000
0000
0000
,
0000
0000
0000
0000
,
0010
0000
0100
0000
0010
0000
1000
0001
,
1000
0000
0100
0000
0100
0000
1000
0100
,
1000
0000
0001
0000
1000
0000
0010
0100
,
0010
1000
0001
0100
,
0001
1000
0010
0100
0010
0000
1000
0000
,
1000
0100
0010
0001
1000
0000
0010
0000
,
0100
0000
0001
1000
0001
0000
0100
0000
,
0001
1000
0010
0100
0001
0000
1000
0000
,
0010
1000
1000
0001
,
0001
0100
0100
0010
,
1010
0101
1001
0110
,
0001
0100
0010
1000
,
0001
0000
1000
0000
0010
0100
0010
0000
,
1000
0001
1000
0000
0010
0100
0010
0000
,
1000
0000
0001
0000
1000
0100
1000
0000
,
0001
0100
0001
0000
1000
0100
0010
0000
,
0001
0000
0010
0000
0001
0100
0001
0000
,
1000
0000
0010
0000
0100
0001
1000
0000
,
0001
0100
0001
1000
,
0010
0100
0100
0100
,
0001
0000
1000
0000
0010
0100
0010
0000
,
1000
0000
0001
0000
1000
0010
1000
0000
,
0001
0000
0100
0000
0010
1000
0010
0000
,
1000
0100
0010
0000
0001
0010
0100
0000
,
1000
0000
0100
0000
1000
0001
1000
0000
,
0001
0000
0010
0000
0001
1000
0001
0000
,
1000
0100
1000
0100
,
0010
0011
0011
1100
,
1100
0010
0001
1000
,
0220
0000
0000
0330
,
0001
1000
0001
1000
,
0202
0000
0000
0303
,
0010
1000
0001
1000
,
2020
0000
0000
3030
,
0100
0001
1000
0001
,
2002
0000
0000
0000
0000
3003
0000
0000
,
0001
0000
0100
0010
0100
0000
0001
0000
,
1000
0000
0001
0010
0100
0000
1000
0000
,
0100
0000
1000
0100
0010
0000
0001
0010
,
0100
0000
1000
0001
0100
0000
0010
1000
,
0100
0000
0010
0001
1000
0000
0001
0100
,
0010
0000
1000
0001
1000
0000
0010
0100
,
0010
0000
1000
0010
0100
0000
0001
0100
,
0010
1000
0100
1000
,
0001
1000
0010
0010
,
0100
0100
0100
0100
,
0001
1000
0010
0000
1000
0100
0000
0000
,
0100
1000
0100
0010
0001
0010
0000
0000
,
0100
0000
1000
0000
0100
0010
0100
0000
,
0001
1000
0010
1000
,
0001
0000
0100
0000
0001
1000
0001
0000
,
0100
0000
0001
0000
1000
0100
1000
0000
,
0001
1000
0100
1000
,
0001
0010
0100
1000
0100
0000
1000
0000
,
0001
0000
1000
0000
0100
0010
0100
0000
,
0010
0001
0010
0000
0100
1000
0100
0000
,
0010
0000
0001
0000
1000
0001
0100
0000
,
0010
1000
0010
0000
0100
0001
0100
0000
,
0001
0000
1000
0000
0001
1000
0100
0000
,
0010
0000
0001
0000
1000
0010
0100
0000
,
0001
0100
0010
1000
0001
0000
0000
0000
,
0000
1000
0100
1000
0000
0001
1000
0001
,
0100
0010
1000
1000
,
0001
0100
0010
1000
,
0001
1000
0010
0100
,
0001
1000
0010
0100
,
1001
0000
0000
0000
;

//---------------dance-single - ----------------
#NOTES:
     dance-single:
     :
     Easy:
     4:
     0.268021,0.304489,0.123026,0.115337,0.000000,244.000000,228.000000,16.000000,15.000000,0.000000,0.000000,0.268021,0.304489,0.123026,0.115337,0.000000,244.000000,228.000000,16.000000,15.000000,0.000000,0.000000:
0000
0000
0000
0000
,
0000
0000
0000
0000
,
0000
0000
0000
0000
,
0000
0000
0000
0000
,
0000
0000
0000
0000
,
0000
1000
0001
1000
,
0010
0100
0001
1000
,
0001
1000
0010
0100
,
0001
1000
0010
0000
,
1000
0010
1000
0001
,
0100
0001
1000
0010
,
1000
0001
0100
0001
,
1000
0010
1000
0001
,
0100
0010
0100
0010
,
0100
0010
0100
0010
,
0100
0100
0100
0100
,
0020
0000
0000
0030
,
1000
1000
1000
1000
,
0001
0001
0001
0001
,
1000
1000
1000
1000
,
0001
0001
0001
0001
,
0100
0010
0100
0010
,
0100
0010
0100
0010
,
2002
0000
0000
0000
0000
3003
0000
0000
,
0220
0000
0000
0000
0000
0330
0000
0000
,
0001
1000
0010
0100
,
0001
1000
0010
0100
,
0001
1000
0010
0100
,
0001
1000
0010
0100
,
0001
0010
0100
1000
,
0001
0010
0100
1000
,
0001
0010
0100
1000
,
0001
1000
0001
1000
,
0010
0010
0010
0010
,
2002
0000
0000
3003
,
0100
0100
0100
0100
,
2002
0000
0000
3003
,
0001
0001
0001
0001
,
0220
0000
0000
0330
,
1000
1000
1000
1000
,
0220
0000
0000
0330
,
0001
1000
0001
1000
,
0010
0100
0101
0010
,
1000
0001
1000
0010
,
0100
0001
1010
0100
,
0100
0010
0010
1000
,
0001
1000
1001
0010
,
0100
0010
0100
0001
,
1000
0001
0110
1000
,
1000
1000
1000
1000
,
0001
0001
0001
0001
,
1000
0010
0100
0001
,
1000
0010
0100
0001
,
1000
0010
0100
0001
,
1000
0010
0100
0001
,
1000
0100
0010
0001
,
1000
0100
0010
0001
,
1000
1000
1000
0000
,
0000
0010
0010
0000
,
0100
0001
1000
0010
,
0100
0001
1000
0010
,
0100
0001
1000
0010
,
0100
0001
1000
0010
,
1000
1000
1000
1000
,
0001
0001
0001
0001
,
0100
0100
0100
0100
,
0010
0010
0010
0010
,
1001
0000
0000
0000
,
1010
0000
0000
0000
,
0101
0000
0000
0000
,
1010
0000
1001
0000
,
0220
0000
0000
0000
,
0330
0000
0000
0000
;

//---------------dance-single - Copied from----------------
#NOTES:
     dance-single:
     Copied from:
     Beginner:
     2:
     0.124124,0.163778,0.069202,0.000000,0.000000,113.000000,104.000000,9.000000,0.000000,0.000000,0.000000,0.124124,0.163778,0.069202,0.000000,0.000000,113.000000,104.000000,9.000000,0.000000,0.000000,0.000000:
0000
0000
0000
0000
,
0000
0000
0000
0000
,
0000
0000
0000
0000
,
0000
0000
0000
0000
,
0000
0000
0000
0000
,
0001
0000
0000
0000
,
0000
0100
0000
0000
,
0000
0010
0000
0000
,
0000
1000
0000
0000
,
0000
0001
0000
0000
,
0000
0000
0100
0000
,
0000
0000
0010
0000
,
0000
1000
0000
0000
,
0000
0001
0000
1000
,
0000
0001
0000
1000
,
0000
0000
0000
0000
,
0010
0010
0010
0010
,
0100
0000
0000
0000
,
0100
0000
0000
0000
,
0010
0000
0000
0000
,
0010
0000
0000
0000
,
1000
0000
0000
0000
,
1000
0000
0000
0000
,
0001
0000
0000
0000
,
0001
0000
0000
0000
,
0100
0000
0100
0000
,
0100
0000
0100
0000
,
0010
0000
0010
0000
,
0010
0000
0010
0000
,
1000
0000
1000
0000
,
1000
0000
1000
0000
,
0001
0000
0001
0000
,
0001
0000
0001
0000
,
1000
0000
0000
0000
,
1001
0000
0000
0000
,
0001
0000
0000
0000
,
0110
0000
0000
0000
,
1000
0000
0000
0000
,
1001
0000
0000
0000
,
0001
0000
0000
0000
,
0110
0000
0000
0000
,
1000
0000
0010
0000
,
1000
0000
0010
0000
,
1000
0000
0010
0000
,
1000
0000
0010
0000
,
0100
0000
0001
0000
,
0100
0000
0001
0000
,
0100
0000
0001
0000
,
0100
0000
0001
0000
,
1000
0000
0001
0000
,
1000
0000
0000
0000
,
0010
0000
0010
0000
,
0010
0000
0010
0000
,
0100
0000
0100
0000
,
0100
0000
0100
0000
,
0001
0000
0001
0000
,
0001
0000
0001
0000
,
1000
0000
1000
0000
,
1000
0000
1000
0000
,
0010
0000
0010
0000
,
0010
0000
0010
0000
,
0100
0000
0100
0000
,
0100
0000
0100
0000
,
0001
0000
0001
0000
,
0001
0000
0001
0000
,
1000
0000
1000
0000
,
1000
0000
1000
0000
,
1001
0000
0000
0000
,
1001
0000
0000
0000
,
1001
0000
0000
0000
,
1001
0000
0000
0000
,
0110
0000
0000
0000
;
