#TITLE:SILVER DREAM (Twinkle Mix);
#SUBTITLE:;
#ARTIST:jun;
#TITLETRANSLIT:;
#SUBTITLETRANSLIT:;
#ARTISTTRANSLIT:;
#GENRE:;
#CREDIT:SupremeX;
#BANNER:SILVER DREAM-bn.png;
#BACKGROUND:SILVER DREAM-bg.png;
#LYRICSPATH:;
#CDTITLE:;
#MUSIC:SILVER DREAM (Twinkle Mix).ogg;
#OFFSET:-2.943943;
#SAMPLESTART:33.419998;
#SAMPLELENGTH:12.000000;
#SELECTABLE:YES;
#BPMS:0.000000=192.000000
,195.500000=96.000000
,203.500000=192.000000
;
#STOPS:163.000000=0.155000,
250.500000=0.155000
;
#BGCHANGES:;
#KEYSOUNDS:;
#ATTACKS:;

//---------------dance-single - ----------------
#NOTES:
     dance-single:
     :
     Hard:
     10:
     0.714468,0.983552,0.835184,0.481459,0.127734,509.000000,424.000000,85.000000,49.000000,0.000000,0.000000,0.714468,0.983552,0.835184,0.481459,0.127734,509.000000,424.000000,85.000000,49.000000,0.000000,0.000000:
0000
0000
0000
0000
,
0000
0000
0000
0000
,
0000
0000
0000
0000
,
0000
0000
0000
0000
,
2010
0000
3002
0000
0203
0000
0310
0100
,
0000
0010
1000
1010
0000
0100
0010
0110
,
0000
0000
0001
0010
0000
0000
0010
0001
0000
0000
1000
0000
0100
0000
1000
0000
,
0000
0000
0100
0000
0010
0000
0100
0000
0010
0001
1000
0010
1000
0000
0000
0000
,
0001
0100
0010
0100
0002
0000
0103
1001
,
0000
1001
0010
0100
0120
0000
2030
0000
,
3000
0100
0010
0110
0200
0000
0310
0110
,
0000
1010
0000
0001
0012
0000
0023
0000
,
0030
0001
1000
0100
0100
0000
1000
0100
,
0000
0110
0000
0011
0011
0000
1000
0100
,
2000
0000
3200
2300
0000
3000
0100
0020
,
0032
0000
0000
0000
0103
0000
0010
1000
0010
0100
0000
0000
0101
0000
0000
0000
,
0001
0010
0100
1000
1001
0000
1100
0100
,
0000
0011
0000
1000
2100
0000
3020
0000
,
0030
1000
0100
0010
0001
0000
1000
1200
,
0000
0320
0000
0031
0011
0000
0110
0000
,
0000
1000
1100
0001
0001
0000
1000
1100
,
0000
0110
0000
1001
1001
0000
0010
0100
,
0020
0000
1030
1000
0100
0010
0001
0200
,
0320
0000
0000
1000
1030
0000
0010
1000
,
0010
0000
1000
0001
0000
0100
0010
0100
,
0001
0000
0010
0000
0100
0000
0010
1000
0100
0000
1000
0000
0010
0000
0100
0010
,
0100
0010
0100
0001
1000
0001
1000
0100
,
1100
0000
0010
0210
0000
0320
0000
0130
,
0000
1000
0010
1010
0110
0000
0100
0001
,
0100
0000
1010
1010
0000
0001
0000
1000
,
1000
0000
0110
0110
0000
0001
0010
0100
,
0002
0000
0103
2100
0000
3000
0100
0010
,
0100
0010
0001
0010
0100
0010
0100
1000
,
0100
0000
1100
0000
0110
0000
0001
2000
,
0000
3001
0000
0110
0110
0000
1000
0100
,
0010
0000
0101
0000
0010
1000
0001
0100
,
0010
1000
0001
0110
0000
1000
0100
1000
,
0200
0000
0320
0000
0031
0010
0010
0100
,
0000
1000
0100
2000
0000
3000
0000
0001
,
0200
0000
0320
0000
1030
0100
1000
0001
,
1000
0100
1001
1001
0000
0000
0000
0001
,
0010
0100
1000
0100
1000
1100
0100
0000
,
0010
0110
0100
0000
0001
0101
0100
0000
,
0010
1010
1000
0000
0001
1001
1000
0001
,
0010
0100
1000
0100
1000
0100
0100
0020
,
0000
0032
0000
1003
1000
0001
1001
0000
,
1000
0100
1100
0000
0001
0010
0011
0000
,
1000
0100
1100
0000
0010
0100
0110
0000
,
0001
0010
0100
1000
0001
0100
0001
2000
,
0100
0100
0000
3001
0000
0002
0000
0100
0100
0100
0103
0010
1000
0001
0100
0000
,
0010
1010
0000
0110
0000
0101
0000
1000
0010
0100
0001
0000
1000
0100
1100
0000
,
0000
0010
0110
0000
0011
0000
1000
1000
,
0000
0100
1100
0000
0001
0100
0010
2000
,
0000
0000
3100
0000
0200
0000
0000
0000
0310
0000
0010
0000
0000
0000
0001
0100
,
0001
0000
0100
0010
0100
0000
0010
1000
0010
0000
0100
0010
0100
0000
0001
0000
,
1000
1100
0000
0110
0000
0011
0002
0000
,
0203
0000
0310
0010
1000
0100
1000
0020
,
0000
0230
0000
0301
0010
0100
1000
1100
,
1000
0010
0110
0000
0001
0010
0100
2000
,
0000
3200
0000
0310
0100
0010
0100
0000
,
0001
0101
0010
1010
0000
0110
0000
1001
,
0000
0200
0000
0310
0100
0010
1000
0001
,
1000
0000
0010
0000
0102
0000
0000
0000
0000
0003
0000
0000
0010
0000
0001
0000
,
0010
0100
1000
0100
0110
0010
1000
0001
,
1001
1000
0010
1000
1010
0010
0100
0001
,
0101
0010
0100
1000
1100
0100
0010
0001
,
0010
0100
0010
0001
0010
0000
2000
0000
,
3200
0000
1300
0100
1100
0100
0000
0001
,
0101
0001
0000
1000
1100
1000
0000
0010
,
0110
0000
0100
0000
0010
1000
0001
0000
1000
0000
0010
0000
0000
0000
1001
0000
,
1001
1001
0000
0110
0110
0220
0000
0000
,
0000
0000
0330
0000
;

//---------------dance-single - ----------------
#NOTES:
     dance-single:
     :
     Medium:
     8:
     0.547431,0.763333,0.167037,0.009826,0.054041,390.000000,373.000000,17.000000,1.000000,0.000000,0.000000,0.547431,0.763333,0.167037,0.009826,0.054041,390.000000,373.000000,17.000000,1.000000,0.000000,0.000000:
0000
0000
0000
0000
,
0000
0000
0000
0000
,
0000
0000
0000
0000
,
0000
0000
0000
0000
,
1000
0000
0100
0000
1000
0001
0100
0001
,
0000
1000
0100
1000
0000
0001
1000
0010
,
0000
1000
0001
0100
0000
0001
0010
0100
,
0000
1000
0100
0010
0000
0001
1000
0001
,
0000
1000
0010
0100
0001
0000
1000
0100
,
0000
1000
0000
0010
0100
0000
0110
0000
,
0000
0001
0010
0100
1000
0000
0010
0100
,
0000
0010
0000
1000
0001
0000
0110
0000
,
0000
1000
0100
0010
0001
0000
1000
0100
,
0000
1000
0000
0100
0010
0000
0001
1000
,
1000
0000
0010
0100
0000
0000
0100
0000
,
0001
0000
0010
0010
0000
0000
0000
0000
,
1000
0100
1000
0001
0000
0000
0100
0010
,
0000
1000
0000
0010
0100
0000
0110
0000
,
0000
0001
0010
0100
1000
0000
0010
0100
,
0000
0110
0000
1000
0010
0000
1010
0000
,
0000
0100
0001
0100
0001
0000
1000
0010
,
0000
0100
0000
0001
1000
0000
0001
1000
,
0001
0000
0010
0100
0000
0010
1000
0010
,
0200
0000
0000
0010
0310
0000
0000
0000
,
0000
0000
0000
1000
0000
1000
0010
0100
,
0010
0000
0100
0001
0000
0101
0000
1010
,
0000
0100
0001
0100
,
0010
0000
1000
0001
0000
0110
0000
1000
,
0000
0010
0100
0010
1000
0000
0001
0010
,
0100
0000
1000
0100
0000
1100
0000
0010
,
0001
0000
0010
0001
0000
0100
1000
0100
,
1000
0000
0100
0010
0000
0100
0001
0000
,
0010
0100
1000
0100
0010
0001
0100
0010
,
0100
0000
1010
0000
0101
0000
0000
1000
,
0000
1000
0000
0010
0010
0000
0100
0000
,
0010
0000
1000
0000
0100
0010
0100
0001
,
0010
1000
0100
1000
0000
0010
0100
0010
,
0100
0000
0100
0000
0001
1000
0001
1000
,
0000
0010
0100
0010
0000
0000
1000
0000
,
0001
0000
1000
0000
0010
1000
0010
0100
,
0001
1000
0010
1000
0000
0000
1001
0000
,
0010
0100
0000
0001
0000
0100
0010
0000
,
1000
0001
1000
0000
0001
0100
0001
0000
,
1000
0010
1000
0000
0010
0100
0010
0000
,
1000
0001
0000
1010
0000
0101
0000
0010
,
0000
0010
0000
1000
0010
0100
0010
0000
,
1000
0001
1000
0000
0010
0100
0010
0000
,
1000
0001
1000
0000
0010
0100
0010
0000
,
1000
0001
0100
0010
1000
0010
0100
0001
,
0100
0010
0000
0010
0000
1000
0000
0001
0010
0100
1000
0000
0010
0000
0100
0000
,
0010
0100
0000
0100
0000
0010
0000
1000
0100
1000
0100
0000
0010
0001
0010
0000
,
0000
0100
1000
0000
1000
0000
0100
0010
,
0000
0001
0100
0000
0100
0010
1000
0001
,
0000
1000
0010
0000
0000
1000
0000
0001
,
0100
0010
0100
0010
0100
0010
0100
0010
,
0000
1001
0000
1001
0000
0010
0100
0000
,
0001
0000
0100
0010
0000
1000
0000
0001
,
0000
1000
0000
0001
0100
0010
0100
0010
,
1000
0010
1000
0000
0001
0010
0100
0001
,
0000
1001
0000
0010
0100
0010
0100
0000
,
0010
1000
0010
1000
0000
0001
0000
0100
,
0000
0010
0000
0100
0010
1000
0010
0100
,
0001
0001
0001
0000
0000
0000
0010
0100
,
0001
0100
0010
1000
0100
0100
0000
0010
,
0001
0001
0000
0010
0100
0100
0000
1000
,
0100
0100
0000
0010
0001
0001
0000
0100
,
0010
0010
1000
0000
1000
0000
0001
0000
,
0001
0000
1000
0100
1000
0001
0000
0100
,
0010
0100
0000
0010
1000
0010
0000
0100
,
0001
0100
0000
0010
1000
0010
0000
0100
,
0100
0100
0000
0001
0001
0001
0000
0000
;

//---------------dance-single - ----------------
#NOTES:
     dance-single:
     :
     Easy:
     5:
     0.402853,0.449464,0.186688,0.068780,0.000000,287.000000,268.000000,19.000000,7.000000,0.000000,0.000000,0.402853,0.449464,0.186688,0.068780,0.000000,287.000000,268.000000,19.000000,7.000000,0.000000,0.000000:
0000
0000
0000
0000
,
0000
0000
0000
0000
,
0000
0000
0000
0000
,
0000
0000
0000
0000
,
1000
0000
1000
0000
0010
0100
0010
0100
,
0000
0001
1000
0001
0000
1000
0010
1000
,
0000
0001
0100
0001
0000
0000
1000
0000
,
0010
1000
0001
0100
,
0000
0001
1000
0001
1000
0000
0001
0000
,
0100
0001
1000
0010
,
0000
0100
0001
0100
0001
0000
1000
0000
,
0010
1000
0100
0100
,
0000
0010
0001
0010
0001
0000
1000
0000
,
0100
0000
1000
0000
0001
0000
1000
0100
,
1000
0001
0010
0100
,
1000
0010
1000
0001
,
0100
0001
1000
0100
,
0010
0001
0110
0110
,
1000
0100
0010
0001
,
0010
0100
1100
0110
,
0001
1000
0100
1000
,
0001
0110
0110
1000
,
0001
0010
0100
1000
,
0200
0000
0320
0000
,
0000
0030
0000
0000
0001
0000
0001
0000
,
0010
0100
1000
0010
,
0100
0010
1000
0010
,
0100
0001
0100
0000
0010
1000
0010
0000
,
1000
0001
1000
0000
0100
0000
0010
0000
,
0001
0000
0010
0010
0000
0000
0100
0000
,
1000
0000
0100
0100
0000
0000
0010
0000
,
0001
0100
0001
0100
,
1001
1001
1001
1001
,
0010
0100
0100
0010
,
1000
0010
0100
0001
,
0010
0000
0100
0000
1000
0000
0010
0100
,
0010
0100
0010
0100
0000
0000
0001
0000
,
0010
0100
1000
0100
,
0010
0001
0010
0100
,
1000
1000
0010
0010
,
0100
0001
0100
0001
0100
0000
0000
0010
,
0000
1000
0000
0001
0000
0001
0000
0100
,
0000
0100
0000
0010
0000
0010
0000
1000
,
0000
1000
0000
0001
0000
0001
0000
1000
,
0000
1000
0000
0100
0000
0010
0000
0001
,
0000
0010
0000
0100
0000
1000
0000
1000
,
0000
0100
0000
0100
0000
0010
0000
0010
,
0000
0001
0000
0001
0000
1000
0000
1000
,
0000
0010
0000
0100
0000
0010
0000
2002
,
0000
0000
0000
0000
3003
0000
0000
0220
,
0000
0000
0000
0000
0000
0330
0000
0001
,
0000
1000
0000
0010
0000
1000
0000
0001
,
0000
0001
0000
1000
0000
0010
0000
1000
,
0000
0000
0001
0000
0000
1000
0000
0010
,
0100
0010
0100
0010
0100
0010
0100
0001
,
0000
0001
0000
0001
0000
0001
0000
1000
,
0000
1000
0000
1000
0000
1000
0000
0010
,
0000
0100
0000
0001
0000
1000
0000
0010
,
0000
1000
0000
0001
0000
0100
0000
1001
,
0000
0010
0000
0100
0000
0010
0000
0100
,
0000
1001
0000
1001
0000
0000
0000
0110
,
0000
0000
0000
0101
0000
0000
0000
0010
,
0000
1000
0000
0200
0000
0300
0010
0000
,
0010
0001
1000
0100
,
1000
0001
1000
0100
,
1000
0001
1000
0100
,
1000
0001
0100
0001
,
0001
1000
0010
0100
,
0010
1000
0010
0100
,
0001
0000
1000
0000
0000
0000
0000
0110
,
0000
0000
0000
1001
0000
0000
0000
0000
;

//---------------dance-single - Copied from----------------
#NOTES:
     dance-single:
     Copied from:
     Beginner:
     3:
     0.221780,0.311720,0.098257,0.000000,0.000000,158.000000,148.000000,10.000000,0.000000,0.000000,0.000000,0.221780,0.311720,0.098257,0.000000,0.000000,158.000000,148.000000,10.000000,0.000000,0.000000,0.000000:
0000
0000
0000
0000
,
0000
0000
0000
0000
,
0000
0000
0000
0000
,
0000
0000
0000
0000
,
1000
0000
0001
0000
,
1000
0000
0001
0000
,
1000
0000
0001
0000
,
1000
0000
0001
0000
,
0000
0000
0100
0000
,
0100
0000
0100
0000
,
0000
0000
0010
0000
,
0010
0000
0010
0000
,
0000
0000
1000
0000
,
1000
0000
1000
0000
,
0001
0000
0000
0000
,
1001
0000
0000
0000
,
0010
0000
0100
0000
,
0010
0000
0010
0000
,
1000
0000
0001
0000
,
1000
0000
1000
0000
,
0001
0000
0100
0000
,
0001
0000
0001
0000
,
0100
0000
0010
0000
,
0110
0000
0110
0000
,
0000
0000
0000
0000
,
1000
0000
0001
0000
,
1000
0000
0001
0000
,
1000
0001
1000
0001
,
1000
0001
1000
0000
,
0010
0000
0100
0000
,
0010
0000
0100
0000
,
0010
0100
0010
0100
,
0010
0000
1000
0000
,
0001
0001
0001
0000
,
1000
1000
1000
0000
,
0010
0010
0010
0000
,
0100
0100
0100
0000
,
0001
0001
0001
0000
,
1000
1000
1000
0000
,
0001
0000
1001
0000
,
1000
0000
0000
0000
1001
0000
0000
0010
,
0000
0000
0000
0100
0000
0000
0000
0010
,
0000
0000
0000
0100
0000
0000
0000
0010
,
0000
0000
0000
0100
0000
0000
0000
0001
,
0000
0000
0000
1000
0000
0000
0000
0010
,
0000
0000
0000
0100
0000
0000
0000
0001
,
0000
0000
0000
1000
0000
0000
0000
0010
,
0000
0000
0000
0100
0000
0000
0000
0000
,
0000
0000
0001
0000
0000
0000
0000
1000
,
0000
0000
0110
0000
0000
0000
0000
0001
,
0000
0000
1001
0000
0000
0000
0000
1000
,
0000
0000
0000
0010
0000
0000
0000
0100
,
0000
0000
0000
0001
0000
0000
0000
1000
,
0000
0000
0000
0001
0000
0000
0000
0100
,
0000
0100
0000
0100
0000
0100
0000
0010
,
0000
0000
0000
0100
0000
0000
0000
0010
,
0000
0000
0000
1010
0000
0000
0000
0001
,
0000
0000
0000
0100
0000
0000
0000
0001
,
0000
0000
0000
0101
0000
0000
0000
0010
,
0000
0010
0000
0010
0000
0000
0000
1000
,
0000
1000
0000
1000
0000
0000
0000
0001
,
0000
0000
0000
1000
0000
0000
0000
0001
,
0000
0001
0000
0001
0000
0000
1000
0000
,
0000
0010
0000
0100
,
0000
0010
0000
0100
,
0000
0010
0000
1000
,
0000
0001
0000
1000
,
0001
1000
0001
1000
,
0010
1000
0010
1000
,
0010
0100
0010
0000
,
0100
0000
1001
0000
;
