#TITLE:R4U;
#SUBTITLE:;
#ARTIST:NAOKI vs Cranky;
#TITLETRANSLIT:;
#SUBTITLETRANSLIT:;
#ARTISTTRANSLIT:;
#CREDIT:SupremeX;
#BANNER:R4U-bn.png;
#BACKGROUND:R4U-bg.png;
#LYRICSPATH:;
#CDTITLE:;
#MUSIC:R4U.ogg;
#OFFSET:-0.840;
#SAMPLESTART:57.039;
#SAMPLELENGTH:12.000;
#SELECTABLE:YES;
#BPMS:0.000=156.970;
#STOPS:79.750=1.055
;
#BGCHANGES:;

//---------------dance-single - ----------------
#NOTES:
     dance-single:
     :
     Hard:
     7:
     0.418,0.496,0.107,0.029,0.063: // measure 1
0000
0000
0000
0000
,  // measure 2
0000
0000
0000
0000
,  // measure 3
0000
0000
0000
0000
,  // measure 4
0000
0000
0000
0000
,  // measure 5
1000
0000
1000
0000
0001
0100
0001
0000
,  // measure 6
0101
0000
0100
0000
0010
1000
0010
0000
,  // measure 7
1001
0000
0100
0000
0010
0100
0010
0000
,  // measure 8
0110
0000
0001
0010
0100
0000
1000
0000
,  // measure 9
1100
0000
0010
0001
0010
0100
1000
0000
,  // measure 10
0110
0000
0001
1000
0100
0010
0001
0000
,  // measure 11
0011
0000
0100
1000
0100
0010
0001
0000
,  // measure 12
0110
0000
1000
0001
1000
0100
1000
0000
,  // measure 13
0010
0010
0100
0100
,  // measure 14
0001
0100
0001
0000
1000
0100
1000
0000
,  // measure 15
0100
0100
1000
1000
,  // measure 16
0001
0010
0100
0000
1000
0100
0010
0000
,  // measure 17
0001
0010
0100
1000
,  // measure 18
0010
0100
0010
0000
1000
0001
1000
0000
,  // measure 19
0200
0000
0000
0000
,  // measure 20
0000
0000
0000
0300
,  // measure 21
0000
0000
1000
0000
0000
1000
0000
0000
0100
0000
0000
0000
0000
0000
0001
0000
,  // measure 22
0000
0000
0010
0000
0000
0010
0000
0000
0100
0000
0000
0000
1000
0000
0000
1000
,  // measure 23
0000
0000
0100
0000
0000
0100
0000
0000
0100
0000
0000
0000
0000
0000
0000
0000
,  // measure 24
0000
0000
0010
0000
0000
0010
0000
0000
0010
0000
0000
0000
0001
0000
0000
0001
,  // measure 25
0000
0000
1000
0000
0000
1000
0000
0000
1000
0000
0000
0000
0000
0000
0010
0000
,  // measure 26
0100
0010
0100
0000
0000
0010
0000
0000
0010
0000
0000
0000
1000
0000
0000
1000
,  // measure 27
0000
0000
0100
0000
0000
0001
0000
0000
0001
0000
0000
0000
0000
0000
1000
0000
,  // measure 28
0100
1000
0100
0000
0000
1000
0000
0000
1000
0000
0000
0000
0001
0000
0000
0000
,  // measure 29
0000
1000
0000
0010
0100
0010
1000
0010
,  // measure 30
0000
0100
0000
0001
0000
1000
0100
1000
,  // measure 31
0001
1000
0000
0100
0000
0100
0000
1000
,  // measure 32
0010
1000
0001
0100
0010
0100
0001
1000
,  // measure 33
0000
0010
0000
0010
0000
0100
0010
0100
,  // measure 34
0000
0001
0000
0001
0000
1000
0100
1000
,  // measure 35
0000
0001
1000
0001
0000
1000
0100
1000
,  // measure 36
0000
0010
0100
0001
1000
0010
0100
0001
,  // measure 37
0000
0101
0000
0010
0000
0010
0000
1000
,  // measure 38
0000
1000
0000
0100
0000
0100
0000
1000
,  // measure 39
0001
1000
0000
0010
0000
0010
0000
0010
,  // measure 40
0000
0100
0001
1000
0010
0100
0001
1000
,  // measure 41
0000
0100
0000
0100
0000
1000
0000
1000
,  // measure 42
0000
0100
0010
0100
0000
0001
1000
0001
,  // measure 43
0000
0110
0000
0110
0000
1000
0100
1000
,  // measure 44
0000
0001
0010
0100
1000
0100
0010
0001
,  // measure 45
0000
1000
0000
1000
0000
1000
0000
1000
,  // measure 46
0000
0010
0000
0010
0000
0010
0000
0010
,  // measure 47
0000
1000
0001
1000
0000
1000
0000
1000
,  // measure 48
0000
0010
0100
0010
0000
1000
0010
1000
,  // measure 49
0000
0001
0000
0001
0000
0001
0000
0001
,  // measure 50
0000
0100
0000
0100
0000
0100
0010
0100
,  // measure 51
0000
0001
0000
0001
0000
1000
0000
1000
,  // measure 52
0000
0010
0100
0010
0000
1000
0001
1000
,  // measure 53
0000
0010
0100
0010
0000
0100
0000
0100
,  // measure 54
0000
0010
0100
0010
0000
1000
0000
1000
,  // measure 55
0000
0001
1000
0001
0000
0100
0000
0100
,  // measure 56
0000
0010
0100
0010
0000
1000
0001
1000
,  // measure 57
0000
0010
0100
0010
0000
0100
0010
0100
,  // measure 58
0000
0001
1000
0001
0000
1000
0100
1000
,  // measure 59
0000
0001
0100
0010
0000
1000
0010
0100
,  // measure 60
0000
0001
0010
0100
1000
0001
0100
0010
,  // measure 61
1000
2002
0000
0000
0000
0000
0000
0000
,  // measure 62
0000
0000
0000
0000
,  // measure 63
0000
0000
0000
0000
,  // measure 64
0000
0000
0000
0000
,  // measure 65
3003
0000
0000
0000
;

//---------------dance-single - ----------------
#NOTES:
     dance-single:
     :
     Medium:
     5:
     0.326,0.305,0.010,0.029,0.000:
0000
0000
0000
0000
,
0000
0000
0000
0000
,
0000
0000
0000
0000
,
0000
0000
0000
0000
,
1000
1000
0010
0010
,
0100
0100
0001
0001
,
1000
1000
0010
0010
,
0100
0100
0001
0001
,
1000
0001
1000
0001
,
1000
0001
1000
0001
,
0100
0010
0100
0010
,
0100
0010
0100
0010
,
1000
0001
1000
0001
,
0100
0010
0100
0010
,
1000
0001
1000
0001
,
0100
0010
0100
0010
,
0001
0010
0100
1000
,
0100
0010
0001
0010
,
0200
0000
0000
0000
,
0000
0000
0000
0300
,
0000
1000
0000
1000
0000
1000
0000
0001
,
0000
0100
0000
0001
0000
0100
0000
0010
,
0000
0010
0000
0010
0000
0010
0000
0010
,
0000
1000
0000
0010
0000
1000
0000
0010
,
0000
0100
0000
0100
0000
0100
0000
0100
,
0000
0001
0000
0100
0000
0001
0000
0100
,
0000
0010
0000
0010
0000
0010
0000
0010
,
0000
1000
0000
1000
0000
0010
0000
0010
,
0000
0100
0000
0010
0000
0100
0010
0100
,
0000
0001
0000
0001
0000
0001
0000
0001
,
0000
1000
0000
0010
0000
0100
0000
0010
,
0000
1000
0000
1000
0000
0010
0100
0010
,
0000
1000
0000
1000
0000
1000
0000
1000
,
0000
0001
0000
0001
0000
0001
0000
0001
,
0000
0100
0000
0100
0000
0100
0000
0100
,
0000
0010
0100
0010
0000
0100
0010
0100
,
0000
0001
0000
1000
0000
0001
0000
1000
,
0000
0010
0000
0100
0000
0010
0000
0100
,
0000
0001
0100
0001
0000
1000
0010
1000
,
0000
0001
0000
0001
0000
0100
0000
0100
,
0000
0010
0000
0010
0000
1000
0010
1000
,
0000
0001
0000
0001
0000
0100
0010
0100
,
0000
0010
0000
0010
0000
1000
0000
1000
,
0000
0001
0000
0100
0000
0001
0000
1000
,
0000
0010
0000
0010
0000
0010
0000
0010
,
0000
0100
0000
0100
0000
0100
0000
0100
,
0000
0001
0000
0001
0000
0001
0000
0001
,
0000
1000
0000
0010
0000
1000
0000
0010
,
0000
0100
0000
0100
0000
0100
0000
0100
,
0000
0010
0000
0010
0000
0010
0000
0010
,
0000
1000
0000
1000
0000
1000
0000
1000
,
0000
0001
0000
1000
0000
0001
0000
1000
,
0000
0010
0000
0100
0000
0010
0100
0010
,
0000
1000
0000
0001
0000
1000
0001
1000
,
0000
0010
0000
0100
0000
0010
0100
0010
,
0000
1000
0000
1000
0000
0001
0000
0001
,
0000
1000
0000
0010
0000
0100
0000
0001
,
0000
1000
0000
0010
0000
0100
0000
0001
,
0000
1000
0001
1000
0000
0001
1000
0001
,
0000
0100
0000
0010
0000
0100
0000
0001
,
0000
2002
0000
0000
0000
0000
0000
0000
,
0000
0000
0000
0000
,
0000
0000
0000
0000
,
3003
0000
0000
0000
;

//---------------dance-single - ----------------
#NOTES:
     dance-single:
     :
     Easy:
     3:
     0.212,0.275,0.000,0.010,0.000:
0000
0000
0000
0000
,
0000
0000
0000
0000
,
0000
0000
0000
0000
,
0000
0000
0000
0000
,
1000
0010
1000
0000
,
0001
0100
0001
0000
,
1000
0010
1000
0000
,
0001
0100
0001
0000
,
1000
0010
0100
0000
,
0001
0100
0010
0000
,
1000
0001
0100
0000
,
0001
1000
0010
0000
,
1000
0000
1000
0000
,
0010
0000
0010
0000
,
0100
0000
0100
0000
,
0001
0000
0001
0000
,
1000
1000
0010
0010
,
0100
0100
0001
0001
,
1000
0000
0000
0000
,
0000
0000
0000
0000
,
0000
1000
0000
0000
0000
0000
0000
0000
,
0000
0001
0000
0000
0000
0000
0000
0000
,
0000
1000
0000
0000
0000
0000
0000
0000
,
0000
0001
0000
0000
0000
0000
0000
0000
,
0000
1000
0000
1000
0000
0010
0000
0010
,
0000
0100
0000
0100
0000
0001
0000
0001
,
0000
1000
0000
1000
0000
0010
0000
0010
,
0000
0100
0000
0100
0000
0001
0000
0001
,
0000
1000
0000
0000
0000
1000
0000
0000
,
0000
0010
0000
0000
0000
0010
0000
0000
,
0000
0100
0000
0000
0000
0100
0000
0000
,
0000
0001
0000
0000
0000
0001
0000
0000
,
0000
1000
0000
1000
0000
0010
0000
0010
,
0000
0100
0000
0100
0000
0001
0000
0001
,
0000
1000
0000
1000
0000
0010
0000
0010
,
0000
0100
0000
0100
0000
0001
0000
0001
,
0000
1000
0000
0000
0000
0010
0000
0000
,
0000
1000
0000
0000
0000
0010
0000
0000
,
0000
1000
0000
0000
0000
0001
0000
0000
,
0000
0100
0000
0000
0000
0001
0000
0000
,
0000
1000
0000
0000
0000
0010
0000
0000
,
0000
1000
0000
0000
0000
0010
0000
0000
,
0000
0100
0000
0000
0000
0001
0000
0000
,
0000
0100
0000
0000
0000
0100
0000
0000
,
0000
0010
0000
0000
0000
0010
0000
0000
,
0000
1000
0000
1000
0000
1000
0000
0000
,
0000
0001
0000
0000
0000
0001
0000
0000
,
0000
0100
0000
0010
0000
0100
0000
0010
,
0000
1000
0000
0000
0000
1000
0000
0000
,
0000
0001
0000
0001
0000
0001
0000
0000
,
0000
0100
0000
0000
0000
0010
0000
0000
,
0000
0100
0000
0010
0000
0100
0000
0010
,
0000
1000
0000
1000
0000
1000
0000
1000
,
0000
0001
0000
0001
0000
0001
0000
0001
,
0000
1000
0000
1000
0000
1000
0000
1000
,
0000
0010
0000
0010
0000
0010
0000
0010
,
0000
0100
0000
0000
0000
0100
0000
0000
,
0000
0100
0000
0000
0000
0100
0000
0000
,
0000
0001
0000
1000
0000
0001
0000
1000
,
0000
0010
0000
0100
0000
0010
0000
0100
,
0000
0200
0000
0000
0000
0000
0000
0000
,
0000
0000
0000
0000
,
0000
0000
0000
0000
,
0300
0000
0000
0000
;

//---------------dance-single - Copied from----------------
#NOTES:
     dance-single:
     Copied from:
     Beginner:
     1:
     0.079,0.087,0.010,0.000,0.000:
0000
0000
0000
0000
,
0000
0000
0000
0000
,
0000
0000
0000
0000
,
0000
0000
0000
0000
,
0001
0000
0000
0000
,
1000
0000
0000
0000
,
0001
0000
0000
0000
,
1000
0000
0000
0000
,
0001
0000
0000
0000
,
1000
0000
0000
0000
,
0001
0000
0000
0000
,
1000
0000
0000
0000
,
0010
0000
0000
0000
,
0010
0000
0000
0000
,
0010
0000
0000
0000
,
0010
0000
0000
0000
,
0100
0000
0000
0000
,
0100
0000
0000
0000
,
0100
0000
0000
0000
,
0000
0000
0000
0000
,
0000
0100
0000
0000
0000
0000
0000
0000
,
0000
0010
0000
0000
0000
0000
0000
0000
,
0000
0100
0000
0000
0000
0000
0000
0000
,
0000
0010
0000
0000
0000
0000
0000
0000
,
0000
1000
0000
0000
0000
0000
0000
0000
,
0000
0001
0000
0000
0000
0000
0000
0000
,
0000
1000
0000
0000
0000
0000
0000
0000
,
0000
0001
0000
0000
0000
0000
0000
0000
,
0000
0100
0000
0000
0000
0000
0000
0000
,
0000
0010
0000
0000
0000
0000
0000
0000
,
0000
0100
0000
0000
0000
0000
0000
0000
,
0000
0010
0000
0000
0000
0000
0000
0000
,
0000
1000
0000
0000
0000
0000
0000
0000
,
0000
0001
0000
0000
0000
0000
0000
0000
,
0000
1000
0000
0000
0000
0000
0000
0000
,
0000
0001
0000
0000
0000
0000
0000
0000
,
0000
0100
0000
0000
0000
0000
0000
0000
,
0000
0100
0000
0000
0000
0000
0000
0000
,
0000
0010
0000
0000
0000
0000
0000
0000
,
0000
1000
0000
0000
0000
0000
0000
0000
,
0000
0001
0000
0000
0000
0000
0000
0000
,
0000
0001
0000
0000
0000
0000
0000
0000
,
0000
0100
0000
0000
0000
0000
0000
0000
,
0000
0010
0000
0000
0000
0000
0000
0000
,
0000
1000
0000
0000
0000
0000
0000
0000
,
0000
0100
0000
0000
0000
0000
0000
0000
,
0000
1000
0000
0000
0000
0000
0000
0000
,
0000
0100
0000
0000
0000
0000
0000
0000
,
0000
0010
0000
0000
0000
0000
0000
0000
,
0000
0001
0000
0000
0000
0000
0000
0000
,
0000
0010
0000
0000
0000
0000
0000
0000
,
0000
0001
0000
0000
0000
0000
0000
0000
,
0000
1000
0000
0000
0000
0000
0000
0000
,
0000
0010
0000
0000
0000
0000
0000
0000
,
0000
1000
0000
0000
0000
0000
0000
0000
,
0000
0010
0000
0000
0000
0000
0000
0000
,
0000
0100
0000
0000
0000
0000
0000
0000
,
0000
0001
0000
0000
0000
0000
0000
0000
,
0000
0100
0000
0000
0000
0000
0000
0000
,
0000
0001
0000
0000
0000
0000
0000
0000
,
0000
1001
0000
0000
0000
0000
0000
0000
;
