#TITLE:神威(NAOKI x ZPP MIX);
#SUBTITLE:;
#ARTIST:TJ hangneil;
#TITLETRANSLIT:Priestess (NAOKI x ZPP MIX);
#SUBTITLETRANSLIT:;
#ARTISTTRANSLIT:;
#GENRE:;
#CREDIT:SupremeX;
#BANNER:Priestess-bn.png;
#BACKGROUND:Priestess-bg.png;
#LYRICSPATH:;
#CDTITLE:;
#MUSIC:Priestess.ogg;
#OFFSET:-0.337666;
#SAMPLESTART:49.860001;
#SAMPLELENGTH:12.000000;
#SELECTABLE:YES;
#BPMS:0.000000=126.010010
;
#STOPS:
;
#BGCHANGES:;
#KEYSOUNDS:;
#ATTACKS:;

//---------------dance-single - ----------------
#NOTES:
     dance-single:
     :
     Hard:
     8:
     0.453096,0.465659,0.115334,0.067278,0.048056,330.000000,318.000000,12.000000,7.000000,0.000000,0.000000,0.453096,0.465659,0.115334,0.067278,0.048056,330.000000,318.000000,12.000000,7.000000,0.000000,0.000000:
0000
0000
0000
0000
,
0000
0000
0000
0000
,
0000
0000
0000
0000
,
0000
0000
0000
0000
,
1000
0100
0010
0001
0100
0010
0100
0100
,
0001
0010
0100
1000
0100
1000
1000
0000
,
0100
0010
0001
0010
0100
0010
0001
0000
,
1000
0100
1000
0001
0100
0001
1000
0000
,
0010
0100
0001
0100
0010
1000
0010
0100
,
0010
1000
0010
0100
0001
0100
0010
0000
,
1000
1000
0001
0010
0100
1000
0100
0000
,
0010
0001
0010
0100
1000
0100
0010
0001
,
1000
0100
1000
0100
1000
0010
0100
0010
,
1000
0000
0000
1100
0000
0000
0110
0000
0001
0000
0000
0000
1000
0000
0100
0000
,
1000
0000
0000
0110
0000
0000
0011
0000
0100
0000
1000
0000
0100
0000
1000
0000
,
0100
0000
0000
0101
0000
0000
1010
0000
0100
0000
0001
0000
0100
0000
0000
0000
,
0001
0010
0100
1000
0100
0010
0001
0000
,
1000
0100
0010
0100
1000
0100
1000
0100
,
0010
0000
0000
0011
0000
0000
0110
0000
0000
0000
0000
0000
1000
0000
0100
0000
,
1000
0000
0000
0110
0000
0000
0011
0000
0000
0000
0000
0000
1000
0000
0010
0000
,
0100
0010
1000
0010
0100
0010
1000
0000
,
0001
0100
0010
0100
0001
0100
0010
0100
,
0001
0001
1000
0010
1000
0010
1000
0000
,
0001
0100
0001
0100
0001
0100
0001
0100
,
0000
0000
1020
0000
0000
0000
0000
0000
0030
2000
0000
0000
0000
0000
0000
0000
,
3002
0000
0000
0203
0000
0000
0000
0300
,
0010
1000
0010
0100
0010
1000
0010
0100
,
0001
0100
0010
0100
0001
1000
0001
0001
,
0100
0010
1000
0010
0100
0010
1000
0010
,
0100
0001
1000
0010
0100
0010
0100
0100
,
0001
1000
0001
1000
0010
0100
0010
1000
,
0001
0100
0001
0100
0010
1000
0010
0100
,
0001
0001
1000
0010
0100
0010
1000
0010
,
0100
0001
0100
0010
1000
0010
0100
0010
,
1000
0100
0010
0001
0010
0100
1000
0100
,
0100
0010
0001
0010
0100
1000
0010
0010
,
1000
0001
1000
0100
1000
0001
1000
0100
,
0010
0001
1000
0001
0100
0001
1000
0001
,
0100
0000
0000
0100
0000
0000
0001
0000
1000
0000
0000
1000
0000
0000
0100
0000
,
0010
0000
0000
0010
0000
0000
0100
0000
0001
0000
0000
0000
1000
0000
0100
0000
,
2000
0000
0000
3000
,
0002
0000
0000
0003
,
1000
0010
0100
0010
1000
0001
1000
0100
,
0010
0100
1000
0100
0010
0100
1000
0001
,
0100
0010
0100
0010
1000
0001
0100
0001
,
1000
0001
0100
0010
1000
0001
0100
0000
,
0001
0010
0100
1000
0010
0100
0010
1000
,
0010
1000
0100
0010
0001
0010
0010
0010
,
0100
1000
0100
0010
0100
0010
0001
0010
,
0100
0000
0000
1100
0000
0000
1000
0000
0100
0000
0010
0000
0001
0000
0010
0000
,
0200
0000
0000
0000
,
0300
0000
0000
0000
;

//---------------dance-single - ----------------
#NOTES:
     dance-single:
     :
     Medium:
     6:
     0.314421,0.367626,0.009611,0.048056,0.000000,229.000000,228.000000,1.000000,5.000000,0.000000,0.000000,0.314421,0.367626,0.009611,0.048056,0.000000,229.000000,228.000000,1.000000,5.000000,0.000000,0.000000:
0000
0000
0000
0000
,
0000
0000
0000
0000
,
0000
0000
0000
0000
,
0000
0000
0000
0000
,
1000
0000
0100
0000
1000
0001
1000
0001
,
0100
0000
0010
0000
1000
0001
1000
0000
,
0010
0000
0100
0000
0010
0100
0010
0000
,
1000
0000
0001
0000
1000
0001
1000
0000
,
0010
0000
0100
0000
0001
0100
0001
0000
,
1000
0000
1000
0000
0010
0100
0010
0000
,
1000
0000
0001
0000
1000
0001
1000
0000
,
0010
0000
1000
0000
0010
0100
0010
0000
,
1000
0001
0001
0001
,
1000
0100
0010
0100
1000
0100
0010
0000
,
0001
0000
1000
0000
0010
0100
0010
0100
,
0010
1000
0001
1000
,
0001
0100
0010
1000
,
0001
0100
0001
0100
0001
0100
0001
0000
,
1000
0000
0001
0000
1000
0100
1000
0100
,
1000
0001
0100
0010
,
2000
0000
0000
3000
,
0002
0000
0000
0003
,
1000
1000
0010
0000
1000
0000
0010
0000
,
0100
0001
0100
0001
1000
0010
0100
0000
,
0000
2002
0000
0000
0000
0000
0000
0000
,
0000
3003
0000
0000
0000
0000
0000
0000
,
0100
0010
0100
0010
0100
0010
0100
0000
,
0001
0000
1000
0000
0001
1000
0001
0000
,
1000
0000
0010
0000
0100
0010
0100
0000
,
0001
1000
0100
0000
0001
1000
0010
0000
,
0100
0000
0001
1000
0001
0000
0100
0010
,
0100
0000
0001
1000
0010
0000
1000
0000
,
0001
0001
0100
0010
0100
0010
0100
0000
,
0001
0100
0010
1000
0010
0100
0010
0000
,
1000
0001
1000
0010
,
1000
0001
0100
0001
0100
0001
1000
0000
,
0010
1000
0010
0100
,
0001
1000
0010
0000
1000
0001
0100
0000
,
0001
1000
0100
0010
,
0100
1000
0100
0010
,
0001
1000
0001
0000
0100
0010
0100
0000
,
0010
0010
0010
0010
,
1000
0001
1000
0001
1000
0000
0100
0000
,
0100
0000
0100
0000
0010
0001
0010
0000
,
0100
0000
0100
0000
1000
0001
1000
0100
,
1000
0001
0010
0100
,
1000
0000
0100
0000
0010
0001
0010
0001
,
0100
1000
0100
1000
,
0001
0100
0010
0000
1000
0001
0100
0000
,
0010
0000
1000
0000
0001
0000
1000
0100
,
2000
0000
0000
0000
,
3000
0000
0000
0000
;

//---------------dance-single - ----------------
#NOTES:
     dance-single:
     :
     Easy:
     3:
     0.245770,0.245084,0.009611,0.028833,0.000000,179.000000,178.000000,1.000000,3.000000,0.000000,0.000000,0.245770,0.245084,0.009611,0.028833,0.000000,179.000000,178.000000,1.000000,3.000000,0.000000,0.000000:
0000
0000
0000
0000
,
0000
0000
0000
0000
,
0000
0000
0000
0000
,
0000
0000
0000
0000
,
0010
1000
0010
1000
,
0001
0100
0001
0100
,
0010
1000
0010
1000
,
0001
0100
0001
0100
,
0010
0010
0010
0010
,
1000
1000
1000
1000
,
0001
0001
0001
0001
,
0100
0100
0100
0100
,
0010
1000
0001
1000
,
0010
1000
0001
1000
,
0010
0100
0001
0100
,
0010
1000
0001
1000
,
0010
0100
0010
0100
,
0010
1000
0010
1000
,
0001
1000
0001
1000
,
0001
0100
0001
0100
,
0010
0010
1000
1000
,
0001
0001
0100
0100
,
0010
1000
0001
1000
,
0010
0100
0001
0100
,
0000
0020
0000
0000
0000
0000
0000
0000
,
0000
0000
0000
0000
0000
0000
0000
0030
,
1000
0001
1000
0001
,
1000
0010
1000
0010
,
0100
0100
0001
0001
,
1000
0010
1000
0010
,
0100
0100
0001
0001
,
1000
1000
0010
0010
,
0100
0001
1000
0010
,
0100
0001
1000
0010
,
1000
0001
1000
0010
,
0100
0010
0100
0010
,
0100
0100
0100
0100
,
0001
0001
0001
0001
,
1000
0010
1000
0010
,
1000
0010
1000
0010
,
0100
0100
0100
0100
,
0001
0001
0001
0001
,
1000
0010
0100
0001
,
1000
0010
0100
0001
,
1000
0100
0010
0001
,
0010
0100
1000
0001
,
1000
0010
1000
0001
,
1000
0010
1000
0001
,
1000
0100
0010
0001
,
0010
0100
1000
0001
,
2002
0000
0000
0000
,
3003
0000
0000
0000
;

//---------------dance-single - Copied from----------------
#NOTES:
     dance-single:
     Copied from:
     Beginner:
     2:
     0.067278,0.098034,0.009611,0.019222,0.000000,49.000000,48.000000,1.000000,2.000000,0.000000,0.000000,0.067278,0.098034,0.009611,0.019222,0.000000,49.000000,48.000000,1.000000,2.000000,0.000000,0.000000:
0000
0000
0000
0000
,
0000
0000
0000
0000
,
0010
0000
0000
0000
,
0010
0000
0000
0000
,
1000
0000
0000
0000
,
1000
0000
0000
0000
,
0001
0000
0000
0000
,
0001
0000
0000
0000
,
0100
0000
0000
0000
,
0100
0000
0000
0000
,
0010
0000
0000
0000
,
0010
0000
0000
0000
,
1000
0000
0000
0000
,
0001
0000
0000
0000
,
1000
0000
0000
0000
,
0001
0000
0000
0000
,
0100
0000
0000
0000
,
0001
0000
0000
0000
,
0100
0000
0000
0000
,
0001
0000
0000
0000
,
1000
0000
0000
0000
,
0010
0000
0000
0000
,
1000
0000
0000
0000
,
0010
0000
0000
0000
,
1000
0000
0000
0000
,
0000
0000
0000
0000
,
0001
0000
0000
0000
,
1000
0000
0000
0000
,
0010
0000
0000
0000
,
0100
0000
0000
0000
,
0001
0000
0000
0000
,
1000
0000
0000
0000
,
0010
0000
0000
0000
,
0100
0000
0000
0000
,
0001
0000
0000
0000
,
0001
0000
0000
0000
,
1000
0000
0000
0000
,
1000
0000
0000
0000
,
0010
0000
0000
0000
,
0010
0000
0000
0000
,
0100
0000
0000
0000
,
0100
0000
0000
0000
,
0001
0000
0000
0000
,
1000
0000
0000
0000
,
0001
0000
0000
0000
,
1000
0000
0000
0000
,
0010
0000
0000
0000
,
0100
0000
0000
0000
,
0010
0000
0000
0000
,
0100
0000
0000
0000
,
2002
0000
0000
0000
,
3003
0000
0000
0000
;
