#TITLE:Phoenix;
#SUBTITLE:;
#ARTIST:U;
#TITLETRANSLIT:;
#SUBTITLETRANSLIT:;
#ARTISTTRANSLIT:;
#GENRE:;
#CREDIT:SupremeX;
#BANNER:Phoenix-bn.png;
#BACKGROUND:Phoenix-bg.png;
#LYRICSPATH:;
#CDTITLE:;
#MUSIC:Phoenix.ogg;
#OFFSET:-0.211826;
#SAMPLESTART:72.919998;
#SAMPLELENGTH:12.000000;
#SELECTABLE:YES;
#BPMS:0.000000=132.000000
;
#STOPS:
;
#BGCHANGES:;
#KEYSOUNDS:;
#ATTACKS:;

//---------------dance-single - ----------------
#NOTES:
     dance-single:
     :
     Hard:
     8:
     0.416344,0.458291,0.241480,0.108249,0.058288,350.000000,321.000000,29.000000,13.000000,0.000000,0.000000,0.416344,0.458291,0.241480,0.108249,0.058288,350.000000,321.000000,29.000000,13.000000,0.000000,0.000000:
0000
0000
0000
0000
,
0000
0000
0000
0000
,
0000
0000
0000
0000
,
0000
0000
0000
0000
,
0000
0000
1000
0000
0000
1000
0000
0000
0000
0000
0001
0000
0000
0001
0000
0000
,
0000
0000
0100
0000
0000
0100
0000
0000
0000
0000
0010
0000
0000
0010
0000
0000
,
0000
0000
0000
1000
0001
0100
0010
1000
,
0000
0001
0000
1000
0000
0000
0000
0000
,
0001
0100
0001
0000
0100
0010
0100
0000
,
0010
1000
0010
0000
1000
0001
1000
0000
,
0010
0100
0010
0000
0100
0001
0100
0000
,
0010
1000
0010
0000
1000
0010
0100
0000
,
0001
1000
0010
0000
1000
0001
0100
0000
,
0010
1000
0100
0000
1000
0001
0100
0000
,
0001
1000
0010
0000
1000
0100
1000
0000
,
0001
1000
0001
0000
0100
0000
0000
0000
,
0001
0010
0001
0010
0100
1000
0100
1000
,
0010
0100
0010
0100
0001
1000
0001
1000
,
0010
0100
0010
0100
0001
0010
0001
0010
,
0100
1000
0100
1000
0001
1000
0001
1000
,
0010
0100
0010
0100
0001
0010
0001
0010
,
0100
1000
0100
1000
0010
0100
0010
0100
,
0000
0000
0001
0000
0000
0001
0000
0000
0001
0000
0000
0001
0000
0000
0001
0000
,
0000
1000
0000
0000
1000
0000
0000
1000
0000
0000
1000
0000
0000
1000
0000
0000
,
0200
0000
0000
1300
0100
0010
0001
0010
,
0000
0100
0000
1001
0000
0100
0010
0100
,
0010
0000
0100
0000
,
0002
1000
1000
1003
,
0200
0000
0000
1300
0100
0010
0001
0010
,
0000
0100
0000
1001
0000
0100
0010
0100
,
0010
0000
0001
0000
,
2000
0001
0100
3001
,
0020
0000
0000
0130
0010
1000
0001
1000
,
0000
0001
0000
0110
0000
1000
0100
0010
,
0001
0000
1000
0000
0100
0000
1000
0100
,
0000
0100
0000
1000
0000
1001
0000
0000
,
0100
0000
0010
1000
0001
0100
0001
1000
,
0000
0010
0000
0110
0000
1000
0001
1000
,
0001
0100
0100
0100
0100
0100
0100
0100
,
0020
0000
0000
0030
,
1000
0000
0001
0010
0100
1000
0100
0010
,
0000
0001
0000
0110
0000
1000
0100
1000
,
0100
0000
1000
0000
0001
0010
0100
1000
,
0000
0101
0000
1010
0000
0010
0100
0010
,
0100
0000
0000
0001
1000
0100
1000
0100
,
0000
1010
0000
0101
0000
0010
0100
0010
,
0000
0110
0000
1001
0000
0110
0000
1100
,
0000
0110
0000
0011
0000
1001
0000
0000
,
0200
0000
0000
1300
0100
1000
0100
0010
,
0000
0011
0000
0110
0000
1000
0100
1000
,
0000
0100
0000
1000
0100
0010
0001
0010
,
0000
1100
0000
1001
0000
0100
0010
0100
,
0010
0000
0000
1000
0100
0010
0001
1000
,
0000
1010
0000
0101
0000
0010
1000
0010
,
0000
0110
0000
0100
0000
0101
0000
0010
,
0000
1010
0000
0100
0000
0002
0000
0000
,
1003
0000
0100
0100
0000
1000
1000
0000
,
0001
0001
0000
0100
0100
0000
0000
0000
,
0000
0010
0100
0001
1000
0001
1000
0010
,
0100
0000
0010
0000
1000
0000
0001
0000
1000
0000
0100
0000
0000
1100
0000
0000
,
0010
0001
0010
0100
1000
0010
0100
0010
,
1000
0001
0010
0100
1000
0100
1000
0000
,
0000
0000
0020
0000
0000
0130
0000
0000
0000
0000
0002
0000
0000
1003
0000
0000
,
0000
0000
0200
0000
0000
1300
0000
0000
0010
0000
0000
1001
0000
0000
2002
0000
,
0000
0000
0000
3003
;

//---------------dance-single - ----------------
#NOTES:
     dance-single:
     :
     Medium:
     5:
     0.297389,0.319440,0.033308,0.008327,0.074942,250.000000,246.000000,4.000000,1.000000,0.000000,0.000000,0.297389,0.319440,0.033308,0.008327,0.074942,250.000000,246.000000,4.000000,1.000000,0.000000,0.000000:
0000
0000
0000
0000
,
0000
0000
0000
0000
,
0000
0000
0000
0000
,
0000
0000
0000
0000
,
0000
0000
0000
1000
0000
0000
1000
0000
0000
0000
0000
0001
0000
0000
0001
0000
,
0000
0000
0000
0100
0000
0000
0100
0000
0000
0000
0010
0000
0000
0010
0000
0000
,
0000
0000
0000
0000
,
0000
0000
0000
0000
,
1000
0000
0001
0000
0100
0010
1000
0000
,
0001
0000
0100
0000
0010
1000
0010
0000
,
0100
0000
0010
0000
0100
0001
0100
0000
,
0010
0000
1000
0000
0001
0100
0001
0000
,
1000
0000
0001
0000
0100
0010
0100
0000
,
0001
0000
1000
0000
0010
0100
0010
0000
,
1000
0000
0001
0000
1000
0100
1000
0000
,
0010
0000
0100
0000
0001
1000
0001
0000
,
1000
0001
1000
0010
,
0100
0001
1000
0010
,
0100
0001
1000
0010
,
0100
0001
1000
0010
,
1000
0001
1000
0001
,
1000
0100
1000
0000
0001
0010
0001
0000
,
0000
0000
1000
0000
0000
1000
0000
0000
1000
0000
0000
1000
0000
0000
1000
0000
,
0000
0001
0000
0000
0001
0000
0000
0001
0000
0000
0001
0000
0000
0001
0000
0000
,
0200
0000
0000
0310
1000
0001
1000
0001
,
0000
0100
0000
0010
0000
0100
0001
1000
,
0001
0000
1000
0000
,
0000
0000
0001
0000
,
1000
0000
0000
0010
0100
0010
0100
0010
,
0000
1000
0000
0001
0000
1000
0100
1000
,
0100
0000
1001
0000
,
0001
0000
1100
0010
,
0001
0000
0010
0000
0100
1000
0100
1000
,
0000
0010
0000
0001
0000
0010
0100
0010
,
0100
1000
0001
1000
,
0010
0100
0001
1000
,
0001
0000
1000
0010
0100
0001
0100
0010
,
0000
1000
0000
0001
0000
1000
0100
1000
,
0000
0001
0000
0100
0000
0010
0000
1000
,
0000
0000
0000
0000
,
0001
0000
0000
1000
0100
1000
0100
1000
,
0000
0001
0000
0100
0000
0001
1000
0001
,
0000
0100
0000
0010
0000
0100
0000
0001
,
0000
1000
0000
0001
0000
1000
0000
0010
,
0000
0000
0000
0001
1000
0100
1000
0100
,
0000
1000
0000
0001
0000
0100
0000
0001
,
0000
1000
0000
0001
0000
0100
0000
0010
,
0000
0100
0000
0010
0000
0010
0000
0000
,
1000
0000
0000
0010
0100
0001
0100
0010
,
0000
1000
0000
0001
0000
1000
0100
1000
,
0000
0001
0000
0100
0000
0010
0000
1000
,
0000
0001
0000
0100
0000
0100
0000
0000
,
0110
0000
0000
0010
1000
0010
1000
0001
,
0000
0100
0000
0001
0000
1000
0100
1000
,
0000
0001
0000
0001
0000
1000
0000
0010
,
0000
1000
0000
0010
0000
1000
0000
0000
,
0010
0000
0000
0100
0000
0000
0001
0000
,
0000
1000
0000
0000
0001
0000
0000
0000
,
0000
0000
0000
1000
0000
0000
1000
0000
0000
0000
0000
0100
0000
0000
0100
0000
,
0000
0000
0000
0010
0000
0000
0010
0000
0000
0000
0001
0000
0000
0001
0000
0000
,
0000
0000
0000
1000
0000
0000
0100
0000
,
0000
1000
0000
0000
0100
0000
0000
0000
,
0000
0000
0000
1000
0000
0000
1000
0000
0000
0000
0000
0010
0000
0000
0010
0000
,
0000
0000
0000
0100
0000
0000
0100
0000
0000
0001
0000
0000
1000
0000
0000
1001
;

//---------------dance-single - ----------------
#NOTES:
     dance-single:
     :
     Easy:
     2:
     0.222447,0.241688,0.049961,0.024981,0.000000,187.000000,181.000000,6.000000,3.000000,0.000000,0.000000,0.222447,0.241688,0.049961,0.024981,0.000000,187.000000,181.000000,6.000000,3.000000,0.000000,0.000000:
0000
0000
0000
0000
,
0000
0000
0000
0000
,
0000
0000
0000
0000
,
0000
0000
0000
0000
,
0000
0001
0000
0000
0000
0000
0000
0000
,
0000
1000
0000
0000
0000
0000
0000
0000
,
0000
0000
0000
0000
,
0000
0000
0000
0000
,
0001
0000
1000
0000
,
0001
0000
1000
0000
,
0001
1000
0010
1000
,
0001
0100
0001
1000
,
0001
0000
1000
0000
,
0001
0000
1000
0000
,
0001
0100
0010
1000
,
0001
1000
0010
0100
,
0001
0001
0001
0001
,
1000
1000
1000
1000
,
0010
0010
0010
0010
,
0100
0100
0100
0100
,
0001
1000
0010
1000
,
0001
0100
0001
1000
,
0100
0000
0000
0000
,
0000
0000
0000
0000
,
2000
0000
0000
3000
,
0001
0000
1000
0001
,
1000
0000
0110
0000
,
0001
0000
1001
0000
,
0100
0000
0010
1000
,
0010
0100
0001
1000
,
0001
0000
1001
0000
,
0010
0000
0110
0000
,
1000
0000
0001
1000
,
0100
0010
0001
1000
,
0100
1000
1000
1000
,
0001
0001
0001
0100
,
0010
1000
0010
1000
,
0001
0100
0010
1000
,
1000
0000
0001
0000
,
1001
0000
0000
0000
,
1000
0010
0100
0001
,
1000
0001
0100
0010
,
1000
0001
0100
0010
,
1000
1000
0001
0001
,
1000
0010
0100
0001
,
1000
0010
0100
0001
,
1000
0010
0100
0001
,
1000
1000
0001
0001
,
1000
0100
0010
0001
,
1000
0001
1000
0001
,
1000
0100
0010
0001
,
1000
0001
1000
0001
,
0100
0010
0100
0010
,
0010
1000
1000
0001
,
1000
0001
0100
0010
,
0100
0010
0100
0100
,
0001
0000
0000
1000
,
0000
0000
0010
0000
,
0000
0100
0001
1000
,
0001
0100
0010
1000
,
0001
0000
0000
0100
,
0000
0000
0001
0000
,
1000
0001
1000
0010
,
0100
0000
0001
0000
1000
0000
0000
2002
,
0000
0000
3003
0000
;

//---------------dance-single - Copied from----------------
#NOTES:
     dance-single:
     Copied from:
     Beginner:
     1:
     0.070184,0.132970,0.000000,0.016654,0.000000,59.000000,59.000000,0.000000,2.000000,0.000000,0.000000,0.070184,0.132970,0.000000,0.016654,0.000000,59.000000,59.000000,0.000000,2.000000,0.000000,0.000000:
0000
0000
0000
0000
,
0000
0000
0000
0000
,
0000
0000
0000
0000
,
0000
0000
0000
0000
,
0000
1000
0000
0000
0000
0000
0000
0000
,
0000
0000
0000
0000
0000
1000
0000
0000
,
0000
0000
0000
0000
,
0000
0000
0000
0000
,
0001
0000
0000
0000
,
0001
0000
0000
0000
,
1000
0000
0000
0000
,
1000
0000
0000
0000
,
0010
0000
0000
0000
,
0010
0000
0000
0000
,
0100
0000
0000
0000
,
0100
0000
0000
0000
,
0001
0000
0000
0000
,
0001
0000
0000
0000
,
1000
0000
0000
0000
,
1000
0000
0000
0000
,
0010
0000
0000
0000
,
0010
0000
0000
0000
,
0100
0000
0000
0000
,
0100
0000
0000
0000
,
0002
0000
0003
0000
,
0000
0000
0000
0000
,
1000
0000
0001
0000
,
0000
0000
0000
0000
,
1000
0000
0000
0000
,
0000
0000
0000
0000
,
0010
0000
0100
0000
,
0000
0000
0000
0000
,
0001
0000
0000
0000
,
0000
0000
0000
0000
,
1000
0000
0001
0000
,
1000
0000
0001
0000
,
1000
0000
0001
0000
,
1000
0000
0001
0000
,
1000
0000
0000
0000
,
0020
0000
0000
0000
0000
0000
0000
0030
,
0000
0000
0000
0000
,
1000
0000
0000
0000
,
0001
0000
0000
0000
0000
0000
0000
1000
,
0000
0000
0000
0000
,
0001
0000
0000
0000
0000
0000
0000
1000
,
0000
0000
0000
0000
,
0001
0000
0000
0000
0000
0000
0000
0100
,
0000
0000
0000
0000
,
0010
0000
0000
0000
0000
0000
0000
0100
,
0000
0000
0000
0000
,
0010
0000
0000
0000
0000
0000
0000
1000
,
0000
0000
0000
0000
,
0010
0000
0000
0000
0000
0000
0000
1000
,
0000
0000
0000
0000
,
0001
0000
0000
0000
0000
0000
0000
0100
,
0000
0000
0000
0000
,
0000
0001
0000
0000
,
0000
1000
0000
0000
,
0000
0001
0000
0000
,
0000
1000
0000
0000
,
0000
0001
0000
0000
,
0000
1000
0000
0000
,
0000
0010
0000
0000
,
0000
0000
0000
0000
0100
0000
0000
0010
;
