#TITLE:Party Jumpin';
#SUBTITLE:;
#ARTIST:KO3;
#TITLETRANSLIT:Party Jumpin;
#SUBTITLETRANSLIT:;
#ARTISTTRANSLIT:;
#CREDIT:SupremeX;
#BANNER:Party Jumpin'-bn.png;
#BACKGROUND:Party Jumpin'-bg.png;
#LYRICSPATH:;
#CDTITLE:;
#MUSIC:Party Jumpin.ogg;
#OFFSET:-2.537;
#SAMPLESTART:45.960;
#SAMPLELENGTH:12.000;
#SELECTABLE:YES;
#BPMS:0.000=138.000;
#STOPS:;
#BGCHANGES:;

//---------------dance-single - ----------------
#NOTES:
     dance-single:
     :
     Hard:
     8:
     0.487,0.484,0.235,0.084,0.034: // measure 1
0000
0000
0000
0000
,  // measure 2
0000
0000
0000
0000
,  // measure 3
0000
0000
0000
0000
,  // measure 4
0000
0000
0000
0000
,  // measure 5
1000
0000
0000
0001
0000
0000
1000
0000
0000
0010
0000
0000
0100
0000
0100
0000
,  // measure 6
0100
0000
0000
0010
0000
0000
1000
0000
0000
0001
0000
0000
1000
0000
0000
0000
,  // measure 7
0100
0000
0000
0100
0000
0000
1000
0000
0000
1000
0000
0000
0010
0000
0010
0000
,  // measure 8
0010
0000
0000
0100
0000
0000
0100
0000
0000
0001
0000
0000
0001
0000
0000
0000
,  // measure 9
1000
1000
0100
0000
0100
1000
0100
0010
,  // measure 10
0010
0001
0010
0001
0010
0001
0001
0000
,  // measure 11
1000
0001
1000
0000
0001
0100
0010
0100
,  // measure 12
0100
0001
0100
0001
1000
0100
1000
0000
,  // measure 13
0001
0100
0010
0000
1000
0001
0100
0010
,  // measure 14
0010
1000
0010
1000
0001
0100
0001
0000
,  // measure 15
1000
0001
0100
0000
0002
0000
0103
0000
,  // measure 16
0010
1000
0001
0000
1000
0000
0110
0000
,  // measure 17
0001
0001
0100
0100
0010
0010
1000
1000
,  // measure 18
0001
0001
1000
1000
0010
0010
0100
0000
,  // measure 19
0001
1000
0001
0000
1000
0010
0100
0000
,  // measure 20
0001
0100
0010
0000
1000
0001
1000
0000
,  // measure 21
0001
0010
0100
1000
0001
0010
0100
1000
,  // measure 22
0001
0100
0010
1000
0001
0100
0010
1000
,  // measure 23
2002
0000
0000
3003
,  // measure 24
0001
0010
0100
1000
1200
0000
0310
0000
,  // measure 25
0002
0000
2003
0000
3002
0100
0103
0000
,  // measure 26
0010
1000
0010
0100
0001
0100
0010
0000
,  // measure 27
1000
0001
0100
0010
1000
0001
1000
0000
,  // measure 28
0010
0100
0001
0100
0010
1000
0010
0000
,  // measure 29
2000
0000
3100
1000
0100
0010
0001
0010
,  // measure 30
0100
1000
0001
0100
0010
1000
0010
0100
,  // measure 31
0000
0001
0100
0001
0100
0010
1000
0010
,  // measure 32
1000
1000
0001
0001
0100
0010
0110
0000
,  // measure 33
1001
0100
0010
1000
0001
1000
0010
0100
,  // measure 34
0001
1000
0100
0010
0001
1000
0001
0000
,  // measure 35
1000
0100
1000
0010
0100
0010
0100
0000
,  // measure 36
0001
1000
0001
1000
0100
0010
0010
0000
,  // measure 37
0001
0100
0001
1000
0100
1000
0001
0000
,  // measure 38
1000
0010
0100
0001
1000
0001
0100
0000
,  // measure 39
0010
1000
0001
1000
0010
0100
0010
0000
,  // measure 40
1000
1000
0100
0100
1000
1000
0110
0000
,  // measure 41
0001
0100
0010
0000
1000
0000
0110
0000
,  // measure 42
0001
0100
0010
1000
0001
1000
0001
0000
,  // measure 43
1000
0001
0100
0000
1010
0000
0101
0000
,  // measure 44
1000
0100
0010
0000
0011
0000
1100
0000
,  // measure 45
0010
0001
0010
0100
1000
0100
0010
0100
,  // measure 46
1000
0001
1000
0010
0100
0001
1000
0000
,  // measure 47
0220
0000
0000
0330
,  // measure 48
0001
0010
0100
1000
0100
0000
0110
0000
,  // measure 49
0011
0100
1010
0100
,  // measure 50
0001
1000
0110
0001
,  // measure 51
1000
0000
0100
0000
1100
0000
0010
0001
,  // measure 52
0010
0000
0100
0000
1100
1000
1000
0000
,  // measure 53
0100
0010
0011
0100
,  // measure 54
1000
0000
0100
0000
0010
0001
0010
0010
,  // measure 55
0001
0000
0000
0100
1000
0100
1000
1000
,  // measure 56
0100
0010
0100
0010
0001
0010
0010
0000
,  // measure 57
0011
0000
1100
0000
0010
0001
1000
0000
,  // measure 58
0110
0000
0011
0000
0100
1000
0001
0000
,  // measure 59
0101
0000
1010
0000
0100
0001
1000
0000
,  // measure 60
0110
0000
1001
0000
0010
0100
0001
0000
,  // measure 61
1000
0001
0100
0000
0010
1000
0010
0000
,  // measure 62
0100
0001
0100
0000
0001
0010
0100
0000
,  // measure 63
1000
0100
0010
0000
0001
0100
0010
1000
,  // measure 64
0001
0100
0010
1000
0001
0100
0010
0000
,  // measure 65
1001
0000
0000
0000
;

//---------------dance-single - ----------------
#NOTES:
     dance-single:
     :
     Medium:
     5:
     0.327,0.349,0.067,0.042,0.000:
0000
0000
0000
0000
,
0000
0000
0000
0000
,
0000
0000
0000
0000
,
0000
0000
0000
0000
,
1000
0000
0100
0000
1000
0000
0100
0100
,
0100
0001
1000
0001
,
0100
0000
0010
0000
0100
0000
0001
0001
,
0001
1000
0010
0100
,
0001
0000
1000
0000
0100
1000
0100
0000
,
1000
0100
0010
0001
,
0100
0001
0100
0000
0001
0000
1000
0000
,
0100
0100
1000
1000
,
0010
1000
0010
0000
0100
0000
0001
0000
,
1000
1000
0001
0001
,
0100
0010
0100
0000
0010
0000
0100
0000
,
0010
0010
0100
0100
,
0001
1000
0001
0100
,
0001
1000
0010
1000
,
0100
1000
0100
0000
0010
0001
0010
0000
,
0001
1000
0001
0000
1000
0100
1000
0000
,
0001
0010
0100
0000
1000
0100
0010
0000
,
0002
0000
0000
0003
,
2002
0000
0000
3003
,
1000
0000
0100
0100
,
0010
1000
0001
0100
,
0001
0000
1000
0000
0010
0100
0010
0000
,
1000
0000
0001
0000
1000
0100
1000
0000
,
0001
0000
0100
0000
0010
1000
0010
0000
,
0100
0000
0001
0000
0010
0001
0010
0000
,
0001
0000
0010
0000
0100
1000
0100
0000
,
0010
0000
0001
0000
0001
1000
0010
0000
,
1000
0100
0100
0100
,
1000
0000
0001
0000
1000
0001
0100
0000
,
0010
0000
0100
0000
0001
1000
0010
0000
,
1000
0000
0001
0000
1000
0010
0100
0000
,
0001
0000
0001
0000
1000
0010
0100
0000
,
0010
0000
0100
0000
0001
1000
0010
0000
,
1000
0000
0001
0000
1000
0100
1000
0000
,
0001
0000
0100
0000
0010
0100
0010
0000
,
0100
0001
1000
0010
,
0100
0001
1000
1000
,
0001
0001
1000
1000
,
0010
0100
0001
0000
1000
0000
1000
0000
,
0001
0100
0110
1100
,
0010
0001
0010
0000
0001
0000
0001
0000
,
1000
0001
1000
0000
0100
0000
0100
0000
,
2200
0000
0000
3300
,
0011
0000
0000
0110
,
1100
0010
0001
0010
,
0100
0010
0001
0000
,
1000
0100
1000
0100
,
0010
0000
0001
0100
,
0010
0010
1000
0001
,
0100
0010
1000
0000
,
0001
0000
0100
0010
,
0100
0001
0001
0001
,
1000
0000
0100
0000
1000
0001
1000
0000
,
0100
0000
1000
0000
0001
0100
0001
0000
,
0010
0000
0100
0000
1000
0100
1000
0000
,
0100
0000
1000
0000
0001
1000
0001
0000
,
0010
0000
0100
0000
1000
0001
1000
0000
,
0100
0000
1000
0000
0010
0100
0010
0000
,
0100
0000
0001
0000
1000
0100
0010
0000
,
0001
1000
0010
0100
,
1001
0000
0000
0000
;

//---------------dance-single - ----------------
#NOTES:
     dance-single:
     :
     Easy:
     4:
     0.259,0.296,0.126,0.017,0.000:
0000
0000
0000
0000
,
0000
0000
0000
0000
,
0000
0000
0000
0000
,
0000
0000
0000
0000
,
0001
0000
0000
1000
0000
0000
0001
0000
,
1000
0000
0000
0001
0000
0000
1000
0000
,
0010
0000
0000
0100
0000
0000
0010
0000
,
0100
0000
0000
0001
0000
0000
1000
0000
,
0010
0100
0100
0100
,
0001
1000
0001
1000
,
0010
0010
0010
0010
,
0100
0001
1000
0010
,
0100
0100
0100
0100
,
0001
1000
0010
1000
,
0001
0001
0001
0001
,
1000
0010
0100
0100
,
0001
1000
0010
0100
,
0001
1000
0010
0100
,
0001
1000
0010
0100
,
0001
1000
0010
0100
,
0001
0001
1000
1000
,
0010
0010
0100
0100
,
0220
0000
0000
0330
,
1001
0000
0110
0110
,
1000
0001
1000
1000
,
0010
0100
0001
0001
,
0100
0010
1000
1000
,
0010
0100
0001
0001
,
0100
0010
0010
0010
,
1000
0001
1000
1000
,
0010
0100
0100
0100
,
0001
1000
1000
0010
,
0100
0010
0100
0100
,
0001
1000
0010
0010
,
1000
0001
0100
0010
,
1000
0001
1000
1000
,
0010
0100
0001
0100
,
0010
1000
0010
0100
,
0001
1000
0010
0100
,
1001
0000
0000
0000
,
0110
0000
1000
1000
,
0001
0001
1000
1000
,
0110
0000
0000
0000
,
0001
0001
1000
1000
,
0110
0001
1000
0001
,
1001
0010
0100
0010
,
1000
0001
1000
0001
,
1001
0000
0000
0000
,
0100
0000
0010
0000
,
0100
0000
0010
0000
,
1000
0000
0001
0000
,
1000
0000
0001
0000
,
1000
0000
0110
0000
,
0001
0000
0110
0000
,
1000
0000
1001
0000
,
0001
0000
1001
0000
,
0100
0000
0010
0000
,
0100
0000
0010
0000
,
0100
0010
0100
0010
,
0100
0010
0100
0010
,
1000
0000
0001
0000
,
1000
0000
0001
0000
,
1000
0010
0100
0001
,
1000
0001
1000
0001
,
1001
0000
0000
0000
;

//---------------dance-single - Copied from----------------
#NOTES:
     dance-single:
     Copied from:
     Beginner:
     2:
     0.082,0.134,0.034,0.017,0.000:
0000
0000
0000
0000
,
0000
0000
0000
0000
,
0000
0000
0000
0000
,
0000
0000
0000
0000
,
0010
0000
0000
0000
,
0010
0000
0000
0000
,
0100
0000
0000
0000
,
0100
0000
0000
0000
,
0001
0000
0000
0000
,
0001
0000
0000
0000
,
1000
0000
0000
0000
,
1000
0000
0000
0000
,
0001
0000
0000
0000
,
0001
0000
0000
0000
,
1000
0000
0000
0000
,
1000
0000
0000
0000
,
0010
0000
0000
0000
,
0100
0000
0000
0000
,
0010
0000
0000
0000
,
0100
0000
0000
0000
,
0010
0000
0000
0000
,
1000
0000
0000
0000
,
0002
0000
0000
0000
0000
0000
0000
0003
,
0000
0000
0000
0000
,
0100
0000
0000
0000
,
0100
0000
0000
0000
,
0010
0000
0000
0000
,
1000
0000
0000
0000
,
0010
0000
0000
0000
,
0100
0000
0000
0000
,
0001
0000
0000
0000
,
0100
0000
0000
0000
,
0010
0000
0000
0000
,
1000
0000
0000
0000
,
0001
0000
0000
0000
,
1000
0000
0000
0000
,
0010
0000
0000
0000
,
0010
0000
0000
0000
,
0100
0000
0000
0000
,
0100
0000
0000
0000
,
0001
0000
0000
0000
,
0001
0000
0000
0000
,
1000
0000
0000
0000
,
1000
0000
0000
0000
,
0010
0000
0000
0000
,
0100
0000
0000
0000
,
0020
0000
0000
0000
0000
0000
0000
0030
,
0000
0000
0000
0000
,
0100
0000
0000
0000
,
0000
0000
0000
0000
,
0110
0000
0000
0000
,
0000
0000
0000
0000
,
1001
0000
0000
0000
,
0000
0000
0000
0000
,
0110
0000
0000
0000
,
0000
0000
0000
0000
,
1000
0000
0001
0000
,
1000
0000
0001
0000
,
1000
0000
0001
0000
,
1000
0000
0001
0000
,
0100
0000
0010
0000
,
0100
0000
0010
0000
,
0100
0000
0010
0000
,
1000
0000
0000
0000
,
1001
0000
0000
0000
;
