#TITLE:Let Me Give You My Heart;
#SUBTITLE:;
#ARTIST:brinq;
#TITLETRANSLIT:;
#SUBTITLETRANSLIT:;
#ARTISTTRANSLIT:;
#GENRE:;
#CREDIT:SupremeX;
#BANNER:Let Me Give You My Heart.png;
#BACKGROUND:Let Me Give You My Heart-bg.png;
#LYRICSPATH:;
#CDTITLE:;
#MUSIC:Let Me Give You My Heart.ogg;
#OFFSET:-0.852459;
#SAMPLESTART:85.760002;
#SAMPLELENGTH:12.000000;
#SELECTABLE:YES;
#BPMS:0.000000=124.009995
;
#STOPS:
;
#BGCHANGES:;
#KEYSOUNDS:;
#ATTACKS:;

//---------------dance-single - ----------------
#NOTES:
     dance-single:
     :
     Hard:
     8:
     0.408081,0.475103,0.175403,0.100231,0.146170,342.000000,321.000000,21.000000,12.000000,0.000000,0.000000,0.408081,0.475103,0.175403,0.100231,0.146170,342.000000,321.000000,21.000000,12.000000,0.000000,0.000000:
0000
0000
0000
0000
,
0000
0000
0000
0000
,
1000
0000
0001
0000
,
1000
0001
1000
0001
,
0000
0000
0100
0000
0010
0000
0100
0000
0001
0000
0000
1000
0000
0000
0001
0000
,
0000
0000
0100
0000
0010
0000
0100
0000
0001
0000
0000
1000
0000
0000
0002
0000
,
0000
0000
0000
0000
0000
0000
0000
0000
0000
0000
0000
0000
0000
0003
0000
0000
,
1000
0000
0010
0100
0000
0010
0000
0000
,
1000
0000
0100
0000
1000
0000
0000
0000
0001
0000
0000
0100
0000
0000
0001
0000
,
0000
0000
0100
0000
0010
0000
0100
0000
0001
0000
0000
0010
0000
0000
0001
0000
,
0000
0000
1000
0000
0000
0010
0000
0000
0100
0000
0000
0001
0000
0000
0010
0000
,
0100
1000
0100
0010
0001
0100
0010
0100
,
0000
0001
0010
0100
1000
0000
0010
0010
,
0000
1000
0100
1000
0000
0000
0001
0001
,
0000
0000
0100
0010
0000
0000
1000
0010
,
0000
0000
0100
0000
0001
0000
0100
0000
0000
0000
0010
0000
1000
0000
0000
1010
,
0000
0000
0000
0100
0001
0000
1000
0001
,
0000
0100
0010
0100
0000
0001
1000
0020
,
0000
0000
1000
1030
0000
0001
0100
0001
,
1000
0100
1000
0010
0001
0010
0100
1000
,
1000
0000
0010
0000
0100
0000
0000
0010
0000
0000
1000
0000
0100
0000
0010
0000
,
0001
0000
0000
0000
0100
0000
0000
0010
0000
0000
1000
0000
0100
0000
1000
0000
,
0010
0000
0000
0000
0100
0000
0000
0001
0000
0000
0010
0000
1000
0000
0010
0000
,
0100
0000
0000
0000
0001
0000
0000
0001
0000
0000
0010
0000
1000
0000
0010
0000
,
0100
0000
0000
0000
0010
0000
0000
0010
0000
0000
1000
0000
0100
0000
0010
0000
,
0001
0000
0000
0000
0100
0000
0000
0100
0000
0000
0010
0000
1000
0000
0001
0000
,
0100
0000
1000
0000
0010
0000
1000
0000
0001
0100
0001
0100
0001
0100
0001
0100
,
0001
0000
0000
0100
,
0110
0000
0000
1000
0100
0010
0000
0001
,
0010
0100
1000
0010
0000
0100
0001
0010
,
0001
0000
0000
1000
0100
0010
0000
0001
,
0010
0100
1000
0010
0000
0100
0010
0100
,
0002
0000
0000
0003
0000
1000
1000
0010
,
0100
0000
0000
0000
0001
0000
0010
0000
0000
0000
0000
1000
0100
0000
1000
0200
,
0000
0000
0000
0300
0000
0010
0001
0010
,
0000
0100
1000
2000
0000
0000
3000
0000
,
0000
0000
0010
0000
0100
0000
0010
0000
1000
0001
0000
0100
0001
0000
1000
0000
,
0000
0001
0010
0001
0000
1000
0100
1000
,
0000
0000
0001
0000
0010
0000
0001
0000
0100
0010
0000
0100
0010
0000
1000
0000
,
0000
0001
0010
0100
0000
1000
0001
0200
,
0000
0000
0300
0000
0000
0001
0010
0001
,
0100
0000
0000
0000
0010
0000
1000
0000
0000
0000
0100
0000
0010
0000
1000
0002
,
0000
0000
0000
0000
0003
0100
0010
0100
,
0000
0001
0001
2000
0000
0000
0000
3000
,
0000
0000
0000
0000
0010
0000
0000
0000
0100
0000
0000
0101
0000
0000
0001
0000
,
0000
0000
1000
0000
0100
0000
0000
0000
0010
0000
0000
0001
0000
0000
0012
0000
,
0000
0100
0100
0103
0000
0010
0010
0010
,
0000
0000
1000
0000
0100
0000
0010
0000
0001
0000
0000
0101
0000
0000
0100
0000
,
0000
0000
0010
0000
1000
0000
0010
0000
0100
0000
0000
0110
0000
0000
0110
0000
,
0000
0000
0001
0000
1000
0000
0100
0000
0010
0000
0000
1010
0000
0000
1020
0000
,
0000
0100
0100
0130
0000
1000
1000
1000
,
0000
0001
0001
0100
0010
1000
0010
0100
,
0000
0000
0001
0000
1000
0000
0001
0000
0100
0000
0000
0110
0000
0000
0101
0000
,
0000
0000
1000
0000
0001
0000
0100
0000
0001
0000
0000
0110
0000
0000
1020
0000
,
0000
0100
0100
0130
0000
1000
1000
1000
,
0000
0000
0001
0000
0001
0000
0100
0000
0010
0000
0000
1010
0000
0000
1001
0000
,
0000
0000
0010
0000
0100
0000
0001
0000
0100
0000
0000
0110
0000
0000
0110
0000
,
0000
0000
0010
0000
1000
0000
0010
0000
0100
0000
0000
0101
0000
0000
0201
0000
,
0000
0010
0010
0310
0000
1000
1000
1000
,
0000
0000
0001
0000
0010
0000
0100
0000
1000
0000
0000
1010
0000
0000
0110
0000
;

//---------------dance-single - ----------------
#NOTES:
     dance-single:
     :
     Medium:
     6:
     0.282793,0.350076,0.041763,0.108583,0.116936,237.000000,232.000000,5.000000,13.000000,0.000000,0.000000,0.282793,0.350076,0.041763,0.108583,0.116936,237.000000,232.000000,5.000000,13.000000,0.000000,0.000000:
0000
0000
0000
0000
,
0000
0000
0000
0000
,
1000
0000
0001
0000
,
1000
0001
1000
0001
,
0000
0000
0100
0000
0100
0000
0100
0000
0010
0000
0000
0010
0000
0000
0010
0000
,
0000
0000
0001
0000
0001
0000
0001
0000
1000
0000
0000
1000
0000
0000
2000
0000
,
0000
0000
0000
0000
0000
0000
0000
0000
0000
0000
0000
0000
0000
3000
0000
0000
,
0001
0000
0001
0100
0000
0100
0000
0000
,
0001
0000
0001
0000
0001
0000
0000
0000
0100
0000
0000
0100
0000
0000
0100
0000
,
0000
0000
0010
0000
0010
0000
0010
0000
1000
0000
0000
1000
0000
0000
1000
0000
,
0000
0000
0001
0000
0000
0100
0000
0000
0001
0000
0000
0100
0000
0000
1000
0000
,
0001
0011
0001
0011
,
0000
0000
1000
0000
1100
0000
0001
0001
,
0000
0100
0010
0100
0000
0000
0010
0010
,
0000
0000
1000
1000
0000
0000
0001
0001
,
0000
0000
0100
0000
0100
0000
0100
0000
0000
0000
0001
0000
0010
0000
0000
0001
,
0000
0000
0000
1000
0100
0000
0010
0001
,
0000
0100
0000
0100
0000
0000
1000
0020
,
0000
0000
0000
0030
0000
0001
0100
0001
,
0000
1000
0000
0001
0000
1000
0000
0001
,
0000
0000
1000
0000
0010
0000
0000
0010
0000
0000
0010
0000
0000
0000
0000
0000
,
1000
0000
0000
0000
0100
0000
0000
0100
0000
0000
0100
0000
0000
0000
0001
0000
,
0010
0000
0000
0000
1000
0000
0000
1000
0000
0000
1000
0000
0000
0000
0000
0000
,
0100
0000
0000
0000
0001
0000
0000
0001
0000
0000
0001
0000
0000
0000
1000
0000
,
0100
0000
0000
0000
0001
0000
0000
0001
0000
0000
0001
0000
0000
0000
0100
0000
,
0010
0000
0000
0000
1000
0000
0000
1000
0000
0000
1000
0000
0000
0000
0010
0000
,
0100
0001
1000
0001
1000
0010
0010
0010
,
0000
0000
0000
0010
,
0100
0000
0000
0000
1000
0000
0000
0001
,
0010
0100
1000
0010
0000
0000
1000
0000
,
0010
0000
0000
0000
1000
0000
0000
0001
,
0010
0100
1000
0001
0000
0000
0100
0000
,
0002
0000
0000
0003
0000
0000
0000
0000
,
1000
0000
0000
0000
0010
0000
0100
0000
0000
0000
0000
0000
0100
0000
0000
0002
,
0000
0000
0000
0003
0000
0000
0000
1100
,
0000
0000
0000
0220
0000
0000
0330
0000
,
0000
0000
0001
0000
0100
0000
0001
0000
1000
0000
0000
1000
0000
0000
1000
0000
,
0000
0010
0100
0010
0000
0000
1000
0000
,
0000
0000
0001
0000
0010
0000
0001
0000
0100
0000
0000
0100
0000
0000
0100
0000
,
0000
0001
0010
0001
0000
1000
0100
2000
,
0000
3000
0000
0000
,
0100
0000
0000
0000
0010
0000
0010
0000
0000
0000
0000
0000
0001
0000
0000
0200
,
0000
0000
0000
0000
0000
0000
0000
0000
0000
0300
0000
0000
0001
0000
0010
0000
,
0000
0100
1000
0020
0000
0000
0000
0030
,
0000
0000
0000
0000
1000
0000
0000
0000
0010
0000
0000
0100
0000
0000
0010
0000
,
0000
0000
1000
0000
0100
0000
0000
0000
0001
0000
0000
0010
0000
0000
0002
0000
,
0000
0000
0000
0003
0000
1000
1000
1000
,
0000
0000
0000
0000
0000
0000
0000
0000
0010
0000
0000
0100
0000
0000
0010
0000
,
0000
0000
0000
0000
1000
0000
0000
0000
0001
0000
0000
0100
0000
0000
0001
0000
,
0000
0000
0000
0000
1000
0000
0000
0000
0010
0000
0000
0001
0000
0000
0200
0000
,
0000
0000
0000
0300
0000
0000
0001
0000
,
0000
1000
0001
1000
0001
1000
0001
1000
,
0000
0000
0000
0000
0001
0000
0000
0000
0100
0000
0000
0100
0000
0000
0100
0000
,
0000
0000
0000
0000
0010
0000
0000
0000
1000
0000
0000
1000
0000
0000
2000
0000
,
0000
0000
0000
3000
0000
0001
0001
0001
,
0000
0000
0000
0000
0100
0000
0000
0000
0001
0000
0000
1000
0000
0000
1000
0000
,
0001
0000
0000
0000
0100
0000
0000
0000
0100
0000
0000
0100
0000
0000
0100
0000
,
0000
0000
0000
0000
0010
0000
0000
0000
1000
0000
0000
1000
0000
0000
2000
0000
,
0000
0000
0000
3000
0000
0001
0001
0001
,
0000
0000
0000
0000
1000
0000
0000
0000
0010
0000
0000
0100
0000
0000
0010
0000
;

//---------------dance-single - ----------------
#NOTES:
     dance-single:
     :
     Easy:
     3:
     0.214780,0.225049,0.000000,0.033410,0.062644,180.000000,180.000000,0.000000,4.000000,0.000000,0.000000,0.214780,0.225049,0.000000,0.033410,0.062644,180.000000,180.000000,0.000000,4.000000,0.000000,0.000000:
0000
0000
0000
0000
,
0000
0000
0000
0000
,
0100
0000
0001
0000
,
1000
0010
0100
0001
,
0000
0000
0000
0000
0000
0000
0000
0000
1000
0000
0000
1000
0000
0000
1000
0000
,
0000
0000
0000
0000
0000
0000
0000
0000
0010
0000
0000
0010
0000
0000
0010
0000
,
0000
0000
0000
0000
,
0001
0000
0000
1000
0000
1000
0000
0000
,
0000
0000
0000
0000
0000
0000
0000
0000
0100
0000
0000
0100
0000
0000
0100
0000
,
0000
0000
0000
0000
0000
0000
0000
0000
0001
0000
0000
0001
0000
0000
0001
0000
,
0000
0000
1000
0000
0000
0010
0000
0000
1000
0000
0000
0010
0000
0000
1000
0000
,
0000
0000
0000
0000
,
0100
0010
0100
0010
,
0100
0000
0001
0000
0001
0000
0000
1000
,
0000
0000
0001
0001
0000
0000
0100
0100
,
0000
0000
0000
0000
,
0010
0000
0000
1000
0000
1000
0000
0000
,
0100
0000
0000
0001
0000
0001
0000
0000
,
0010
0000
0000
1000
0000
1000
0000
0000
,
0100
0000
0000
0001
0000
0001
0000
0000
,
0000
1000
0010
1000
,
0010
0100
0001
0100
,
0001
0010
1000
0010
,
0100
1000
0100
0010
,
0001
0001
0001
0001
,
1000
1000
1000
1000
,
0010
0010
0010
0010
,
0200
0000
0000
0000
0000
0300
0000
0000
,
0010
0000
1000
0000
,
0001
0100
0001
0100
,
0010
0000
1000
0000
,
0100
0001
0100
0010
,
0001
0000
0000
1000
,
1000
0100
0000
0010
,
0020
0000
0030
0000
,
1000
0001
0001
0001
,
0100
0010
0100
0010
,
0100
1000
0001
0010
,
0100
1000
0010
0100
,
0001
0010
0100
1000
,
0020
0000
0030
0000
,
0100
0000
0000
0001
0000
0000
1000
0000
,
1000
0010
0100
0001
,
0100
0000
0000
0020
0000
0000
0000
0030
,
0000
0000
0000
0000
1000
0000
0000
0000
0010
0000
0000
0010
0000
0000
0010
0000
,
0000
0000
0000
0000
0100
0000
0000
0000
0001
0000
0000
0001
0000
0000
0001
0000
,
0000
0000
0000
0010
0000
0000
0000
0100
,
0000
0000
0000
0010
0000
0000
0000
0000
,
0000
0000
0000
0000
0001
0000
0000
0000
0100
0000
0000
0100
0000
0000
0100
0000
,
0000
0000
0000
0000
0010
0000
0000
0000
1000
0000
0000
1000
0000
0000
1000
0000
,
0000
0010
0000
0100
,
0000
0010
0100
0010
,
1000
0000
0000
0000
0000
0000
0000
0000
0001
0000
0000
0001
0000
0000
0001
0000
,
0000
0000
0000
0000
0100
0000
0000
0000
0010
0000
0000
0010
0000
0000
0010
0000
,
0000
0000
0000
0001
0000
0000
0000
1000
,
0000
0010
0100
0010
,
1000
0000
0000
0000
0001
0000
0000
0000
0100
0000
0000
0100
0000
0000
0100
0000
,
0000
0000
0000
0000
0010
0000
0000
0000
1000
0000
0000
1000
0000
0000
1000
0000
,
0000
0001
0100
0001
,
0100
0000
0000
0000
0010
0000
0000
0000
1000
0000
0000
0010
0000
0000
0100
0000
;

//---------------dance-single - Copied from----------------
#NOTES:
     dance-single:
     Copied from:
     Beginner:
     2:
     0.096651,0.123200,0.000000,0.000000,0.000000,81.000000,81.000000,0.000000,0.000000,0.000000,0.000000,0.096651,0.123200,0.000000,0.000000,0.000000,81.000000,81.000000,0.000000,0.000000,0.000000,0.000000:
0000
0000
0000
0000
,
0000
0000
0000
0000
,
1000
0000
0000
0000
,
0010
0000
0000
0000
,
1000
0000
0000
0000
,
0001
0000
0000
0000
,
1000
0000
0000
0000
,
0001
0000
0000
0000
,
0100
0000
0000
0000
,
0010
0000
0000
0000
,
0100
0000
0000
0000
,
0010
0000
0000
0000
,
1000
0000
1000
0000
,
1000
0000
1000
0000
,
1000
0000
1000
0000
,
1000
0000
1000
0000
,
1000
0000
0000
0000
,
0001
0000
0000
0000
,
0001
0000
0000
0000
,
0001
0000
0000
0000
,
0100
0000
0100
0000
,
0100
0000
0100
0000
,
0100
0000
0100
0000
,
0100
0000
0000
0000
,
0010
0000
0000
0000
,
0010
0000
0000
0000
,
0010
0000
0000
0000
,
0010
0000
0000
0000
,
0100
0000
1000
0000
,
0100
0000
1000
0000
,
0100
0000
0001
0000
,
0010
0000
0001
0000
,
0010
0000
0000
0000
,
1000
0000
0000
0000
,
0010
0000
0000
0000
,
0100
0000
0000
0000
,
0001
0000
0100
0000
,
0001
0000
0100
0000
,
0001
0000
1000
0000
,
0010
0000
1000
0000
,
0010
0000
0000
0000
,
0100
0000
0000
0000
,
0100
0000
0000
0000
,
0010
0000
0000
0000
,
1000
0000
0000
0000
,
0001
0000
0000
0000
,
0100
0000
0000
0000
,
0000
0000
0100
0000
,
0000
0000
0001
0000
,
1000
0000
0001
0000
,
1000
0000
0000
0000
,
0000
0000
0010
0000
,
0010
0000
0010
0000
,
0010
0000
0010
0000
,
0100
0000
0100
0000
,
0100
0000
0100
0000
,
0001
0000
0001
0000
,
0001
0000
0001
0000
,
1000
0000
1000
0000
,
1000
0000
0000
0000
;
