#TITLE:LOVE IS ORANGE (Meggido Mix);
#SUBTITLE:;
#ARTIST:Orange Lounge;
#TITLETRANSLIT:;
#SUBTITLETRANSLIT:;
#ARTISTTRANSLIT:;
#GENRE:;
#CREDIT:SupremeX;
#BANNER:LOVE IS ORANGE (Megiddo Mix)-bn.png;
#BACKGROUND:LOVE IS ORANGE (Megiddo Mix)-bg.png;
#LYRICSPATH:;
#CDTITLE:;
#MUSIC:LOVE IS ORANGE (Meggido Mix).ogg;
#OFFSET:-0.030622;
#SAMPLESTART:59.139999;
#SAMPLELENGTH:12.000000;
#SELECTABLE:YES;
#BPMS:0.000000=180.000000
,236.000000=90.000000
,268.000000=180.001007
,300.000000=90.000000
;
#STOPS:94.000000=0.840000,
139.500000=0.840000
;
#BGCHANGES:;
#KEYSOUNDS:;
#ATTACKS:;

//---------------dance-single - ----------------
#NOTES:
     dance-single:
     :
     Hard:
     9:
     0.508181,0.588102,0.048953,0.097906,0.000000,436.000000,430.000000,6.000000,12.000000,0.000000,0.000000,0.508181,0.588102,0.048953,0.097906,0.000000,436.000000,430.000000,6.000000,12.000000,0.000000,0.000000:
0000
0000
0000
0000
,
0000
0000
0000
0000
,
0000
0000
0000
0000
,
0000
0000
0000
0000
,
0000
0000
0000
0000
,
0000
0000
0000
0000
,
0000
0000
0000
0000
,
0000
0000
0000
0000
,
0000
1000
1000
0001
,
0001
0000
1000
0100
0010
0001
1000
0100
,
0010
0000
0001
0010
0100
1000
0001
0010
,
0100
0000
1000
0100
0010
0001
1000
0100
,
0010
0001
0001
1000
,
1000
0000
0001
0010
0100
1000
0001
0010
,
0100
0000
1000
0100
0010
0001
1000
0100
,
0010
0000
0001
0010
0100
1000
0001
0010
,
0100
1000
2000
0000
3100
0100
0000
1000
,
0100
1000
0200
0000
0310
0010
0000
0001
,
0010
0001
0020
0000
0130
0100
0000
1000
,
0100
1000
0200
0000
0310
0010
0000
0001
,
0010
0001
0020
0000
0130
0100
0000
1000
,
0100
1000
0200
0000
0310
0010
0000
0001
,
0010
0001
0020
0000
0031
0001
0000
1000
,
0100
0000
1000
1000
1000
0001
0000
0100
,
0010
0100
0001
0010
0100
1000
0100
0010
,
0001
0010
0100
1000
0100
0000
0010
0001
,
0010
0000
0100
1000
0100
0000
0010
0001
,
0010
0100
1000
0100
0010
0001
0000
1000
,
0100
1000
0000
0001
0010
0100
1000
0100
,
0010
0001
1000
0100
0010
0000
0001
0010
,
0001
0000
0100
1000
0100
0000
0010
0001
,
0010
0100
1000
0100
0010
0002
0000
0013
,
0010
0000
0100
1000
0100
2000
0000
3100
,
0100
0000
0010
0001
0010
0002
0000
0013
,
0010
0000
0001
1000
0000
0100
0100
0100
,
1000
0000
0100
0010
0001
1000
0100
0010
,
0001
0010
0100
1000
0100
0010
0001
0010
,
0000
0100
1000
0100
0000
0010
0001
0010
,
0000
0001
0010
0100
1000
0100
0010
0001
,
0010
0000
0100
1000
0100
0000
0010
0001
,
0010
0100
1000
0100
0010
0001
0010
0100
,
0000
1000
0100
1000
0000
0010
0001
0010
,
0000
0100
1000
0100
0010
0001
0010
0100
,
1000
0000
0001
0010
0100
1000
0001
0010
,
0100
0000
0000
1000
0100
0010
0001
1000
,
1000
0000
0000
0001
0010
0100
1000
0001
,
0001
1000
0001
1000
,
0001
0000
1000
0100
0010
0001
1000
0100
,
0010
0000
0000
1000
0100
0010
0001
1000
,
1000
0000
0001
0010
0100
1000
0001
0001
,
1000
0001
1000
0001
,
1000
0000
0100
1000
0100
0010
0001
0010
,
0100
1000
0100
0010
0001
0010
0100
1000
,
0000
0001
0010
0001
0000
1000
0100
1000
,
0000
0001
0010
0100
1000
0001
0010
0100
,
1000
0000
0010
0100
0010
0000
1000
0100
,
0010
0001
1000
0100
0010
0001
0010
0100
,
0000
1000
0010
1000
0000
0001
0100
0001
,
0000
1000
0100
0010
0001
0010
0100
1000
,
0001
0100
0010
1000
0001
0100
0010
1000
,
0001
0100
0010
1000
0001
0100
0010
1000
,
1100
0010
0001
0010
0100
1000
0100
0010
,
0001
1000
0010
0100
0001
1000
0100
0010
,
0011
0000
0100
0100
1000
1000
0100
0100
,
0010
0010
0001
0001
0010
0010
0100
0100
,
1100
0000
0010
0010
0001
0001
0010
0010
,
0100
0100
1000
1000
0100
0100
0010
0010
,
0001
1000
0100
0010
0001
0000
0000
0000
,
1000
0100
0010
0001
1000
0000
0000
0000
,
0001
1000
0010
0100
0001
1000
0010
0100
,
0001
0000
0110
0000
,
1000
0100
0010
0001
1000
0000
0000
0000
,
0001
0010
0100
1000
0001
0000
0000
0000
,
1000
0001
0100
0010
1000
0001
0100
0010
,
1000
0000
0110
0000
,
2002
0000
0000
0000
0000
0000
0000
3003
;

//---------------dance-single - ----------------
#NOTES:
     dance-single:
     :
     Medium:
     7:
     0.375308,0.464291,0.073430,0.016318,0.000000,322.000000,313.000000,9.000000,2.000000,0.000000,0.000000,0.375308,0.464291,0.073430,0.016318,0.000000,322.000000,313.000000,9.000000,2.000000,0.000000,0.000000:
0000
0000
0000
0000
,
0000
0000
0000
0000
,
0000
0000
0000
0000
,
0000
0000
0000
0000
,
0000
0000
0000
0000
,
0000
0000
0000
0000
,
0000
0000
0000
0000
,
0000
0000
0000
0000
,
0000
1000
0001
1000
,
0001
0000
0100
0010
0100
0000
0001
1000
,
0001
0000
1000
0100
1000
0000
0001
0100
,
0001
0010
0100
1000
,
0100
1001
0000
0010
,
0100
0000
0001
1000
0001
0000
0100
0010
,
0100
0000
0001
1000
0001
0000
1000
0100
,
1000
0000
0001
0100
0001
0000
1000
0100
,
1000
0010
0100
0010
,
1000
0001
1000
0000
0010
0100
0000
0001
,
0010
0100
1000
0000
0010
0000
0100
0000
,
0010
0000
1000
0000
0010
0100
0000
0001
,
1000
0010
0100
0000
0001
1000
0000
0010
,
0100
0001
1000
0001
,
1000
0100
1000
0000
0001
0100
0000
0001
,
1000
0000
0010
0010
0010
1000
0000
0000
,
0001
1000
0000
0001
0010
0100
1000
0100
,
0010
0001
0000
0000
0000
1000
0000
0100
,
0000
1000
0000
0100
0000
0010
0001
0010
,
0100
1000
0000
0000
0000
0010
0000
0100
,
0000
0010
0000
1000
0100
0010
0001
0010
,
0100
1000
0000
0000
0000
0001
0000
0100
,
0000
0001
0000
0100
0000
0010
1000
0100
,
0010
0001
0000
0000
0000
1000
0000
0010
,
0010
0000
0000
1000
0000
0001
0000
0100
,
0100
0000
0000
0001
0000
1000
0000
0100
,
0100
0000
0000
1000
0000
0001
0001
0001
,
1000
0000
0000
0010
0010
0000
1000
0100
,
0010
0001
0010
0100
1000
0000
0000
0000
,
0001
0010
0100
1000
,
0001
0100
0010
1000
0001
0000
0000
0000
,
1000
0000
0100
0000
1000
0000
0001
0100
,
0001
1000
0010
1000
0001
0000
1000
0000
,
0010
0100
0001
1000
,
0010
1000
0001
1000
0010
0000
0000
0000
,
0100
0010
0100
0001
,
1001
0000
0100
1000
,
1100
0000
0010
0001
,
0011
0100
1000
0100
,
1000
0100
0010
0001
,
0110
0000
1000
0001
,
1001
0000
0010
0100
,
1001
1000
0001
0100
,
0001
0000
0000
1000
0001
0000
0100
0010
,
1000
0001
0100
0010
1000
0000
0000
0000
,
0001
0100
0001
1000
,
0100
0010
1000
0010
0100
0000
0000
0000
,
0001
0000
1000
0000
0001
0000
0100
0010
,
0100
0001
1000
0001
0100
0000
0000
0000
,
0001
1000
0001
0100
,
0001
1000
0100
1000
0001
0000
0000
0000
,
1000
0000
0001
0100
0001
0000
1000
0100
,
1000
0000
0001
0010
0100
1000
0100
0010
,
0010
0000
0001
0010
0100
0000
1000
0100
,
0010
0000
0001
0010
0100
1000
0010
0100
,
0001
0000
1000
0000
0010
0100
0010
0000
,
1000
0001
1000
0000
0001
1000
0100
0000
,
1001
0000
0010
0010
0100
0001
1000
0000
,
0001
0100
0001
0000
1000
0100
0010
0001
,
1000
0010
1000
0000
,
0001
0100
0001
0000
,
1000
0100
1000
0001
,
1000
0000
0010
0000
,
0100
0001
0100
0000
,
0001
1000
0001
0000
,
1000
0100
0010
0001
,
1000
0000
0001
0000
,
2002
0000
0000
0000
0000
0000
0000
3003
;

//---------------dance-single - ----------------
#NOTES:
     dance-single:
     :
     Easy:
     4:
     0.300713,0.309527,0.122383,0.016318,0.000000,258.000000,243.000000,15.000000,2.000000,0.000000,0.000000,0.300713,0.309527,0.122383,0.016318,0.000000,258.000000,243.000000,15.000000,2.000000,0.000000,0.000000:
0000
0000
0000
0000
,
0000
0000
0000
0000
,
0000
0000
0000
0000
,
0000
0000
0000
0000
,
0000
0000
0000
0000
,
0000
0000
0000
0000
,
0000
0000
0000
0000
,
0000
0000
0000
0000
,
0000
0001
0010
0100
,
1000
0001
0001
0001
,
0001
1000
1000
1000
,
1000
0001
0001
0001
,
0001
1001
0000
1000
,
0100
0010
0001
0001
,
0001
1000
1000
1000
,
1000
0001
0001
0001
,
0001
1000
0010
0100
,
0001
1000
0010
0100
,
0001
1000
0010
0100
,
0001
1000
0010
0100
,
0001
1000
0100
0010
,
0001
0010
0100
1000
,
0100
0010
0001
0010
,
1000
0000
0001
0001
0001
1000
0000
0010
,
0000
0100
0000
0010
0000
1000
0000
0010
,
0000
0100
0000
0001
0000
0000
0000
1001
,
0000
0000
0000
1010
0000
0000
0000
0001
,
0000
0010
0000
0100
0000
1000
0000
0010
,
0000
0100
0000
0001
0000
1000
0000
0010
,
0000
0100
0000
0001
0000
0000
0000
1001
,
0000
0000
0000
1010
0000
0000
0000
0001
,
0000
0001
0000
0001
0000
0100
0000
0100
,
0000
0010
0000
0010
0000
1000
0000
1000
,
0000
0001
0000
0001
0000
0100
0000
0100
,
0000
0010
0000
0010
0000
0100
0100
0100
,
0001
0001
1000
0010
,
0100
0001
1000
0010
,
0000
1001
0000
0110
,
0000
1000
1000
0001
,
1000
0010
0100
0001
,
1000
0001
0100
0001
,
0000
1001
0000
0110
,
0000
0001
1000
0001
,
1000
1000
0010
0010
,
0100
0100
0001
1000
,
0010
0100
0001
1000
,
0001
0100
0010
1000
,
0001
0001
0100
0100
,
0010
0010
1000
0001
,
1000
0010
0100
0001
,
1000
0010
1000
0010
,
0100
0000
0000
0001
0000
0000
1000
0000
,
0010
0100
0001
0010
,
0000
1000
0000
1001
,
0000
0010
0100
0001
,
1000
0010
0100
0001
,
1000
1000
1000
0001
,
0000
0110
0000
1000
,
0000
0001
1000
0010
,
0100
0001
0010
0100
,
1000
0001
1000
0010
,
0101
0010
1000
0010
,
1000
0010
0100
0001
,
1000
0100
0010
0010
,
0001
0001
0100
0100
,
0010
1000
0001
0001
,
0100
0100
0010
0010
,
1000
1000
1000
0000
,
0001
0001
0001
0000
,
0100
0100
0100
0010
,
1000
0000
0110
0000
,
0001
0001
0001
0000
,
1000
1000
1000
0000
,
0010
0100
0001
1000
,
0010
0000
0110
0000
,
0220
0000
0000
0000
0000
0000
0000
0330
;

//---------------dance-single - Copied from----------------
#NOTES:
     dance-single:
     Copied from:
     Beginner:
     3:
     0.125880,0.183575,0.089748,0.000000,0.000000,108.000000,97.000000,11.000000,0.000000,0.000000,0.000000,0.125880,0.183575,0.089748,0.000000,0.000000,108.000000,97.000000,11.000000,0.000000,0.000000,0.000000:
0000
0000
0000
0000
,
0000
0000
0000
0000
,
0000
0000
0000
0000
,
0000
0000
0000
0000
,
0000
0000
0000
0000
,
0000
0000
0000
0000
,
0000
0000
0000
0000
,
0000
0000
0000
0000
,
0000
0001
0000
0000
,
0000
0001
0000
0000
,
0000
0001
0000
0000
,
0000
0001
0000
0000
,
0000
1000
0000
0000
,
0000
1000
0000
0000
,
0000
1000
0000
0000
,
0000
1000
0000
0000
,
0000
0010
0000
0000
,
0000
0100
0000
0000
,
0000
0010
0000
0000
,
0000
0100
0000
0000
,
0000
0010
0000
0000
,
0000
0100
0000
0000
,
0000
0010
0000
0000
,
0000
0000
0110
0000
0000
0001
0000
0000
,
0000
0000
0000
0000
0000
1000
0000
0000
,
0000
0000
0000
0000
0000
0001
0000
0000
,
0000
1000
0000
0000
0000
0001
0000
0000
,
0000
1000
0000
0000
0000
0010
0000
0000
,
0000
0000
0000
0000
0000
0100
0000
0000
,
0000
0000
0000
0000
0000
0010
0000
0000
,
0000
0100
0000
0000
0000
0010
0000
0000
,
0000
0100
0000
0000
0000
0001
0000
0000
,
0000
0000
0000
0000
0000
0001
0000
0000
,
0000
0000
0000
0000
0000
1000
0000
0000
,
0000
0000
0000
0000
0000
1001
0000
0000
,
0010
0000
0000
0000
,
0100
0000
0000
0000
,
0010
0000
0100
0000
,
0010
0000
0100
0000
,
0001
0000
0000
0000
,
1000
0000
0000
0000
,
0001
0000
1000
0000
,
0001
0000
1000
0000
,
0010
0000
0100
0000
,
0001
0000
0000
0000
,
1000
0000
0000
0000
,
0001
0000
0000
0000
,
1000
0000
0010
0000
,
0100
0000
0001
0000
,
1000
0000
0001
0000
,
1000
0000
0000
0000
,
0010
0000
0100
0000
,
0010
0000
0100
0000
,
0001
0000
1000
0000
,
0001
0000
1000
0000
,
0010
0000
0100
0000
,
0010
0000
0100
0000
,
0001
0000
1000
0000
,
0001
0000
1000
0000
,
0001
0000
1000
0000
,
0001
0000
1000
0000
,
0001
0000
1000
0000
,
0001
0000
1000
0000
,
0010
0000
0100
0000
,
0010
0000
0100
0000
,
0010
0000
0100
0000
,
0010
0000
0100
0000
,
1001
0000
0000
0000
,
1001
0000
0000
0000
,
1001
0000
0000
0000
,
1001
0000
0000
0000
,
0110
0000
0000
0000
,
0110
0000
0000
0000
,
0110
0000
0000
0000
,
0110
0000
0000
0000
,
0110
0000
0000
0000
;
