#TITLE:KOTOBUKI;
#SUBTITLE:;
#ARTIST:REVen-G;
#TITLETRANSLIT:;
#SUBTITLETRANSLIT:;
#ARTISTTRANSLIT:;
#GENRE:;
#CREDIT:SupremeX;
#BANNER:KOTOBUKI.png;
#BACKGROUND:KOTOBUKI-bg.png;
#LYRICSPATH:;
#CDTITLE:CDTitle.png;
#MUSIC:KOTOBUKI.ogg;
#OFFSET:0.177133;
#SAMPLESTART:27.440001;
#SAMPLELENGTH:12.000000;
#SELECTABLE:YES;
#BPMS:0.000000=140.000000
,168.500000=280.000000;
#STOPS:;
#BGCHANGES:0.000=KOTOBUKI.avi=1.000=1=0=0=StretchNoLoop==CrossFade==,
99999=-nosongbg-=1.000=0=0=0 // don't automatically add -songbackground-;
#KEYSOUNDS:;
#ATTACKS:;

//---------------dance-single - ----------------
#NOTES:
     dance-single:
     :
     Challenge:
     9:
     0.542107,0.835795,0.197252,0.234823,0.075143,404.000000,383.000000,21.000000,25.000000,0.000000,0.000000,0.542107,0.835795,0.197252,0.234823,0.075143,404.000000,383.000000,21.000000,25.000000,0.000000,0.000000:
0000
0000
0000
0000
,
0000
0010
0100
0001
1000
0001
0100
0001
,
0010
0100
1000
0010
0100
0100
0000
0000
,
0000
0001
0000
1000
0000
0010
0000
0100
,
0000
0001
0000
1000
0000
2002
0000
3003
,
0000
0100
0010
1000
0001
0100
0010
1000
,
0001
0000
0100
0010
0100
0010
0100
0010
0100
0000
0001
0000
1000
0000
0001
0000
,
1000
0010
1000
0010
1000
0010
1000
0000
0001
0000
0100
0000
0001
0000
0100
0000
,
0010
1000
0000
0001
0000
0100
0001
0100
,
0000
0010
0000
1010
0000
0001
0100
0010
,
0000
1000
0000
0101
0000
1000
0001
1000
,
0000
0100
0000
0110
0000
0001
1000
0010
,
0100
0001
0000
1001
0000
1000
0010
0100
,
0000
0001
0000
0010
0000
0100
1000
0100
,
0000
0001
0000
0011
0000
0100
0010
1000
,
0000
0100
0000
0101
0000
1000
0010
1000
,
0000
0001
0010
0100
1000
0020
0000
0030
,
0000
0000
0100
0001
0100
0001
0100
0001
0100
0001
0100
0000
0001
0000
0010
0000
,
0100
1000
0010
0100
0001
2000
0000
3010
,
0100
0020
0000
1030
0001
0200
0000
0300
,
0000
0020
0000
2030
0000
3002
0000
0203
,
0000
0310
0000
1000
0001
1000
0000
0000
,
0000
0000
0010
1000
0010
1000
0010
1000
0010
0000
0100
0001
0100
0001
0100
0001
,
1000
0001
0100
0010
1000
0001
0100
0010
,
1000
0001
0010
0100
1000
0010
0100
0001
,
0010
0100
1000
0010
0100
0002
0000
0000
,
0003
1000
0100
0010
0001
0100
0010
1000
,
0100
0010
0001
0100
0010
1000
0001
0001
,
0000
2000
0000
0100
3100
0020
0000
1000
,
1030
0200
0000
0001
0301
1000
0010
1000
,
0000
0002
0000
0100
0103
0001
0010
0100
,
1000
0010
0100
0001
1000
0100
0010
0001
,
0100
0010
0000
0000
1000
1010
0000
0000
,
0000
0001
0000
1000
0010
0110
0000
0000
,
0000
1000
0000
0000
0001
1001
0000
0000
,
0000
0100
0000
0001
0010
0110
0000
0000
,
0000
1000
0010
0100
0001
1000
0000
0010
,
0000
0110
0000
0100
0000
1010
0000
0101
,
0000
0001
1000
0010
0200
0000
0000
0301
,
0000
0010
0100
0010
1000
0010
1000
0001
,
0100
0010
1000
0010
0100
0001
0100
0010
,
1000
0100
0010
0001
0100
0010
0100
0001
,
1000
0001
0100
0000
0000
0010
0100
0000
,
0000
0100
1000
0000
0000
0010
0100
0000
,
0000
0001
0010
0000
0000
0010
0100
0000
,
0000
0100
1000
0000
0000
0001
1000
0000
,
0000
0010
0000
1000
0000
0001
0000
0100
,
0000
0010
1000
0010
1000
0001
1000
0001
,
0100
0001
0000
0010
0000
0100
0000
1000
,
0000
0202
0000
0000
0000
0000
0000
0303
,
0000
0010
0100
0000
0000
0100
1000
0000
,
0000
1000
0100
0000
0000
0100
0010
0000
,
0000
0010
0001
0000
0000
0001
1000
0000
,
0000
1000
0100
0000
0000
0100
0010
0000
,
0000
0001
0000
0010
0000
0100
0000
1000
,
0000
0010
0000
0100
0000
0101
0000
0000
,
0000
1000
0000
0100
0000
0010
0000
0001
,
0000
0100
0000
0010
0000
1010
0000
0000
,
0000
0001
0000
0100
0000
0001
0000
0100
,
0000
0002
0000
0000
0000
0000
0000
0003
,
0000
1000
0010
1000
0010
1000
0010
1000
,
0010
1000
0000
0001
0000
0010
0000
0100
,
0000
1010
0000
0000
0000
0101
0000
0000
,
0000
0110
0000
0000
0000
1000
0000
0010
,
0000
1000
0000
0001
0000
0100
0000
0001
,
0000
2000
0000
0000
0000
0000
0000
0000
,
0000
3002
0000
0000
0000
0023
0000
0000
,
0000
0230
0000
0000
0000
1300
0000
0000
,
0000
1001
0000
0000
0000
0010
0000
0100
,
0000
0002
0000
0000
0000
0000
0003
0000
,
0000
0010
0000
0100
0000
1000
0010
1000
,
0000
0001
0000
0100
0010
0100
0000
0001
,
0000
1000
0000
0010
0100
0001
0000
1000
,
0000
0010
0000
1000
0100
1000
0000
0000
,
0000
0001
0100
0001
0010
0100
1000
0010
,
0100
0002
0000
0000
0000
0000
0000
0000
,
0000
0000
0000
0000
,
0000
0000
0000
0003
0000
0000
0000
0000
;

//---------------dance-single - ----------------
#NOTES:
     dance-single:
     :
     Hard:
     8:
     0.411947,0.599798,0.000000,0.084536,0.000000,307.000000,307.000000,0.000000,9.000000,0.000000,0.000000,0.411947,0.599798,0.000000,0.084536,0.000000,307.000000,307.000000,0.000000,9.000000,0.000000,0.000000:
0000
0000
0000
0000
,
0000
0001
0100
0001
0010
0001
0100
0001
,
0010
0100
1000
0010
0100
0001
0000
0000
,
0000
1000
0000
0010
0000
1000
0000
0001
,
0000
0100
0000
0001
0000
1000
0000
0000
,
0000
0001
0100
0001
0100
0010
1000
0010
,
1000
0100
0010
0001
0100
0010
1000
0001
,
0100
0010
0100
0001
0010
0100
1000
0010
,
0100
0001
0000
1000
0000
0010
0100
0010
,
0000
1000
0000
0001
0000
0100
0001
0100
,
0000
0010
0000
0010
0000
1000
0010
1000
,
0000
0001
0000
0100
0000
0010
0100
0010
,
0100
0010
0000
1000
0000
1000
0001
1000
,
0000
0010
0000
0100
0000
0001
0100
0001
,
0000
0001
0000
1000
0000
0010
1000
0010
,
0000
0100
0000
0010
0000
0100
0001
0100
,
0000
0010
0000
1000
0000
1000
0000
0000
,
0000
0010
0100
0010
0100
0010
1000
0100
,
0010
0001
0100
0010
0000
0100
0000
0010
,
0000
1000
0000
0001
0100
0001
0000
0000
,
0000
1000
0000
0010
0000
0100
0000
0001
,
0000
1000
0000
1000
0010
1000
0000
0000
,
0000
0002
0000
0100
0103
0020
0000
1000
,
1030
0001
0100
0001
1000
0001
0100
0001
,
0000
1000
0010
0100
0100
0001
1000
0010
,
0010
1000
0001
0100
0100
0002
0000
0000
,
0003
1000
0010
1000
1000
0001
0100
0010
,
0010
1000
0001
1000
0001
0001
0100
0100
,
0000
0020
0000
1000
1030
0002
0000
0100
,
0103
0020
0000
1000
1030
0001
0010
0100
,
0000
2000
0000
0010
3010
0100
0001
0100
,
0010
1000
0010
1000
0001
0010
0100
1000
,
0010
0100
0000
0000
0001
1000
0000
0000
,
0000
1000
0000
0001
0100
0001
0000
0000
,
0000
0100
0000
0000
0010
0100
0000
0000
,
0000
0010
0000
1000
0010
1000
0000
0000
,
0000
0001
0000
0100
0000
0001
0000
1000
,
0000
0010
0000
1000
0000
0001
0000
1000
,
0000
0010
0100
0010
0100
0000
0000
0001
,
0000
1000
0000
0010
0000
1000
0000
0001
,
0000
2000
0000
0000
0000
0000
0000
0000
,
3000
0002
0000
0000
0000
0000
0000
0000
,
0003
0100
0000
0000
0000
0001
0000
0000
,
0000
0100
0000
0000
0000
0010
0000
0000
,
0000
1000
0000
0000
0000
0010
0000
0000
,
0000
0100
0000
0000
0000
0001
0000
0000
,
0000
1000
0000
0010
0000
1000
0000
0001
,
0000
0100
0000
0010
0000
1000
0000
0001
,
0000
0100
0000
0010
0000
1000
0000
0001
,
0000
0100
0000
0001
0000
0000
0000
0000
,
0000
1000
0000
0000
0000
0010
0000
0000
,
0000
1000
0000
0000
0000
0001
0000
0000
,
0000
0100
0000
0000
0000
0001
0000
0000
,
0000
1000
0000
0000
0000
0010
0000
0000
,
0000
1000
0000
0001
0000
0100
0000
0001
,
0000
1000
0000
0010
0000
0100
0000
0000
,
0000
0001
0000
1000
0000
0010
0000
0100
,
0000
0001
0000
1000
0000
0010
0000
0000
,
0000
0100
0000
0001
0000
1000
0000
0001
,
0000
0100
0000
0000
0000
0000
0000
0000
,
0000
0010
0000
1000
0000
0010
0000
1000
,
0000
0001
0000
0100
0000
0001
0000
0100
,
0000
0001
0000
0000
0000
1000
0000
0000
,
0000
0010
0000
0000
0000
0100
0000
0000
,
0000
0001
0000
0000
0000
1000
0000
0010
,
0000
0100
0000
0000
0000
0000
0000
0000
,
0000
0001
0000
0000
0000
0100
0000
0000
,
0000
0001
0000
0000
0000
1000
0000
0000
,
0000
0010
0000
0000
0000
1000
0000
0001
,
0000
0100
0000
0000
0000
0000
0000
0000
,
0000
0010
0000
1000
0000
0001
0000
0100
,
0000
0010
0000
1000
0000
0001
0000
0100
,
0000
0010
0000
1000
0000
0010
0000
0100
,
0000
0001
0000
0100
0000
0010
0000
0000
,
0000
1000
0000
0100
0000
0010
0000
0001
,
0000
0100
0000
0000
0000
0000
0000
0000
;

//---------------dance-single - ----------------
#NOTES:
     dance-single:
     :
     Medium:
     6:
     0.323385,0.458669,0.037572,0.075143,0.000000,241.000000,237.000000,4.000000,8.000000,0.000000,0.000000,0.323385,0.458669,0.037572,0.075143,0.000000,241.000000,237.000000,4.000000,8.000000,0.000000,0.000000:
0000
0000
0000
0000
,
0000
0010
0000
0100
0000
0010
0000
0100
,
0000
0001
0000
1000
0010
1000
0000
0000
,
0000
0001
0000
0100
0000
0010
0000
1000
,
0000
0001
0000
0100
0000
0001
0000
0000
,
0000
0100
0000
0010
0000
0100
0000
0010
,
0000
0100
0000
1000
0000
1010
0000
0010
,
0000
0110
0000
0100
0000
0101
0000
0001
,
0000
1000
0000
1000
0000
1000
0010
1000
,
0000
0001
0000
0001
0000
0001
0100
0001
,
0000
0010
0000
0010
0000
0010
1000
0010
,
0000
0100
0000
0100
0000
0100
0001
0100
,
0001
0100
0000
0010
0000
0010
1000
0010
,
0000
0010
0000
1000
0000
1000
0010
1000
,
0000
0001
0000
0001
0000
0001
0100
0001
,
0000
0001
0000
0100
0000
0100
0001
0100
,
0000
0100
0000
0010
0000
0010
0000
0000
,
0000
1000
0100
1000
0100
1000
0000
0001
,
0000
0100
0000
0010
0000
1000
0000
0001
,
0000
0100
0000
0001
0100
0001
0000
0000
,
0000
1000
0000
0010
0000
0100
0000
0001
,
0000
1000
0000
0010
1000
0010
0000
0000
,
0000
0001
0000
0100
0001
1000
0000
0010
,
1000
0001
0000
0100
0001
1000
0000
0010
,
1000
0100
0000
0100
0010
0010
0000
0100
,
0000
0100
0010
0100
0010
2000
0000
0000
,
3000
0001
0000
0001
0000
0100
0000
0100
,
0000
0010
0000
0010
0000
1000
0000
1000
,
0000
0020
0000
0000
0030
0200
0000
0000
,
0300
0002
0000
0000
0003
1000
0000
1000
,
0000
0020
0000
0000
0030
0100
0000
0100
,
0000
0001
0000
0001
0000
0100
0001
0100
,
0001
0010
0000
0000
0010
0100
0000
0000
,
0000
0010
0000
1000
0010
1000
0000
0000
,
0000
0010
0000
0000
0010
0100
0000
0000
,
0000
0100
0000
0001
0100
0001
0000
0000
,
0000
1000
0000
0010
0000
0100
0000
0001
,
0000
1000
0000
0010
0000
0100
0000
0001
,
0000
0100
0010
0100
0010
0000
0000
1000
,
0000
0010
0000
1000
0000
0010
0000
1000
,
0000
0002
0000
0000
0000
0000
0000
0000
,
0003
2000
0000
0000
0000
0000
0000
0000
,
3000
0001
0000
0000
0000
0001
0000
0000
,
0000
0100
0000
0000
0000
0100
0000
0000
,
0000
0010
0000
0000
0000
0010
0000
0000
,
0000
1000
0000
0000
0000
1000
0000
0000
,
0000
0001
0000
0000
0000
0001
0000
0000
,
0000
0100
0000
0000
0000
0100
0000
0000
,
0000
0010
0000
0000
0000
0010
0000
0000
,
0000
1000
0000
0000
0000
1000
0000
0000
,
0000
0001
0000
0000
0000
0100
0000
0000
,
0000
0001
0000
0000
0000
0100
0000
0000
,
0000
0010
0000
0000
0000
1000
0000
0000
,
0000
0010
0000
0000
0000
1000
0000
0000
,
0000
0001
0000
0000
0000
0001
0000
0000
,
0000
0100
0000
0001
0000
0100
0000
0000
,
0000
0010
0000
0000
0000
0010
0000
0000
,
0000
1000
0000
0010
0000
1000
0000
0000
,
0000
0001
0000
0000
0000
0001
0000
0010
,
0000
0100
0000
0000
0000
0000
0000
0000
,
0000
0010
0000
0000
0000
0010
0000
0000
,
0000
1000
0000
0001
0000
0100
0000
0001
,
0000
1000
0000
0000
0000
0010
0000
0000
,
0000
1000
0000
0000
0000
0010
0000
0000
,
0000
1000
0000
0000
0000
0001
0000
0000
,
0000
0101
0000
0000
0000
0000
0000
0000
,
0000
1000
0000
0000
0000
0010
0000
0000
,
0000
1000
0000
0000
0000
0010
0000
0000
,
0000
1000
0000
0000
0000
0010
0000
0000
,
0000
0100
0000
0000
0000
0000
0000
0000
,
0000
0001
0000
0000
0000
0001
0000
0000
,
0000
0100
0000
0000
0000
0100
0000
0000
,
0000
0010
0000
0000
0000
0010
0000
0000
,
0000
1000
0000
0000
0000
1000
0000
0000
,
0000
0002
0000
0000
0000
0000
0000
0000
,
0000
0003
0000
0000
0000
0000
0000
0000
;

//---------------dance-single - ----------------
#NOTES:
     dance-single:
     :
     Easy:
     3:
     0.248242,0.317540,0.009393,0.000000,0.000000,185.000000,184.000000,1.000000,0.000000,0.000000,0.000000,0.248242,0.317540,0.009393,0.000000,0.000000,185.000000,184.000000,1.000000,0.000000,0.000000,0.000000:
0000
0000
0000
0000
,
0000
0000
0000
0000
,
0000
0000
0000
0000
,
0000
0001
0000
0000
0000
0100
0000
0000
,
0000
0010
0000
0000
0000
1000
0000
0000
,
0000
0001
0000
0000
0000
0100
0000
0000
,
0000
0010
0000
0000
0000
1000
0000
0000
,
0000
0001
0000
0000
0000
0100
0000
0000
,
0000
0001
0000
0010
0000
0001
0000
0010
,
0000
1000
0000
0100
0000
1000
0000
0100
,
0000
0001
0000
0010
0000
0001
0000
0010
,
0000
1000
0000
0100
0000
1000
0000
0100
,
0000
0001
0000
0010
0000
0001
0000
0010
,
0000
1000
0000
0100
0000
1000
0000
0100
,
0000
0001
0000
0010
0000
0001
0000
0010
,
0000
1000
0000
0100
0000
1000
0000
0100
,
0000
0001
0000
0001
0000
0010
0000
0000
,
0000
1000
0000
1000
0000
0100
0000
0010
,
0000
0001
0000
0001
0000
0010
0000
0100
,
0000
1000
0000
0001
0000
1000
0000
0000
,
0000
0010
0000
0100
0000
0010
0000
0100
,
0000
0010
0000
0100
0000
0100
0000
0000
,
0000
0001
0000
0000
0000
0001
0000
0000
,
0000
0001
0000
0000
0000
1000
0000
0000
,
0000
0010
0000
0100
0000
0010
0000
0100
,
0000
0010
0000
0100
0000
0100
0000
0100
,
0000
0001
0000
0010
0000
0001
0000
0010
,
0000
0001
0000
0010
0000
0001
0000
0001
,
0000
1000
0000
0100
0000
1000
0000
0100
,
0000
1000
0000
0100
0000
1000
0000
1000
,
0000
0010
0000
0100
0000
0010
0000
0100
,
0000
0010
0000
0100
0000
0010
0000
0010
,
0000
1000
0000
0000
0000
0010
0000
0000
,
0000
0100
0000
0000
0000
0001
0000
0000
,
0000
1000
0000
0000
0000
0010
0000
0000
,
0000
0100
0000
0000
0000
0001
0000
0000
,
0000
1000
0000
0000
0000
0010
0000
0000
,
0000
0100
0000
0001
0000
0100
0000
0000
,
0000
0010
0000
1000
0000
0000
0000
0000
,
0000
0010
0000
0100
0000
0010
0000
0100
,
0000
0001
0000
0010
0000
0100
0000
1000
,
0000
0100
0000
0010
0000
0001
0000
0010
,
0000
1000
0000
0000
0000
0010
0000
0000
,
0000
1000
0000
0000
0000
0010
0000
0000
,
0000
1000
0000
0000
0000
0010
0000
0000
,
0000
1000
0000
0000
0000
0010
0000
0000
,
0000
0100
0000
0000
0000
0001
0000
0000
,
0000
0100
0000
0000
0000
0001
0000
0000
,
0000
0100
0000
0000
0000
0001
0000
0000
,
0000
0100
0000
0000
0000
0010
0000
0000
,
0000
1000
0000
0000
0000
0010
0000
0000
,
0000
0100
0000
0000
0000
0010
0000
0000
,
0000
0100
0000
0000
0000
0001
0000
0000
,
0000
0100
0000
0000
0000
0010
0000
0000
,
0000
1000
0000
0000
0000
0100
0000
0000
,
0000
0000
0000
0000
0000
0001
0000
0000
,
0000
0000
0000
0000
0000
0010
0000
0000
,
0000
0100
0000
0000
0000
1000
0000
0000
,
0000
0001
0000
0000
0000
0010
0000
0000
,
0000
0100
0000
0000
0000
0000
0000
0000
,
0000
1000
0000
0000
0000
0010
0000
0000
,
0000
1000
0000
0000
0000
0010
0000
0000
,
0000
0100
0000
0000
0000
0001
0000
0000
,
0000
0100
0000
0000
0000
0001
0000
0000
,
0000
0010
0000
0000
0000
0100
0000
0000
,
0000
1000
0000
0000
0000
0000
0000
0000
,
0000
0001
0000
0000
0000
0001
0000
0000
,
0000
0100
0000
0000
0000
0100
0000
0000
,
0000
0010
0000
0000
0000
0010
0000
0000
,
0000
1000
0000
0000
0000
0000
0000
0000
,
0000
0100
0000
0000
0000
0000
0000
0000
,
0000
0010
0000
0000
0000
0000
0000
0000
,
0000
0001
0000
0000
0000
0000
0000
0000
,
0000
1000
0000
0000
0000
0010
0000
0000
,
0000
0100
0000
0000
0000
0000
0000
0000
,
0000
1001
0000
0000
0000
0000
0000
0000
;

//---------------dance-single - Copied from----------------
#NOTES:
     dance-single:
     Copied from:
     Beginner:
     2:
     0.067092,0.174063,0.000000,0.009393,0.000000,50.000000,50.000000,0.000000,1.000000,0.000000,0.000000,0.067092,0.174063,0.000000,0.009393,0.000000,50.000000,50.000000,0.000000,1.000000,0.000000,0.000000:
0000
0000
0000
0000
,
0000
0000
0000
0000
,
0000
0000
0000
0000
,
0000
0000
0000
0000
,
0000
0000
0000
0000
0000
1000
0000
0000
,
0000
0000
0000
0000
,
0000
0000
0000
0000
0000
0001
0000
0000
,
0000
0000
0000
0000
,
0000
1000
0000
0000
0000
0000
0000
0000
,
0000
1000
0000
0000
0000
0000
0000
0000
,
0000
0001
0000
0000
0000
0000
0000
0000
,
0000
0001
0000
0000
0000
0000
0000
0000
,
0000
0100
0000
0000
0000
0000
0000
0000
,
0000
0100
0000
0000
0000
0000
0000
0000
,
0000
0010
0000
0000
0000
0000
0000
0000
,
0000
0010
0000
0000
0000
0000
0000
0000
,
0000
0100
0000
0000
0000
0100
0000
0000
,
0000
0001
0000
0000
0000
0001
0000
0000
,
0000
1000
0000
0000
0000
1000
0000
0000
,
0000
0010
0000
0000
0000
0010
0000
0000
,
0000
0100
0000
0000
0000
0000
0000
0000
,
0000
0100
0000
0000
0000
0000
0000
0000
,
0000
0001
0000
0000
0000
0000
0000
0000
,
0000
0001
0000
0000
0000
0000
0000
0000
,
0000
0010
0000
0000
0000
0000
0000
0000
,
0000
0000
0000
0000
,
0000
0100
0000
0000
0000
0000
0000
0000
,
0000
0000
0000
0000
,
0000
0001
0000
0000
0000
0000
0000
0000
,
0000
0000
0000
0000
,
0000
1000
0000
0000
0000
0000
0000
0000
,
0000
0000
0000
0000
,
0000
0010
0000
0000
0000
0000
0000
0000
,
0000
0100
0000
0000
0000
0000
0000
0000
,
0000
0010
0000
0000
0000
0000
0000
0000
,
0000
0100
0000
0000
0000
0000
0000
0000
,
0000
0001
0000
0000
0000
0000
0000
0000
,
0000
0001
0000
0000
0000
0000
0000
0000
,
0000
1000
0000
0000
0000
0000
0000
0000
,
0000
1000
0000
0000
0000
0000
0000
0000
,
0000
0200
0000
0000
0000
0000
0000
0000
,
0000
0000
0000
0000
,
0300
0000
0000
0000
,
0000
0000
0000
0000
,
0000
1000
0000
0000
0000
0000
0000
0000
,
0000
0000
0000
0000
,
0000
0001
0000
0000
0000
0000
0000
0000
,
0000
0000
0000
0000
,
0000
1000
0000
0000
0000
0000
0000
0000
,
0000
0000
0000
0000
,
0000
0001
0000
0000
0000
0000
0000
0000
,
0000
0000
0000
0000
,
0000
1000
0000
0000
0000
0000
0000
0000
,
0000
0000
0000
0000
,
0000
0001
0000
0000
0000
0000
0000
0000
,
0000
0000
0000
0000
,
0000
0000
0000
0000
,
0000
0000
0000
0000
,
0000
1000
0000
0000
0000
0000
0000
0000
,
0000
0000
0000
0000
,
0000
0010
0000
0000
0000
0000
0000
0000
,
0000
0000
0000
0000
,
0000
1000
0000
0000
0000
0000
0000
0000
,
0000
0000
0000
0000
,
0000
0010
0000
0000
0000
0000
0000
0000
,
0000
0000
0000
0000
,
0000
0100
0000
0000
0000
0000
0000
0000
,
0000
0000
0000
0000
,
0000
0001
0000
0000
0000
0000
0000
0000
,
0000
0000
0000
0000
,
0000
0100
0000
0000
0000
0000
0000
0000
,
0000
0000
0000
0000
,
0000
0001
0000
0000
0000
0000
0000
0000
,
0000
0000
0000
0000
,
0000
0100
0000
0000
0000
0000
0000
0000
;
