#TITLE:Is This The Way You Kill A Love;
#SUBTITLE:;
#ARTIST:Gina;
#TITLETRANSLIT:;
#SUBTITLETRANSLIT:;
#ARTISTTRANSLIT:;
#CREDIT:SupremeX;
#BANNER:Is This The Way You Kill A Love-bn.png;
#BACKGROUND:Is This The Way You Kill A Love-bg.png;
#LYRICSPATH:;
#CDTITLE:;
#MUSIC:Is This The Way You Kill A Love.ogg;
#OFFSET:-0.265;
#SAMPLESTART:39.680;
#SAMPLELENGTH:12.000;
#SELECTABLE:YES;
#BPMS:0.000=145.970;
#STOPS:;
#BGCHANGES:;

//---------------dance-single - ----------------
#NOTES:
     dance-single:
     :
     Hard:
     6:
     0.408,0.414,0.466,0.122,0.000:
0000
0000
0000
0000
,
0000
0000
0000
0000
,
0000
0000
0000
0000
,
0000
0000
0000
0000
,
1000
0010
1000
0010
0100
0000
0100
0000
,
0001
0100
0001
0100
0010
0000
0010
0000
,
2000
0000
0000
3002
0000
0000
0003
0000
,
1000
1000
0000
0110
0000
0110
0000
0000
,
0001
0001
0000
1000
0000
0110
0000
0001
,
0000
0110
0000
1000
0000
0110
0000
0000
,
0001
0001
0000
1000
0000
0110
0000
0001
,
0000
0110
0000
1000
0000
0110
0000
0000
,
0001
0001
0000
0100
0000
1001
0000
0010
,
0000
1001
0000
0100
0000
1001
0000
0000
,
1000
1000
0000
0100
0000
1001
0000
0010
,
0000
1001
0000
0100
0000
1001
0000
0000
,
1000
0000
0001
0000
0100
0100
0000
0001
,
0000
0011
0000
1000
0000
1100
0000
0001
,
0000
0100
0010
0100
0010
1000
0000
0001
,
0000
1000
0010
0100
0010
0100
0010
0000
,
1000
0000
0001
0000
0100
0100
0000
0001
,
0000
1000
0000
0010
0000
1000
0000
0001
,
0000
0100
0200
0000
0000
0300
0000
0000
,
1001
1001
0110
0110
,
1000
0000
1000
0000
0010
0100
0000
0100
,
0000
1001
0000
0110
0000
1001
0000
0010
,
0000
0010
0100
0001
0100
0001
0000
2000
,
0000
0000
3100
0000
1000
0100
1000
0100
,
0010
0000
0010
0000
0001
0100
0000
0100
,
0000
1010
0000
0101
0000
1010
0000
0002
,
0000
1000
1003
0000
0000
0000
0000
0000
,
1001
1001
0110
0110
,
1000
0000
1000
0000
0010
0100
0000
0100
,
0000
1001
0000
0110
0000
1001
0000
0010
,
0000
0010
0100
0001
0100
0001
0000
2000
,
0000
0000
3100
0000
1000
0100
1000
0100
,
0010
0000
0010
0000
0001
0100
0000
0100
,
0000
1010
0000
0101
0000
1010
0000
0002
,
0000
1000
1003
0000
0000
0000
0000
0000
,
1000
0001
0110
0110
,
1000
0010
1000
0010
1000
0010
0010
0000
,
0100
0001
0100
0001
0100
0001
0001
0000
,
2000
0000
0000
3002
0000
0000
0003
0000
,
1000
1000
0000
0110
0000
0110
0000
0000
,
0001
1000
0001
1000
0001
0001
0001
0000
,
0100
0010
0100
0010
0100
0100
0100
0000
,
0002
0000
0000
2003
0000
0000
3000
0000
,
0010
0010
0000
1001
0000
1001
0000
0000
,
0010
0100
0001
1000
,
0010
0100
0001
1000
;

//---------------dance-single - ----------------
#NOTES:
     dance-single:
     :
     Medium:
     5:
     0.308,0.359,0.333,0.000,0.000:
0000
0000
0000
0000
,
0000
0000
0000
0000
,
0000
0000
0000
0000
,
0000
0000
0000
0000
,
0001
0001
0001
0001
,
1000
1000
1000
1000
,
0010
0000
0100
0000
,
0001
0000
0000
1001
0000
1001
0000
0000
,
0100
0010
1000
0001
,
1001
0110
1001
0110
,
0001
1000
0001
1000
,
0110
1001
0110
1001
,
0010
0100
0010
0100
,
1001
0110
1001
0110
,
1000
0001
1000
0001
,
0110
1001
0110
1001
,
1000
0000
0010
0000
0100
0000
0000
0001
,
0000
1000
0000
0010
0000
0100
0000
0001
,
0000
0000
1000
0000
0010
0100
0000
0010
,
0000
0010
0000
0000
0000
0000
0000
0000
,
1000
0100
0010
0001
,
0010
0100
1000
0001
,
0100
0010
0000
0000
,
1001
1001
1001
1001
,
0010
0000
0100
0000
0010
0010
0000
1000
,
0000
0001
0000
1000
0000
0010
0000
0100
,
0000
0000
0001
0000
1000
0010
0000
0100
,
0000
0001
0000
0000
,
1000
0001
0100
0010
,
1000
0001
0100
0010
,
1000
0001
0000
0000
,
1001
1001
1001
1001
,
0010
0100
0001
1000
,
0001
0100
0010
1000
,
0001
0000
0100
0000
0001
0001
0000
1000
,
0000
0010
0000
0000
,
1000
0001
0100
0010
,
1000
0001
0100
0010
,
1000
0001
0000
0000
,
1001
1001
0110
0110
,
1000
1000
1000
1000
,
0001
0001
0001
0001
,
0100
0000
0010
0000
,
1000
1000
0000
0001
0000
1000
0000
0000
,
0001
0001
0001
0001
,
1000
1000
1000
1000
,
0010
0000
0100
0000
,
0001
0001
0000
1000
0000
1000
0000
0000
,
0001
1000
0001
1000
,
0001
1000
0001
1000
;

//---------------dance-single - ----------------
#NOTES:
     dance-single:
     :
     Easy:
     3:
     0.213,0.238,0.000,0.044,0.000:
0000
0000
0000
0000
,
0000
0000
0000
0000
,
0000
0000
0000
0000
,
0000
0000
0000
0000
,
0001
0001
0001
0001
,
1000
1000
1000
1000
,
0001
0000
1000
0000
,
0001
0000
0000
1000
0000
1000
0000
0000
,
0010
0000
0000
0100
0000
0000
0000
0001
,
0000
1000
0000
0001
0000
1000
0000
0000
,
0010
0000
0000
0100
0000
0000
0000
0001
,
0000
1000
0000
0001
0000
1000
0000
0000
,
0010
0000
0000
0100
0000
0000
0000
0001
,
0000
1000
0000
0001
0000
1000
0000
0000
,
0010
0000
0000
0100
0000
0000
0000
0001
,
0000
1000
0000
0001
0000
1000
0000
0000
,
0010
0010
0100
0100
,
0010
0010
0100
0100
,
0001
0000
0000
0000
1000
0000
0000
0001
,
0000
0001
0000
0000
0000
0000
0000
0000
,
0100
0100
0010
0010
,
0100
0100
0010
0010
,
1000
1000
0000
0000
,
0001
1000
0001
1000
,
0020
0000
0000
0000
0000
0030
0000
0100
,
0000
0100
0000
0100
0000
0100
0000
0002
,
0000
0000
0000
0000
0000
0003
0000
1000
,
0000
0001
0000
0000
,
2000
0000
0000
0000
0000
3000
0000
0010
,
0000
0010
0000
0010
0000
0100
0000
0010
,
0000
0100
0000
0000
,
0001
1000
0001
1000
,
0020
0000
0000
0000
0000
0030
0000
0100
,
0000
0100
0000
0100
0000
0100
0000
0001
,
0000
0000
1000
0000
0010
0000
0000
1000
,
0000
0001
0000
0000
,
1000
0000
1000
0000
0010
0000
0000
0100
,
0000
0100
0000
0001
0000
0000
0000
1000
,
0000
0001
0000
0000
,
0010
0010
0100
0100
,
1000
1000
1000
1000
,
0001
0001
0001
0001
,
1000
0000
0000
0001
0000
0000
0000
0000
,
1000
0000
0000
0001
0000
0001
0000
0000
,
1000
1000
1000
1000
,
0001
0001
0001
0001
,
1000
0000
0000
0001
0000
0000
0000
0000
,
1000
0000
0000
0001
0000
0001
0000
0000
;

//---------------dance-single - Copied from ----------------
#NOTES:
     dance-single:
     Copied from:
     Beginner:
     2:
     0.073,0.133,0.000,0.000,0.000: // measure 1
0000
0000
0000
0000
,  // measure 2
0000
0000
0000
0000
,  // measure 3
0000
0000
0000
0000
,  // measure 4
0000
0000
0000
0000
,  // measure 5
0001
0000
0000
0000
,  // measure 6
1000
0000
0000
0000
,  // measure 7
0001
0000
0000
0000
,  // measure 8
1000
0000
0000
0000
,  // measure 9
0010
0000
0000
0000
,  // measure 10
0000
0000
0000
0000
,  // measure 11
0100
0000
0000
0000
,  // measure 12
0000
0000
0000
0000
,  // measure 13
0010
0000
0000
0000
,  // measure 14
0000
0000
0000
0000
,  // measure 15
0100
0000
0000
0000
,  // measure 16
0000
0000
0000
0000
,  // measure 17
0001
0000
0000
0000
,  // measure 18
0000
0000
0000
0000
,  // measure 19
0000
0000
0000
0000
0000
0000
0000
1000
,  // measure 20
0000
0000
0000
0000
,  // measure 21
0001
0000
0000
0000
,  // measure 22
0000
0000
0000
0000
0000
0000
0000
1000
,  // measure 23
0000
0000
0000
0000
,  // measure 24
0010
0010
0010
0010
,  // measure 25
0100
0000
0000
0000
,  // measure 26
0000
0000
0000
0000
0000
0000
0000
0100
,  // measure 27
0000
0000
0000
0000
,  // measure 28
0000
0000
0000
0000
,  // measure 29
0010
0000
0010
0000
0010
0000
0000
0100
,  // measure 30
0000
0000
0000
0000
0000
0000
0000
0100
,  // measure 31
0000
0000
0000
0000
,  // measure 32
0100
0100
0100
0100
,  // measure 33
0010
0000
0000
0000
,  // measure 34
0000
0000
0000
0000
0000
0000
0000
0100
,  // measure 35
0000
0000
0000
0000
,  // measure 36
0000
0000
0000
0000
,  // measure 37
0100
0000
0100
0000
0100
0000
0000
0010
,  // measure 38
0000
0000
0000
0000
,  // measure 39
0100
0000
0000
0000
,  // measure 40
0001
0000
1000
0000
,  // measure 41
0010
0000
0000
0000
,  // measure 42
0010
0000
0000
0000
,  // measure 43
0100
0000
0000
0000
,  // measure 44
0010
0000
0000
0000
,  // measure 45
0100
0000
0000
0000
,  // measure 46
0100
0000
0000
0000
,  // measure 47
0010
0000
0000
0000
,  // measure 48
0100
0000
0100
0000
,  // measure 49
0100
0000
0000
0000
;
