#TITLE:INSIDE YOUR MIND;
#SUBTITLE:;
#ARTIST:Limahl;
#TITLETRANSLIT:;
#SUBTITLETRANSLIT:;
#ARTISTTRANSLIT:;
#CREDIT:SupremeX;
#BANNER:INSIDE YOUR MIND-bn.png;
#BACKGROUND:INSIDE YOUR MIND-bg.png;
#LYRICSPATH:;
#CDTITLE:;
#MUSIC:INSIDE YOUR MIND.ogg;
#OFFSET:-1.811;
#SAMPLESTART:43.500;
#SAMPLELENGTH:12.000;
#SELECTABLE:YES;
#BPMS:0.000=135.000;
#STOPS:;
#BGCHANGES:;

//---------------dance-single - ----------------
#NOTES:
     dance-single:
     :
     Hard:
     8:
     0.421,0.429,0.141,0.122,0.089:
0000
0000
0000
0000
,
0000
0000
0000
0000
,
0000
0000
0000
0000
,
0000
0000
0000
0000
,
0100
0000
0000
0000
0100
0000
0000
0000
1000
0000
0001
1000
0000
0000
0000
0000
,
0010
0000
0000
0000
0010
0000
0000
0000
1000
0000
0100
1000
0000
0000
0000
0000
,
0001
0000
0000
0000
0001
0000
0000
0000
0010
0000
0001
0100
0000
0000
0000
0000
,
0010
0000
0000
0000
0010
0000
0000
0000
1000
0000
0010
1000
0000
0000
0000
0000
,
0100
0000
0100
0000
0001
0010
0100
0000
,
1000
0000
1000
0000
0010
1000
0100
0000
,
0100
0000
0001
1000
0010
0000
0010
0000
,
1000
0000
0001
0010
0100
0000
1000
0000
,
0100
0010
0001
0000
1000
0010
0100
0000
,
0001
1000
0010
0000
0100
0100
0100
0000
,
0001
0000
0010
0000
0001
0000
0010
0000
0100
0000
0000
0100
0000
0000
0100
0000
,
1000
0001
0100
0001
1000
0100
0010
0000
,
0001
0010
0001
1000
0001
0010
0001
0000
,
1000
0100
1000
0001
1000
0100
1000
0000
,
0001
0010
0100
0010
0100
0001
1000
0001
,
0100
0000
0000
0100
0000
0000
0010
0000
0010
0000
0000
0000
0101
0000
0000
0000
,
0010
1000
0100
0010
0001
1000
0100
0000
,
0001
0010
0100
1000
0010
0100
0100
0010
,
1000
0000
0000
1000
0000
0000
1000
0000
0001
0000
0000
1000
0000
0000
0001
0000
,
0010
0000
0000
0010
0000
0000
0010
0000
0001
0000
0000
0000
0110
0000
0000
0000
,
2000
0100
0001
3100
,
0001
0000
1000
0000
0001
0000
0100
0001
0000
0000
0000
0000
1010
0000
0000
0000
,
0200
0000
0000
0000
0310
0000
0100
0010
0000
0000
1000
0000
1000
0000
0100
0000
,
0010
0000
0000
0000
0001
0000
0010
0100
0000
0000
0000
0000
0110
0000
0000
0000
,
0001
0000
1000
0000
0100
0000
0010
0001
0000
0000
1000
0000
0100
0000
1000
0000
,
1000
0000
0000
0000
0100
0000
0010
0001
0000
0000
1000
0000
0010
0000
0100
0000
,
0010
0000
0000
0010
0000
0000
0010
0000
0200
0000
0000
0000
0001
0000
0000
0000
,
0010
0000
0301
0000
1000
0001
0010
0100
,
0020
0001
0100
0031
,
0001
0000
1000
0000
0010
0000
0100
0010
0000
0000
0000
0000
1001
0000
0000
0000
,
0200
0010
0001
0310
,
0100
0000
0010
0000
0100
0000
0001
1000
0000
0000
0000
0000
0110
0000
0000
0000
,
0101
0000
0000
0000
0010
0000
1000
0100
0000
0000
0100
0000
0010
0000
0001
0000
,
0001
0000
0000
0000
1000
0000
0001
0100
0000
0000
0010
0000
1000
0000
0001
0000
,
1000
0000
0001
0100
0002
0000
1000
0000
,
0100
1000
2003
0000
,
0000
3000
0100
0100
0000
1000
0000
0000
,
0001
0000
0100
1000
0000
0001
0000
0000
,
1000
0000
0010
0001
0000
1000
0000
0000
,
0010
0000
0100
0001
0000
1000
0000
0000
,
0200
1000
0010
1300
,
2000
0001
0100
3001
,
0002
1000
0100
1003
,
0220
0000
0000
0330
,
0001
0000
0010
0100
0010
0000
1001
0000
,
0100
1000
0100
0010
0100
0000
1100
0000
,
0010
0001
0010
0100
0010
0000
0011
0000
,
0100
1000
0100
1000
0010
0000
0110
0000
,
0001
1001
1010
0101
,
1000
0100
1000
0000
1000
0001
1000
0000
,
0001
0010
0100
1000
0001
0100
0001
0001
,
1000
0010
0100
0001
0100
0010
1000
0000
,
0002
0000
0000
0000
,
0000
0003
0000
0000
;

//---------------dance-single - ----------------
#NOTES:
     dance-single:
     :
     Medium:
     5:
     0.277,0.349,0.122,0.094,0.000:
0000
0000
0000
0000
,
0000
0000
0000
0000
,
0000
0000
0000
0000
,
0000
0000
0000
0000
,
1000
0001
1000
0010
,
1000
0001
1000
0010
,
0100
0100
0001
0001
,
0100
0001
1000
1000
,
0001
0000
0100
0000
0010
1000
0010
0000
,
0100
0100
0101
0000
,
0010
0000
1000
0000
0010
0100
0001
0000
,
1000
0001
1001
0000
,
0010
0100
0010
1000
,
0001
1000
0001
0000
,
0110
0000
1010
0000
,
0101
1010
0101
1001
,
0010
0100
0010
1000
,
0001
1000
0010
0100
0001
0000
1000
0000
,
0010
0100
0001
1000
,
0001
1000
0001
0000
0100
0010
0100
0000
,
0001
1000
0010
1000
,
0001
0000
0100
0000
0010
0000
0000
1000
,
1000
0000
0000
0001
0001
0000
0000
0000
,
0100
0010
1000
0001
,
2000
0000
3010
0000
,
0002
0000
0103
0000
,
0010
1000
0001
0100
,
0010
0000
0010
0000
1000
0000
0001
1000
,
0010
0100
0001
1000
,
0010
0000
0100
0001
0100
0000
0010
0000
,
1000
0000
0001
0100
0010
0000
1000
0000
,
1000
1000
1000
0001
,
0100
0000
0010
1000
0010
0000
0100
0000
,
0001
0000
1000
1000
0000
0000
0010
0000
,
0100
0000
0010
0100
0010
0000
1000
0000
,
0001
0000
0100
0001
1000
0000
0010
0000
,
0100
0000
0001
1000
0010
0000
0100
0000
,
0001
0000
1000
0001
1000
0000
0010
0000
,
0100
0000
0010
1000
0020
0000
0000
0000
,
0000
0000
0000
0030
,
0100
0000
0000
0000
,
0001
0000
0000
0000
,
1000
0000
0000
0000
,
0010
0000
0000
0000
,
0200
0000
0000
0300
,
0002
0000
0000
0003
,
2000
0000
0000
3000
,
0020
0000
0000
0030
,
0100
0000
0010
0000
1000
0001
1000
0000
,
0010
0100
0100
0000
,
1001
0010
0110
0000
,
1000
1010
0101
0000
,
0001
1000
0001
0000
1000
0010
1000
0000
,
0001
0010
0100
0000
1000
0010
0100
0000
,
0001
0001
1000
1000
,
0020
0000
0000
0030
,
2002
0000
0000
0000
,
0000
3003
0000
0000
;

//---------------dance-single - ----------------
#NOTES:
     dance-single:
     :
     Easy:
     3:
     0.210,0.268,0.084,0.159,0.000:
0000
0000
0000
0000
,
0000
0000
0000
0000
,
0000
0000
0000
0000
,
0000
0000
0000
0000
,
0001
0000
0000
0000
,
0100
0000
0000
0000
,
0001
0000
0000
0000
,
2000
0000
0000
3000
,
0010
0000
0100
0000
,
0001
1000
0001
0000
,
0100
0000
0010
0000
,
0100
0100
0100
0000
,
0001
0000
0010
0000
,
1000
1000
1000
0000
,
0001
0100
0010
1000
,
0001
0000
1000
1000
,
0002
0000
0000
0000
0000
0003
0000
0000
,
0200
0000
0300
0000
,
0010
0000
0010
0000
,
1000
0000
1000
0000
,
0001
0001
0001
0001
,
0010
0010
0010
0000
,
1000
0010
1000
0001
,
0100
0001
1000
0001
,
2002
0000
3003
0000
,
0220
0000
0000
0330
0000
0000
0000
0000
,
0022
0000
0033
0000
,
2200
0000
3300
0000
,
0001
0100
0001
0100
,
0010
1000
0010
1000
,
0001
0001
0200
0000
,
0000
0000
0000
0300
0000
0000
0000
0000
,
0010
1000
0010
1000
,
0001
0100
0001
0100
,
0100
0010
0010
1000
,
0001
1000
1000
0001
,
0100
0100
0010
0010
,
1000
0001
1000
0001
,
0100
0010
2000
0000
,
0000
0000
0000
3000
,
0002
0000
0003
0000
,
0100
0000
0000
0010
0000
0000
0000
0000
,
1000
0000
0000
0001
0000
0000
0000
0000
,
0000
0000
0000
0110
0000
0000
0000
0000
,
1000
0001
1000
0001
,
0100
0010
0100
0010
,
1000
0001
1000
0001
,
2000
0000
0000
3000
,
0001
0010
0100
1000
,
0001
0001
0001
0000
,
0110
0000
1001
0000
,
0011
0000
1100
0000
,
0001
1000
0001
0000
,
1000
0010
1000
0000
,
0001
0100
0010
1000
,
0002
0000
0000
0003
,
0200
0000
0000
0000
,
0000
0300
0000
0000
;

//---------------dance-single - Copied from ----------------
#NOTES:
     dance-single:
     Copied from:
     Beginner:
     1:
     0.076,0.158,0.019,0.056,0.000: // measure 1
0000
0000
0000
0000
,  // measure 2
0000
0000
0000
0000
,  // measure 3
0000
0000
0000
0000
,  // measure 4
0000
0000
0000
0000
,  // measure 5
0001
0000
0000
0000
,  // measure 6
1000
0000
0000
0000
,  // measure 7
0001
0000
0000
0000
,  // measure 8
1000
0000
0000
0000
,  // measure 9
0010
0000
0000
0000
,  // measure 10
0010
0000
0000
0000
,  // measure 11
0010
0000
0000
0000
,  // measure 12
0010
0000
0000
0000
,  // measure 13
0100
0000
0000
0000
,  // measure 14
0100
0000
0000
0000
,  // measure 15
0100
0000
0000
0000
,  // measure 16
0100
0000
0000
0000
,  // measure 17
0001
0000
0000
0000
,  // measure 18
0001
0000
0000
0000
,  // measure 19
0001
0000
0000
0000
,  // measure 20
0001
0000
0000
0000
,  // measure 21
1000
0000
0000
0000
,  // measure 22
1000
0000
0000
0000
,  // measure 23
1000
0000
0000
0000
,  // measure 24
1000
0000
0000
0000
,  // measure 25
0200
0000
0000
0000
0000
0300
0000
0000
,  // measure 26
0000
0000
0000
0000
,  // measure 27
0020
0000
0000
0030
0000
0000
0000
0000
,  // measure 28
0000
0000
0000
0000
,  // measure 29
2002
0000
3003
0000
,  // measure 30
0000
0000
0000
0000
,  // measure 31
0220
0000
0000
0000
0000
0330
0000
0000
,  // measure 32
0000
0000
0000
0000
,  // measure 33
0001
0000
0000
0000
,  // measure 34
0001
0000
0000
0000
,  // measure 35
1000
0000
0000
0000
,  // measure 36
1000
0000
0000
0000
,  // measure 37
0010
0000
0000
0000
,  // measure 38
0010
0000
0000
0000
,  // measure 39
0100
0000
0000
0000
,  // measure 40
0100
0000
0000
0000
,  // measure 41
0001
0000
0000
0000
,  // measure 42
1000
0000
0000
0000
,  // measure 43
0001
0000
0000
0000
,  // measure 44
1000
0000
0000
0000
,  // measure 45
0001
0000
0000
0000
,  // measure 46
1000
0000
0000
0000
,  // measure 47
0001
0000
0000
0000
,  // measure 48
1000
0000
0000
0000
,  // measure 49
0010
0000
0000
0000
,  // measure 50
0010
0000
0000
0000
,  // measure 51
0100
0000
0000
0000
,  // measure 52
0100
0000
0000
0000
,  // measure 53
0010
0000
0000
0000
,  // measure 54
0010
0000
0000
0000
,  // measure 55
0100
0000
0000
0000
,  // measure 56
0100
0000
0000
0000
,  // measure 57
0010
0000
0000
0000
;
