#TITLE:Human Nature;
#SUBTITLE:;
#ARTIST:Z pinkpong;
#TITLETRANSLIT:;
#SUBTITLETRANSLIT:;
#ARTISTTRANSLIT:;
#GENRE:;
#CREDIT:SupremeX;
#BANNER:Human Nature.png;
#BACKGROUND:Human Nature-bg.png;
#LYRICSPATH:;
#CDTITLE:CDTitle.png;
#MUSIC:Human Nature.ogg;
#OFFSET:0.028620;
#SAMPLESTART:91.910004;
#SAMPLELENGTH:12.000000;
#SELECTABLE:YES;
#BPMS:0.000000=128.000000
;
#STOPS:
;
#BGCHANGES:;
#KEYSOUNDS:;
#ATTACKS:;

//---------------dance-single - ----------------
#NOTES:
     dance-single:
     :
     Hard:
     8:
     0.366267,0.487779,0.108333,0.343053,0.112846,284.000000,272.000000,12.000000,38.000000,0.000000,0.000000,0.366267,0.487779,0.108333,0.343053,0.112846,284.000000,272.000000,12.000000,38.000000,0.000000,0.000000:
0000
0000
0000
0000
,
0000
0000
0000
0000
,
0000
0000
0000
0000
,
0000
0000
0000
0000
,
0001
0000
0000
0010
0000
0000
0100
0000
0000
1000
0000
0000
0010
0000
0100
0000
,
0001
0000
0000
0010
0000
0000
0100
0000
0000
1000
0000
0000
0010
0000
0100
0000
,
0010
0000
0000
0100
0000
0000
0001
0000
0000
1000
0000
0000
0100
0000
0010
0000
,
0100
0000
0000
1000
0000
0000
0001
0000
0000
1000
0000
0000
0001
0000
0100
0000
,
0000
0001
1000
0100
0010
0001
0200
0300
,
0000
0100
0001
0010
0100
1000
0020
0030
,
0000
0000
1000
0000
1000
0000
0220
0330
,
0000
0001
0001
1100
,
0002
0000
0000
0103
0000
1001
0000
0000
,
2100
0000
0000
3020
0000
0030
0000
0000
,
0100
0001
0010
1000
0010
0000
0100
0000
,
0001
0000
0000
1000
0000
0000
0010
0000
,
0200
0000
0000
0300
0002
0000
0000
0003
,
2000
0000
0000
3010
0020
0000
0000
0030
,
0200
0000
0300
0001
0002
0000
0000
0103
,
0000
0010
0100
0000
0002
0000
0023
0000
,
0230
0000
0300
1000
2000
0100
3100
1000
,
0000
0001
0010
0100
2000
0000
0000
3000
,
0001
0100
0001
1000
0010
0100
0010
0010
,
0000
1000
0001
1000
0010
0100
0010
0000
,
1001
0000
0100
0100
0001
0000
0010
0010
,
0000
0100
1000
0001
1000
0100
0010
0000
,
0000
0001
0001
1000
0010
0000
0100
0100
,
0000
1000
0001
1000
1100
0000
1001
0000
,
0000
0001
0100
0010
1000
0000
0010
0010
,
0000
1000
0100
1000
0001
1000
1000
0000
,
0000
0001
0100
0001
1000
0000
0100
0010
,
0000
0001
0010
0001
1000
0100
0010
0001
,
0200
0000
0000
0320
0000
0130
0000
2002
,
0000
0000
0000
3003
0000
0010
0010
0010
,
0200
0000
0000
0320
0000
1030
0000
0002
,
0000
2003
0000
3000
0000
0001
0001
1000
,
0200
0000
0000
2300
0000
3010
0000
2002
,
0000
0000
0000
3003
0000
1000
0001
0100
,
0002
0000
0000
2003
0000
3200
0000
0320
,
0000
0000
0000
0000
,
0032
0000
1003
0000
1000
0000
0010
0100
,
0100
0001
0010
0001
1000
0010
1000
0100
,
0100
0010
0001
1000
0100
0010
0001
0010
,
0100
0000
1000
0000
0100
0000
0000
0000
1000
0000
0001
0010
0000
0100
1000
0000
,
0010
0100
0010
1000
0001
0100
0010
1000
,
1001
0001
0010
0100
1000
0100
0010
0001
,
1001
0100
0010
0100
0001
0010
0100
1000
,
0100
0000
0000
1000
0000
0001
0000
0200
,
0000
0000
0000
0300
2002
0000
0000
3003
,
0100
0000
0000
0001
0000
0000
0010
0000
0000
0100
0000
0000
1000
0000
0100
0000
,
0100
0000
0000
1000
0000
0000
0100
0000
0000
0010
0000
0000
0001
0000
1000
0000
,
1000
0000
0000
0010
0000
0000
0010
0000
0000
0100
0000
0000
0001
0000
0001
0000
,
1000
0000
0000
0100
0000
0000
0010
0000
0000
0001
0000
0000
1000
0000
0100
0000
,
1000
0000
0000
0001
0000
0000
0010
0000
0000
0100
0000
0000
1000
0000
0010
0000
,
0010
0000
0000
1000
0000
0000
0100
0000
0000
0010
0000
0000
0001
0000
0001
0000
,
0100
0000
0000
0010
0000
0000
1000
0000
0000
0000
0001
0000
1000
0000
0000
0000
,
0100
0000
0000
0010
0000
0000
0100
0000
0000
0001
0000
0000
1000
0000
1000
0000
;

//---------------dance-single - ----------------
#NOTES:
     dance-single:
     :
     Medium:
     5:
     0.236010,0.333010,0.000000,0.099305,0.009028,183.000000,183.000000,0.000000,11.000000,0.000000,0.000000,0.236010,0.333010,0.000000,0.099305,0.009028,183.000000,183.000000,0.000000,11.000000,0.000000,0.000000:
0000
0000
0000
0000
,
0000
0000
0000
0000
,
0000
0000
0000
0000
,
0000
0000
0000
0000
,
0001
0000
0000
1000
0000
0000
1000
0100
,
0001
0000
0000
1000
0000
0000
0001
0100
,
1000
0000
0000
0001
0000
0000
1000
0010
,
0001
0000
0000
0010
0000
0000
1000
0100
,
0000
0001
1000
0000
0010
0000
0100
0000
,
0000
1000
0001
0000
0100
0000
0010
0000
,
0000
0001
1000
0010
,
0000
0001
0100
1000
,
0020
0000
0000
0130
0000
0001
0000
0000
,
2000
0000
0000
3002
0000
0003
0000
0000
,
0010
1000
0010
1000
,
0100
0000
0000
0001
0000
0000
1000
0000
,
0010
0000
0001
0000
,
1000
0000
0000
0001
0100
0000
0000
0000
,
0010
0000
0000
0001
1000
0000
0000
0100
,
0000
0001
0001
0000
1000
0000
0000
0000
,
0001
0000
0000
1000
1000
0000
0100
0001
,
0000
0001
0010
0010
0000
0000
0000
0000
,
0100
0000
0010
0000
0100
0000
0001
0001
,
0000
0000
0010
0000
1000
0100
0100
0000
,
0001
0000
0100
0000
0001
0000
0010
0010
,
0000
0000
1000
0000
0001
0100
0001
0000
,
0000
0000
1000
0000
0010
0000
0100
0100
,
0000
0000
1000
0100
0001
0000
0001
0000
,
0000
0000
0100
0000
0010
0000
0001
0001
,
0000
0000
1000
0000
0010
1000
0010
0000
,
0000
0000
0100
0000
0001
0000
1000
1000
,
0000
0100
0001
0000
0001
0000
1000
0000
,
0010
0000
0000
0100
0000
0010
0000
2000
,
0000
0000
0000
3000
0000
0000
0010
0000
,
0100
0000
0000
0001
0000
1000
0000
0010
,
0000
0100
0000
0000
0000
0001
0010
0001
,
0010
0000
0000
1000
0000
0100
0000
0002
,
0000
0000
0000
0003
0000
1000
0010
1000
,
0001
0000
0000
0100
0000
0010
0000
0200
,
0000
0000
0000
0000
,
0310
0000
0000
0000
0000
0000
0000
0001
,
0001
0000
1000
0000
0001
0000
1000
0010
,
0010
0000
0001
0000
1000
0000
0100
0001
,
0000
0000
0100
0000
0010
0000
0000
0000
1000
0000
0001
0100
0000
0001
0100
0000
,
0000
0000
1000
0000
0010
0000
0001
1000
,
1000
0000
0010
0000
1000
0000
0001
0100
,
0100
1000
0001
0100
,
0001
0000
0000
1000
0000
0010
0000
0200
,
0000
0000
0300
0000
,
0001
0000
0000
1000
0000
0010
0000
2000
,
0000
0000
0000
3000
0000
0000
0001
0000
,
0010
0000
0000
0100
0000
1000
0000
0002
,
0000
0000
0000
0003
0000
0000
0100
0000
,
0001
0000
0000
1000
0000
0010
0000
0200
,
0000
0000
0000
0300
0000
0000
0001
0000
,
1000
0000
0000
0001
0000
1000
0000
0020
,
0000
0000
0000
0030
;

//---------------dance-single - ----------------
#NOTES:
     dance-single:
     :
     Easy:
     3:
     0.156051,0.205381,0.000000,0.162499,0.000000,121.000000,121.000000,0.000000,18.000000,0.000000,0.000000,0.156051,0.205381,0.000000,0.162499,0.000000,121.000000,121.000000,0.000000,18.000000,0.000000,0.000000:
0000
0000
0000
0000
,
0000
0000
0000
0000
,
0000
0000
0000
0000
,
0000
0000
0000
0000
,
0100
0000
0000
0000
,
0010
0000
0000
0000
,
0001
0000
0000
0000
,
1000
0000
0000
0000
,
0010
0010
0100
0100
,
0000
0001
0001
1000
,
0000
0100
0010
0100
,
0000
1000
0001
0010
,
0100
0000
0000
0010
0000
1000
0000
0000
,
0001
0000
0000
0100
0000
0000
0000
0000
,
1000
0010
1000
0010
,
0100
0000
0001
0001
,
0200
0000
0310
0000
,
0002
0000
0000
0003
1000
0000
0000
0000
,
0020
0000
0130
0000
,
2000
0000
3010
0000
,
0002
0000
0103
0000
,
0020
0000
1030
0000
,
0200
0000
0310
0000
,
0001
0000
1000
1000
,
0000
0010
0100
0001
,
0000
1000
0100
0010
,
0000
0001
0100
0010
,
0000
1000
0100
0010
,
0000
0001
0100
0001
,
0000
1000
0010
1000
,
0000
0010
0100
0010
,
0000
0100
0010
0100
,
0001
0000
0000
1000
0000
0001
0000
1000
,
0000
0000
0000
0100
,
0010
0000
0000
1000
0000
0010
0000
0002
,
0000
0000
0000
0003
0000
0000
0100
0000
,
0010
0000
0000
1000
0000
0001
0000
0200
,
0000
0000
0000
0300
0000
0000
1000
0000
,
0100
0000
0000
0010
0000
0001
0000
2000
,
0000
0000
0000
0000
0000
0000
0000
3000
,
0020
0000
0000
0030
,
0200
0000
0000
0300
,
0002
0000
0000
0000
,
0000
0000
0000
0003
1000
0000
1000
0000
,
0020
0000
0000
0030
,
0200
0000
0000
0000
0000
0000
0000
0300
,
0002
0000
0000
0003
,
1000
0000
0000
0010
0000
0010
0000
0100
,
0000
0000
0000
0000
,
1000
0001
1000
0010
,
0100
0000
0000
0001
,
1000
0000
0000
0010
0000
0100
0000
0002
,
0000
0000
0000
0003
0000
0000
1000
0000
,
0010
0000
0000
1000
0000
0010
0000
0100
,
0000
0000
0000
0001
,
0100
0000
0000
0001
0000
0100
0000
2000
,
0000
0000
0000
0000
0000
0000
0000
3000
;

//---------------dance-single - Copied from----------------
#NOTES:
     dance-single:
     Copied from:
     Beginner:
     1:
     0.043849,0.074479,0.000000,0.000000,0.000000,34.000000,34.000000,0.000000,0.000000,0.000000,0.000000,0.043849,0.074479,0.000000,0.000000,0.000000,34.000000,34.000000,0.000000,0.000000,0.000000,0.000000:
0000
0000
0000
0000
,
0000
0000
0000
0000
,
0000
0000
0000
0000
,
0000
0000
0000
0000
,
0001
0000
0000
0000
,
1000
0000
0000
0000
,
0001
0000
0000
0000
,
1000
0000
0000
0000
,
0100
0000
0000
0000
,
0100
0000
0000
0000
,
0100
0000
0000
0000
,
0100
0000
0000
0000
,
0010
0000
0000
0000
,
0010
0000
0000
0000
,
1000
0000
0000
0000
,
1000
0000
0000
0000
,
0001
0000
0000
0000
,
0000
0000
0000
0000
,
0001
0000
0000
0000
,
0000
0000
0000
0000
,
0100
0000
0000
0000
,
0000
0000
0000
0000
,
0100
0000
0000
0000
,
0000
0000
0000
0000
,
0010
0000
0000
0000
,
0000
0000
0000
0000
,
0010
0000
0000
0000
,
0000
0000
0000
0000
,
0100
0000
0000
0000
,
0000
0000
0000
0000
,
0100
0000
0000
0000
,
0000
0000
0000
0000
,
0001
0000
0000
0000
,
0000
0000
0000
0000
,
0001
0000
0000
0000
,
0000
0000
0000
0000
,
1000
0000
0000
0000
,
0000
0000
0000
0000
,
1000
0000
0000
0000
,
0000
0000
0000
0000
,
0010
0000
0000
0000
,
0000
0000
0000
0000
,
0010
0000
0000
0000
,
0000
0000
0000
0000
,
0100
0000
0000
0000
,
0100
0000
0000
0000
,
0100
0000
0000
0000
,
0001
0000
0000
0000
,
0000
0000
0000
0000
,
1000
0000
0000
0000
,
0000
0000
0000
0000
,
0001
0000
0000
0000
,
0000
0000
0000
0000
,
1000
0000
0000
0000
,
0000
0000
0000
0000
,
0001
0000
0000
0000
;
