#TITLE:Hong kong magic;
#SUBTITLE:;
#ARTIST:tiger YAMATO;
#TITLETRANSLIT:;
#SUBTITLETRANSLIT:;
#ARTISTTRANSLIT:;
#CREDIT:SupremeX;
#BANNER:Hong Kong magic-bn.png;
#BACKGROUND:Hong Kong magic-bg.png;
#LYRICSPATH:;
#CDTITLE:;
#MUSIC:Hong kong magic.ogg;
#OFFSET:-1.216;
#SAMPLESTART:10.796;
#SAMPLELENGTH:12.000;
#SELECTABLE:YES;
#BPMS:0.000=150.000;
#STOPS:;
#BGCHANGES:;

//---------------dance-single - ----------------
#NOTES:
     dance-single:
     :
     Hard:
     8:
     0.499,0.528,0.108,0.018,0.000: // measure 1
0000
0000
0000
0000
,  // measure 2
0000
0000
0000
0000
,  // measure 3
0000
0000
0000
0000
,  // measure 4
0000
0000
0000
0000
,  // measure 5
1000
0001
1000
0001
,  // measure 6
0100
0000
0010
0000
1000
0001
1000
0001
,  // measure 7
0100
0010
0100
0010
0010
0000
1000
0001
,  // measure 8
0010
0100
1000
0100
0100
0000
1000
1000
,  // measure 9
1000
0000
0001
0010
0100
1000
0010
0100
,  // measure 10
0010
1000
0001
0000
1000
1000
0001
0000
,  // measure 11
1000
0100
0010
0001
0001
0000
0001
1000
,  // measure 12
0010
0100
0010
1000
1000
0000
0001
0001
,  // measure 13
0001
0000
1000
0010
0100
0010
1000
0010
,  // measure 14
0100
0000
0001
0000
1000
1000
1000
0000
,  // measure 15
0001
0010
0100
1000
0100
0000
0010
0001
,  // measure 16
0010
0100
1000
0100
0010
0000
0001
0001
,  // measure 17
0001
0000
1000
0100
1000
0100
0010
0001
,  // measure 18
0010
0001
0100
0010
1000
0010
0100
0000
,  // measure 19
0001
0010
0100
1000
1000
0000
0001
0001
,  // measure 20
0010
0100
1000
0100
0100
0000
1000
1000
,  // measure 21
1000
0000
0001
1000
0100
1000
0001
0000
,  // measure 22
1000
0100
0010
0001
0010
0100
1000
0000
,  // measure 23
0010
0100
0010
0000
1000
0001
1000
0000
,  // measure 24
0010
0100
0010
0000
1000
0100
0010
0000
,  // measure 25
0001
0010
0100
0000
1000
0100
0010
0000
,  // measure 26
0001
0010
0100
0000
1000
0100
1000
0000
,  // measure 27
0001
1000
0001
1000
0010
0100
0010
0000
,  // measure 28
1000
0100
0010
0001
1000
0100
1000
0000
,  // measure 29
0001
0100
0001
1000
0100
1000
0100
0000
,  // measure 30
0010
0001
0010
0100
1000
0100
0010
0001
,  // measure 31
0010
0001
0001
0001
,  // measure 32
0001
0001
0001
0001
,  // measure 33
1000
1000
1000
1000
,  // measure 34
1000
1000
1000
1000
,  // measure 35
0010
0100
0001
0100
,  // measure 36
0010
1000
1100
0010
,  // measure 37
0011
0100
0110
1000
,  // measure 38
1010
0100
0101
1000
,  // measure 39
1001
0001
0110
1000
,  // measure 40
1100
1100
0011
0011
,  // measure 41
1000
0100
1000
0100
1000
0000
0001
0010
,  // measure 42
0100
1000
0010
0100
0010
0000
1000
1000
,  // measure 43
1000
0000
0001
0010
0100
1000
0010
0100
,  // measure 44
0001
0100
0010
0000
0100
0100
0100
0000
,  // measure 45
0001
0010
0001
0010
0001
0000
1000
0100
,  // measure 46
0010
0001
0010
0100
1000
0000
0010
0010
,  // measure 47
0010
0000
1000
0001
0100
0010
1000
0010
,  // measure 48
0100
0001
1000
0000
0001
0001
0001
0000
,  // measure 49
1000
0100
1000
0100
1000
0000
0001
0010
,  // measure 50
0100
1000
0010
0100
0010
0000
1000
1000
,  // measure 51
1000
0000
0010
0100
0001
0100
0010
0100
,  // measure 52
0001
0100
0010
1000
0001
1000
0010
0000
,  // measure 53
1000
0100
1000
0100
1000
0000
0001
0010
,  // measure 54
0100
1000
0010
0100
0010
0000
1000
0001
,  // measure 55
1000
0000
0010
0100
0001
1000
0010
1000
,  // measure 56
0001
0100
0010
0000
1000
0001
1000
0000
,  // measure 57
0010
0100
0010
0000
1000
0100
1000
0000
,  // measure 58
0001
0100
0001
0000
1000
0010
1000
0000
,  // measure 59
0001
0010
0001
0000
1000
0100
0010
0000
,  // measure 60
0001
0010
0100
0000
1000
1000
1000
0000
,  // measure 61
0001
1000
0001
0000
0100
0010
0100
0000
,  // measure 62
0001
1000
0001
0000
0100
0010
0100
0000
,  // measure 63
0001
0010
0100
1000
0010
0100
0010
1000
,  // measure 64
0100
0010
0001
1000
0100
0010
0001
1000
,  // measure 65
2002
0000
0000
0000
,  // measure 66
3003
0000
0000
0000
;

//---------------dance-single - ----------------
#NOTES:
     dance-single:
     :
     Medium:
     5:
     0.345,0.440,0.289,0.135,0.000:
0000
0000
0000
0000
,
0000
0000
0000
0000
,
0000
0000
0000
0000
,
0000
0000
0000
0000
,
1000
0001
1000
0001
,
0100
0010
0100
0010
,
1000
1000
0002
0003
,
0100
0100
0020
0030
,
0100
0001
1000
0010
,
1000
0001
0100
0001
,
1000
0100
2000
3000
,
0100
1000
0002
0003
,
1000
0100
0010
0001
,
1000
0001
0100
0001
,
1000
0100
2000
3000
,
0001
0100
0020
0030
,
1001
0000
0110
0000
,
1001
0100
0110
0001
,
0101
0010
1010
0100
,
0110
0001
1001
0000
,
1000
0100
1000
0001
,
0100
0001
1000
0001
,
0100
0010
0100
0000
0001
1000
0001
0000
,
1000
0100
1000
0000
0010
0000
0010
0000
,
0100
0001
0100
0000
0010
1000
0010
0000
,
1000
0001
1000
0000
0010
0100
0010
0000
,
1000
1000
1000
1000
,
0010
0100
0010
0000
0010
0000
0010
0000
,
0100
0100
0100
0100
,
0001
1000
0001
0000
1000
0001
1000
0000
,
0020
0000
0000
0000
,
0000
0000
0000
0030
,
0200
0000
0000
0000
,
0000
0000
0000
0300
,
0001
1000
0010
1000
,
0001
1000
1001
0010
,
0110
0001
0110
1000
,
0110
0001
1001
1000
,
1001
0010
0110
1000
,
1010
0101
1010
0101
,
0010
0010
2000
3000
,
0100
0100
0200
0300
,
0010
0010
0001
0001
,
0100
0000
0010
0000
1000
0001
1000
0000
,
0010
0100
0020
0030
,
1000
0001
2000
3000
,
0010
0100
0001
0100
,
0010
1000
0001
1000
,
0001
1000
0200
0300
,
0010
0001
0002
0003
,
0101
0010
1010
1000
,
1010
0100
0110
0001
,
1001
1000
1100
0010
,
0110
0001
0101
0010
,
1000
0010
1001
0100
,
0110
0001
1001
0000
,
0100
1000
0100
1000
,
0001
0100
0001
0100
,
0001
0010
0001
1000
,
0010
1000
0001
0000
,
1001
0010
0100
1000
,
0100
0010
0001
1000
,
0110
0001
0100
0001
,
1000
0010
1000
0001
,
0200
0000
0000
0000
,
0300
0000
0000
0000
;

//---------------dance-single - ----------------
#NOTES:
     dance-single:
     :
     Easy:
     3:
     0.234,0.264,0.000,0.027,0.000:
0000
0000
0000
0000
,
0000
0000
0000
0000
,
0000
0000
0000
0000
,
0000
0000
0000
0000
,
1000
1000
0001
0001
,
1000
1000
0001
0001
,
1000
0001
1000
0000
,
0010
0100
0010
1000
,
1000
0001
1000
0001
,
0100
0010
1000
0001
,
1000
1000
1000
0000
,
0001
0001
0001
0000
,
0100
0000
0010
1000
,
0010
0100
0001
0100
,
0010
0010
0010
0000
,
0100
0100
0100
0000
,
0001
0000
1000
0000
,
0001
1000
0001
1000
,
0010
0100
0010
0000
,
1000
0001
1000
0000
,
0000
0000
0001
0000
,
1000
0001
1000
0001
,
0100
0100
0010
0010
,
0100
0100
0010
0100
,
0010
0010
0100
0100
,
0010
0010
0100
0100
,
0001
1000
0001
1000
,
0001
1000
0001
1000
,
0010
0100
0010
0100
,
0010
0100
0010
0010
,
2000
0000
0000
0000
,
0000
0000
0000
0000
,
0000
0000
0000
0000
,
0000
0000
0000
0000
,
3000
0000
0000
0000
,
0000
0000
0001
0000
,
1000
0000
0001
0000
,
1000
0000
0001
0000
,
0100
0000
0010
0000
,
0100
0100
0100
0100
,
0001
0001
1000
0000
,
0010
0010
0100
0000
,
1000
0000
0001
0000
,
1000
0001
1000
1000
,
0010
0010
0100
0000
,
0001
0001
1000
0000
,
0010
0000
1000
0000
,
0001
1000
0001
1000
,
1000
1000
0010
0000
,
0100
0100
0001
0000
,
1000
0000
0001
0000
,
1000
0001
1000
0010
,
0100
0001
1000
0000
,
0010
0100
0001
0000
,
1000
0000
0010
0100
,
0001
1000
0001
0100
,
0010
1000
0010
1000
,
0010
1000
0100
0100
,
1000
0001
1000
0001
,
1000
0000
0001
0000
2000
0000
0000
3000
,
0010
0000
0100
0000
,
0001
0100
0001
0000
,
1000
0000
0010
0000
,
0100
0001
0100
0010
,
2000
0000
0000
0000
,
3000
0000
0000
0000
;

//---------------dance-single - Copied from----------------
#NOTES:
     dance-single:
     Copied from:
     Beginner:
     2:
     0.076,0.115,0.018,0.000,0.000:
0000
0000
0000
0000
,
0000
0000
0000
0000
,
0000
0000
0000
0000
,
0000
0000
0000
0000
,
0001
0000
0000
0000
,
0001
0000
0000
0000
,
1000
0000
0000
0000
,
1000
0000
0000
0000
,
1000
0000
0000
0000
,
1000
0000
0000
0000
,
0010
0000
0000
0000
,
0010
0000
0000
0000
,
0010
0000
0000
0000
,
0010
0000
0000
0000
,
0100
0000
0000
0000
,
0100
0000
0000
0000
,
0100
0000
0000
0000
,
0100
0000
0000
0000
,
0001
0000
0000
0000
,
0001
0000
0000
0000
,
0001
0000
0000
0000
,
0001
0000
0000
0000
,
1000
0000
0000
0000
,
0001
0000
0000
0000
,
0100
0000
0000
0000
,
0010
0000
0000
0000
,
1000
0000
0000
0000
,
0001
0000
0000
0000
,
0100
0000
0000
0000
,
0010
0000
0000
0000
,
1001
0000
0000
0000
,
0000
0000
0000
0000
,
0000
0000
0000
0000
,
0000
0000
0000
0000
,
0100
0000
0000
0000
,
0000
0000
0100
0000
,
0000
0000
0100
0000
,
0000
0000
0100
0000
,
0000
0000
0100
0000
,
0000
0000
0000
0000
,
0010
0000
0000
0000
,
0010
0000
0000
0000
,
0010
0000
0000
0000
,
0010
0000
0000
0000
,
1000
0000
0000
0000
,
1000
0000
0000
0000
,
1000
0000
0000
0000
,
1000
0000
0000
0000
,
0001
0000
0000
0000
,
0001
0000
0000
0000
,
0001
0000
0000
0000
,
0001
0000
0000
0000
,
0100
0000
0000
0000
,
0100
0000
0000
0000
,
0100
0000
0000
0000
,
0100
0000
0000
0000
,
0010
0000
0000
0000
,
1000
0000
0000
0000
,
0001
0000
0000
0000
,
0100
0000
0000
0000
,
0010
0000
0000
0000
,
1000
0000
0000
0000
,
0001
0000
0000
0000
,
0100
0000
0000
0000
,
1001
0000
0000
0000
;
